#TITLE:Fairy Tale;
#SUBTITLE:;
#ARTIST:NUU$HI;
#TITLETRANSLIT:;
#SUBTITLETRANSLIT:;
#ARTISTTRANSLIT:;
#GENRE:Future Riddim;
#CREDIT:;
#BANNER:Fairy Tale-bn.png;
#BACKGROUND:Fairy Tale-bg.png;
#LYRICSPATH:;
#CDTITLE:cdtitle.png;
#MUSIC:Fairy Tale.ogg;
#OFFSET:-0.008000;
#SAMPLESTART:27.049999;
#SAMPLELENGTH:13.521000;
#SELECTABLE:YES;
#BPMS:0.000000=142.000000
;
#STOPS:
;
#BGCHANGES:;
#KEYSOUNDS:;
#ATTACKS:;

//---------------dance-single - ----------------
#NOTES:
     dance-single:
     X-Scale 2:
     Beginner:
     2:
     0.125648,0.172794,0.015567,0.000000,0.000000,113.000000,111.000000,2.000000,0.000000,0.000000,0.000000,0.125648,0.172794,0.015567,0.000000,0.000000,113.000000,111.000000,2.000000,0.000000,0.000000,0.000000:
0000
0000
0000
0000
,
0000
0000
0000
0000
,
0000
0000
0000
0000
,
0000
0000
0000
0000
,
1000
0000
0000
0000
,
0001
0000
0000
0000
,
1000
0000
0000
0000
,
0001
0000
0000
0000
,
1000
0000
0000
0000
,
0000
0000
0000
0000
,
0001
0000
0000
0000
,
0000
0000
0000
0000
,
1000
0000
0010
0000
,
1000
0000
0001
0000
,
1000
0000
0010
0000
,
1000
0000
0000
0000
,
1001
0000
0001
0000
,
0100
0000
0010
0000
,
0100
0000
0001
0000
,
0010
0000
0100
0000
,
0010
0000
0001
0000
,
1000
0000
0100
0000
,
1000
0000
0001
0000
,
1000
0000
0100
0000
,
0010
0000
0000
0000
,
0001
0000
0000
0000
,
1000
0000
0001
0000
,
1000
0000
0010
0000
,
1000
0000
0001
0000
,
0010
0000
0100
0000
,
1000
0000
0010
0000
,
1000
0000
0100
0000
,
0010
0000
0001
0000
,
1000
0000
0000
0000
,
0001
0000
0000
0000
,
0000
0000
0000
0000
,
1000
0000
0000
0000
,
0000
0000
0000
0000
,
0010
0000
1000
0000
,
0001
0000
1000
0000
,
0100
0000
1000
0000
,
0001
0000
0000
0000
,
0000
0000
0000
0000
,
0000
0000
0000
0000
,
1001
0000
1000
0000
,
0010
0000
1000
0000
,
0001
0000
0010
0000
,
0100
0000
0010
0000
,
0001
0000
1000
0000
,
0010
0000
1000
0000
,
0000
0000
0001
0000
,
1000
0000
0010
0000
,
1000
0000
0001
0000
,
0010
0000
0001
0000
,
1000
0000
0010
0000
,
1000
0000
0001
0000
,
0010
0000
0100
0000
,
0010
0000
0001
0000
,
1000
0000
0000
0000
,
0000
0000
0000
0000
,
0001
0000
0010
0000
,
0001
0000
1000
0000
,
0001
0000
0010
0000
,
0100
0000
1000
0000
,
0001
0000
1000
0000
,
0010
0000
1000
0000
,
0000
0000
0001
0000
,
1000
0000
0010
0000
,
1000
0000
0001
0000
,
1000
0000
0100
0000
,
0010
0000
0001
0000
,
1000
0000
0001
0000
,
0010
0000
0100
0000
,
1000
0000
0001
0000
,
1000
0000
0000
0000
;

//---------------dance-single - ----------------
#NOTES:
     dance-single:
     X-Scale 9:
     Easy:
     6:
     0.294661,0.403185,0.326907,0.420309,0.000000,265.000000,223.000000,42.000000,54.000000,0.000000,0.000000,0.294661,0.403185,0.326907,0.420309,0.000000,265.000000,223.000000,42.000000,54.000000,0.000000,0.000000:
0000
0000
0000
0000
,
0000
0000
0000
0000
,
0000
0000
0000
0000
,
0000
0000
0000
0000
,
1002
0000
0003
0000
1000
0010
1000
0000
,
0002
0000
0003
0000
1000
0100
1000
0000
,
2001
0000
3000
0000
0001
0010
0001
0000
,
2000
0000
3000
0000
0100
0010
0100
0010
,
0110
0000
0000
0000
,
0000
0000
0000
0000
,
0002
0000
2003
0000
,
3020
0000
0230
0000
,
0301
0001
0010
0010
,
0100
0100
1000
1000
,
0001
1000
0001
1000
0001
1000
0001
1000
,
0001
0000
0000
0000
,
1010
1000
1100
0001
,
0200
0000
0310
0000
0100
0001
0100
0000
,
1001
0001
0011
1000
,
0020
0000
0130
0000
0010
1000
0010
0000
,
1010
1000
1100
0001
,
0200
0000
0310
0000
0100
0001
0100
0000
,
1001
0001
0011
1000
,
0020
0130
0010
0010
,
0220
0330
0000
0000
,
0002
0000
1003
0000
,
0001
0010
0110
0010
,
0001
1000
1100
1000
,
0010
1000
1001
1000
,
0100
0010
0011
0010
,
0100
1000
1010
1000
,
0001
0010
0110
0010
,
0001
1000
1100
1000
,
0010
0100
0001
1000
,
1001
0000
0000
0000
,
0000
0000
0000
0000
,
2000
0000
3002
0000
,
0203
0000
0320
0000
,
1030
1000
0100
0100
,
0010
0010
0001
0001
,
1000
0001
1000
0001
1000
0001
1000
0001
,
2000
0000
0000
0000
,
3000
0000
0000
0000
,
0000
0000
0000
0000
,
0011
0000
1000
0000
0001
0100
0001
0000
,
1100
0000
0001
0000
1000
0010
1000
0000
,
0110
0000
0001
0000
1000
0100
1000
0000
,
0110
0000
0001
0000
1000
0010
1000
0000
,
0101
0000
1000
0000
0001
0010
0001
0000
,
1100
0001
0100
0100
,
0020
0000
2030
0000
,
3002
0000
0000
0000
1003
0010
1000
0010
,
2000
0000
3002
0000
,
0023
0000
0000
0000
0130
1000
0100
1000
,
0200
0000
2300
0000
,
3002
0000
0000
0000
0103
0010
0100
0010
,
0200
0000
0302
0000
,
0023
0000
0130
0000
,
1001
0000
0202
0303
,
0220
0330
2020
3030
,
1001
0000
2200
3300
,
0220
0330
0022
0033
,
1001
0000
2000
0000
,
0001
0000
3100
0000
,
1001
0000
0002
0000
,
1000
0000
0103
0000
,
0020
0030
0200
0310
,
1001
0000
0020
0130
,
1001
0000
2000
3100
,
0002
0103
2000
3010
,
1001
0000
0012
0000
,
0100
0000
0010
0003
,
1001
0000
2010
0000
,
0100
0000
0010
3000
,
0001
0000
0000
0000
;

//---------------dance-single - ----------------
#NOTES:
     dance-single:
     X-Scale 11:
     Medium:
     8:
     0.488136,0.518381,0.093402,0.334690,0.315232,439.000000,427.000000,12.000000,43.000000,0.000000,0.000000,0.488136,0.518381,0.093402,0.334690,0.315232,439.000000,427.000000,12.000000,43.000000,0.000000,0.000000:
// measure 0
0000
0000
0000
0000
,  // measure 1
0000
0000
0000
0000
,  // measure 2
0000
0000
0000
0000
,  // measure 3
0000
0000
0000
0000
,  // measure 4
2100
0000
0000
0000
3001
1000
0010
0000
,  // measure 5
0200
0000
0000
0000
0301
0010
0100
0000
,  // measure 6
1200
0000
0000
0000
0310
0100
1000
0000
,  // measure 7
0002
0000
0000
0000
0103
0001
1000
0001
,  // measure 8
0200
0010
1000
0010
,  // measure 9
0001
0010
1000
0010
,  // measure 10
0301
0100
1000
0100
0001
0000
0100
0010
,  // measure 11
0001
0000
1000
0000
0010
0100
1000
0000
,  // measure 12
0100
1000
0100
1000
0100
0001
0100
0001
,  // measure 13
0100
1000
0100
1000
0100
0010
0100
0010
,  // measure 14
0001
0001
0001
0001
1000
1000
1000
1000
,  // measure 15
0200
0000
0320
0000
,  // measure 16
0031
0010
1000
0010
0002
0000
1003
0010
,  // measure 17
2000
0000
0000
0000
3001
0000
0100
0010
0100
0000
0001
0000
0020
0000
0000
0000
,  // measure 18
1030
0010
0100
0010
0002
0000
1003
0001
,  // measure 19
0200
0000
0000
0000
0310
0000
1000
0010
1000
0000
0100
0000
0002
0000
0000
0000
,  // measure 20
1003
0010
0001
0100
0002
0000
0013
0100
,  // measure 21
2000
0000
0000
0000
3010
0000
0100
0010
0100
0000
0001
0000
0200
0000
0000
0000
,  // measure 22
1300
0100
0001
1000
0200
0000
0301
0100
,  // measure 23
2000
0000
0000
0000
0000
0000
0000
0000
0000
0000
0000
0000
3001
0000
0000
0000
0000
0000
1000
0000
0000
0010
0000
0000
1000
0000
0000
0000
0010
0000
0000
0000
0100
0000
0000
0000
0001
0000
0000
0000
0010
0000
0000
0000
0100
0000
0000
0000
,  // measure 24
2000
0000
0001
0010
,  // measure 25
3002
0000
0023
0000
,  // measure 26
0130
0000
0000
0000
0100
0000
0000
0000
1100
0000
0000
1000
0100
0000
1000
0000
,  // measure 27
0001
0000
0000
0000
0000
0000
0000
0000
0000
0010
0000
0000
0100
0000
0000
0000
0000
0000
1000
0000
0000
0000
0000
0000
0001
0000
0000
0000
0000
0000
0100
0000
0000
0000
0000
0000
0001
0000
0000
0000
1000
0000
0000
0000
0001
0000
0000
0000
,  // measure 28
1000
0000
0000
0000
1000
0000
0000
0000
1010
0000
0000
0010
1000
0000
0001
0000
,  // measure 29
0010
0000
0000
0100
1000
0000
0001
0000
0010
0000
1000
0000
0001
0000
0100
0000
,  // measure 30
1000
0000
0000
0000
0001
0000
0000
0000
0101
0000
0000
0001
1000
0000
0010
0000
,  // measure 31
1000
0000
0000
0000
0000
0000
0000
0000
0000
0100
0000
0000
0010
0000
0000
0000
0000
0000
0001
0000
0000
0000
0000
0000
1000
0000
0000
0000
0000
0000
0010
0000
0000
0000
0000
0000
0100
0000
0000
0000
0001
0000
0000
0000
0100
0000
0000
0000
,  // measure 32
0001
0000
0000
0000
0001
0000
0000
0000
1001
0000
0000
1000
0010
0000
1000
0000
,  // measure 33
0001
0000
0000
0010
0000
0000
1000
0000
0001
0000
0100
0000
1000
0000
0001
0000
,  // measure 34
2000
0100
0010
0001
,  // measure 35
0010
0100
0010
0001
,  // measure 36
3100
1000
0001
0100
0020
0000
1030
0010
,  // measure 37
0002
0000
0013
0100
0001
1000
0100
0010
,  // measure 38
0001
0100
1000
0100
0001
0010
1000
0010
,  // measure 39
0001
0100
1000
0100
0001
0100
0010
1000
,  // measure 40
0001
0001
0001
0001
0100
0100
0100
0100
,  // measure 41
0002
0000
0000
0000
,  // measure 42
0203
0000
2300
0000
,  // measure 43
3020
0000
0000
0000
0032
0000
0000
0003
,  // measure 44
2001
0000
0000
0000
0000
0000
3010
1000
0002
0000
0000
0000
0013
0000
0100
0000
,  // measure 45
1000
0010
0001
0010
1000
0100
0010
0100
,  // measure 46
2000
0000
0000
0000
0000
0000
3001
1000
0002
0000
0000
0000
1003
0000
0100
0000
,  // measure 47
0001
1000
0010
0100
1000
0001
1000
0100
,  // measure 48
0020
0000
0000
0000
0000
0000
0031
0010
0200
0000
0000
0000
0301
0000
0100
0000
,  // measure 49
1000
0000
0000
0001
0000
0000
0100
0000
0000
0010
0000
0000
1000
0000
0010
0000
1000
0000
0001
0000
1000
0000
0010
0000
,  // measure 50
2000
0000
0010
0000
3001
0000
0001
1000
,  // measure 51
0001
0000
0000
0000
0010
0000
0100
0010
0001
0000
1000
0000
0010
0000
0100
0000
,  // measure 52
0002
0000
0100
0000
1003
0000
0001
1000
,  // measure 53
0001
0000
0000
0000
0010
0000
0100
0010
0001
0000
1000
0000
0001
0000
0100
0000
,  // measure 54
0020
0000
0001
0000
1030
0000
0010
1000
,  // measure 55
0001
0000
0000
0000
1000
0000
0100
1000
0001
0000
0010
0000
1000
0000
0010
0000
,  // measure 56
0002
0000
0100
0000
1003
0000
0001
0010
,  // measure 57
0100
0000
1000
0010
2000
3000
0002
0000
,  // measure 58
0013
0000
0000
0010
0000
0000
0001
0000
0010
0000
1000
0000
,  // measure 59
0001
0000
0100
0000
1000
0000
0001
0000
0100
0000
0010
0000
,  // measure 60
0110
0000
0000
0001
0000
0000
1000
0000
0100
0000
0001
0000
,  // measure 61
1000
0000
0010
0000
0001
0000
0100
0000
0010
0000
1000
0000
,  // measure 62
0001
0000
0000
1000
0000
0000
1001
0000
0001
0000
1000
0100
,  // measure 63
0001
0000
1000
0000
0010
0100
1000
0000
0010
0000
1000
0001
,  // measure 64
0100
0000
0000
0001
0000
0000
0101
0000
0001
0000
1000
0100
,  // measure 65
0001
0000
1000
0000
0010
0100
2000
0000
0000
0000
0000
0000
,  // measure 66
3002
0000
0000
0000
0000
0000
1003
0000
0010
0000
0001
0000
,  // measure 67
1000
0000
0100
0000
0001
0000
0010
0000
0100
0000
1000
0000
,  // measure 68
0001
0000
0000
1000
0000
0000
0001
0000
0100
0010
0100
0000
,  // measure 69
0001
0000
0100
0000
0010
0000
1000
0000
0001
0100
0001
0000
,  // measure 70
1000
0000
0000
0100
0000
0000
1001
0000
0000
0100
0010
1000
,  // measure 71
0001
0000
0000
0010
0100
1000
0001
0000
0000
0100
0001
1000
,  // measure 72
0010
0000
0000
0100
0000
0000
1001
0000
0000
0010
0001
1000
,  // measure 73
0010
0000
0000
0100
0001
1000
0001
0000
0000
0100
0001
1000
,  // measure 74
0100
0000
0000
0000
;

//---------------dance-single - ----------------
#NOTES:
     dance-single:
     X-Scale 13:
     Hard:
     9:
     0.570419,0.719973,0.342474,0.365824,0.463118,513.000000,469.000000,44.000000,47.000000,39.000000,1.000000,0.570419,0.719973,0.342474,0.365824,0.463118,513.000000,469.000000,44.000000,47.000000,39.000000,1.000000:
0000
0000
0000
0000
,
0000
0000
0000
0000
,
0000
0000
0000
0000
,
0000
0000
0000
0000
,
0201
0000
0010
0000
0301
1000
0100
0000
,
2000
0000
0010
0000
3001
0100
0010
0000
,
1002
0000
0100
0000
1003
0010
0100
0000
,
0020
0000
0001
0000
1030
0001
1000
0100
,
0210
00M0
0010
00M0
0010
00M0
0010
00M0
,
0010
00M0
0010
00M0
0310
0001
2000
0000
,
3001
0010
0100
1000
0200
0000
1300
0010
,
0002
0000
0000
0000
0013
0000
1000
0001
1000
0000
0100
0010
0200
0000
0000
0000
,
1300
0001
1000
0001
0100
0010
0100
0010
,
1000
0100
1000
0100
0010
0001
0010
0001
,
1000
0010
1000
0010
0100
0001
0100
0001
1000
0100
1000
0100
0010
0001
0010
0001
,
2000
0000
0000
0000
3002
0000
0000
0003
,
1001
0001
0100
0010
2010
0000
3100
0010
,
0002
0000
0013
0100
0110
0010
0002
0000
,
0103
0010
1000
0100
2100
0000
3001
0010
,
2000
0000
3010
0001
0101
0100
0010
0000
,
1001
0001
0010
0100
2100
0000
3010
0100
,
0002
0000
0103
0010
0110
0100
0002
0000
,
0013
0100
1000
0010
2010
0000
3001
0100
,
2000
0000
0000
0000
0000
0000
3100
0000
0000
0001
0000
0000
1000
0000
0010
0000
1000
0000
0001
0000
0010
0000
0001
0000
,
0200
0000
0320
2030
,
3021
0000
0230
0000
,
1300
0000
0000
0000
1000
0000
0000
0000
1010
0000
0000
1000
0000
0000
0001
0000
,
0001
0000
0000
0000
0000
0000
0000
0000
0000
0010
0000
0000
0000
0000
0000
0000
0000
0000
0100
0000
0000
0000
0000
0000
1100
0000
0000
0000
0000
0000
1000
0000
0000
0000
0000
0000
0010
0000
0000
0000
0100
0000
0000
0000
0010
0000
0000
0000
,
0100
0000
0000
0000
0100
0000
0000
0000
1001
0000
0000
1000
0000
0000
0100
0000
,
0100
0000
0000
1000
0000
0000
0001
0000
0101
0000
0100
0000
0010
0000
0100
0000
,
0001
0000
0000
0000
0001
0000
0000
0000
0011
0000
0000
0001
0000
0000
1000
0000
,
1000
0000
0000
0000
0000
0000
0000
0000
0000
0100
0000
0000
0000
0000
0000
0000
0000
0000
0010
0000
0000
0000
0000
0000
0110
0000
0000
0000
0000
0000
0001
0000
0000
0000
0000
0000
0100
0000
0000
0000
0010
0000
0000
0000
0100
0000
0000
0000
,
0010
0000
0000
0000
0010
0000
0000
0000
1001
0000
0000
0001
0000
0000
0010
0000
,
0010
0000
0000
0001
0000
0000
1000
0000
1000
0000
0010
0000
0100
0000
0010
0000
,
1020
M000
1000
M000
1000
M000
1000
M000
,
1000
M000
1030
0000
1000
0100
1000
0000
,
1000
0000
0001
0000
0100
0000
0010
0000
2000
0000
0000
0000
3001
0000
0010
0100
,
0020
0000
0000
0000
0032
0000
1003
0001
1000
0000
0010
0000
0100
0000
0001
0000
,
1000
0010
1000
0010
0100
0001
0100
0001
,
0010
0100
0010
0100
1000
0001
1000
0001
,
1000
0100
1000
0100
0010
0001
0010
0001
0100
0010
0100
0010
1000
0001
1000
0001
,
0020
0000
0000
0000
,
0030
0000
0000
0000
0000
0000
M000
0000
0000
000M
0M00
000M
0M00
0000
0000
00M0
0000
0000
M000
0000
0000
000M
0000
0000
,
0M00
0000
0000
000M
00M0
000M
00M0
0000
0000
0M00
0000
0000
M000
0000
0000
000M
0000
0000
0M00
0000
0000
00M0
0000
0000
,
1001
0004
0103
0010
1010
1000
0100
0000
,
0110
0400
1300
0001
0101
0100
0110
0000
,
0001
0010
1000
0010
0011
0001
0101
0000
,
0100
0040
1030
0100
1100
1000
0010
0000
,
1001
4000
3100
0010
0011
0001
0100
0000
,
0110
0000
0000
0400
0000
0000
0301
0000
0000
0010
0000
0000
0001
0000
0100
0000
0001
0000
1000
0000
0100
0000
1000
0000
,
0020
0000
0000
0000
0130
0000
0001
0000
1000
0000
0001
0000
1000
0000
0000
0100
0000
0000
0001
0000
0000
0000
0000
0000
,
0100
4000
3010
0004
0013
0100
0001
0000
,
0011
0004
1003
0400
0301
0100
1000
0000
,
0010
0400
0301
0040
0031
0100
0101
0100
,
0120
0000
0001
0000
0130
0010
0100
0000
,
0100
0004
0013
4000
3010
0100
1000
0000
,
1010
4000
3001
0400
1300
0100
0001
0000
,
0010
0004
0103
0004
2003
3000
M002
0000
,
2003
0000
0000
3010
0000
0000
1000
0001
1000
0001
0100
0000
,
0001
1000
0001
1000
0010
0000
1000
0001
1000
0001
0100
0000
,
1001
0000
0000
0011
0000
0000
1000
0100
0010
0001
1000
0000
,
0001
0100
0010
1000
0001
0000
1000
0100
0010
0001
1000
0000
,
0101
0000
0000
0110
0000
0000
0002
0000
0023
0000
2030
0000
,
3020
0000
0032
0000
1003
0001
1000
0000
0010
0000
0100
0001
,
0100
0000
0000
0010
0000
0000
2000
0000
3020
0000
0032
0000
,
0023
0000
0000
0000
0000
0000
0000
0000
2030
0000
0000
0000
0000
0000
0000
0000
3001
0000
0000
0000
0010
0000
0000
0000
M200
0000
0000
M000
0000
0000
M000
0000
0000
M000
0000
0000
M000
0000
0000
M000
0000
0000
M000
0000
0000
M000
0000
0000
,
M310
0000
0000
0001
0000
0000
1000
0000
0100
0000
0001
0000
,
0001
0000
0100
0000
1000
0000
1000
0000
0010
0000
0100
0000
,
0110
0000
0000
1001
0000
0000
0001
0100
0001
0010
0100
0000
,
1000
0000
0100
0000
0010
0000
1001
0000
0010
0000
0100
0000
,
1001
0000
0000
0001
0000
0000
1000
0010
0100
0001
0100
0001
,
0010
0100
1000
0100
1000
0100
0010
0100
1000
0010
0100
0001
,
1000
0000
0000
0100
0000
0000
0010
0001
0100
0001
0100
0010
,
1000
0001
1000
0001
0010
0100
1000
0100
1000
0001
1000
0100
,
0010
0000
0000
0000
;

//---------------dance-single - ----------------
#NOTES:
     dance-single:
     X-Scale 15:
     Challenge:
     10:
     0.679388,0.863968,0.264639,0.319123,0.825050,611.000000,577.000000,34.000000,41.000000,29.000000,0.000000,0.679388,0.863968,0.264639,0.319123,0.825050,611.000000,577.000000,34.000000,41.000000,29.000000,0.000000:
0000
0000
0000
0000
,
0000
0000
0000
0000
,
0000
0000
0000
0000
,
0000
0000
0000
0000
,
0102
0000
1000
0000
0013
0100
1000
0000
,
0020
0000
0001
0000
1030
0010
0100
0000
,
0102
0000
1000
0000
0013
0100
1000
0000
,
0200
0000
0010
0000
1300
0100
0001
0100
,
1100
0000
0000
1000
0001
0000
0000
0001
1000
0000
0000
1000
0010
0000
0000
0010
,
0100
0000
0000
0100
0010
0000
0000
0010
1000
0000
0100
0000
0020
0000
0000
0000
,
0031
0100
1000
0100
0002
0000
1003
0010
,
0200
0000
0000
0000
0302
0000
1003
0100
1000
0000
0001
0010
0002
0000
0000
0000
,
1003
0000
1000
0000
1000
0000
0010
0100
0001
0000
0001
0000
0001
0000
0010
0001
,
1000
0000
1000
0000
1000
0000
0100
0010
0001
0000
0001
0000
0001
0000
1000
0000
,
0001
0100
0001
0100
0010
1000
0010
1000
0100
0010
0100
0010
0001
1000
0001
1000
,
0010
0100
0001
1000
0100
0010
0100
1000
0010
0100
0001
1000
,
1010
0000
0000
0010
0000
0000
1000
0000
0000
0001
1000
0001
2000
0000
0000
0000
0000
0000
3010
0000
0000
1000
0000
0000
,
0001
0000
0000
0000
0000
0000
0000
0000
0000
0000
0000
0000
0010
0000
0000
0000
0000
0000
0100
0000
0000
1000
0000
0000
0100
0000
0000
0000
0000
0000
0010
0000
0100
0000
0010
0000
0200
0000
0000
0000
0000
0000
0000
0000
0000
0000
0000
0000
,
1300
0000
0000
0001
0000
0000
0100
0000
0000
0010
1000
0010
2000
0000
0000
0000
0000
0000
3001
0000
0000
0010
0000
0000
,
1000
0000
0000
0000
0000
0000
0000
0000
0000
0000
0000
0000
0010
0000
0000
0000
0000
0000
0001
0000
0000
0100
0000
0000
0001
0000
0000
0000
0000
0000
1000
0000
0100
0000
1000
0000
0200
0000
0000
0000
0000
0000
0000
0000
0000
0000
0000
0000
,
0310
0000
0000
0100
0000
0000
1000
0000
0000
0010
0100
0010
0200
0000
0000
0000
0000
0000
1300
0000
0000
0100
0000
0000
,
0010
0000
0000
0000
0000
0000
0000
0000
0000
0000
0000
0000
0100
0000
0000
0000
0000
0000
0001
0000
0000
0010
0000
0000
0001
0000
0000
0000
0000
0000
1000
0000
0001
0000
1000
0000
0002
0000
0000
0000
0000
0000
0000
0000
0000
0000
0000
0000
,
0013
0000
0000
0001
0000
0000
1000
0000
0000
0010
0100
0010
0200
0000
0000
0000
0000
0000
0301
0000
0000
0100
0000
0000
,
0110
0000
0000
0000
0000
0000
0000
0000
0000
0000
0000
0000
1001
0000
0000
0000
0000
0000
1000
0000
0000
0010
0000
0000
1000
0000
0000
0000
0100
0000
0000
0000
0001
0000
0000
0000
0100
0000
0000
0000
0010
0000
0000
0000
0001
0000
0000
0000
,
2000
0000
0010
0000
0001
0000
3002
0000
0000
0023
0000
0000
,
2030
0000
3020
0000
,
0031
0000
0000
0000
0001
0000
0000
0000
0101
0000
0000
1000
0010
0000
0100
0000
,
0010
0000
0000
0000
0000
0000
0000
0000
0000
1000
0000
0000
0100
0000
0000
0000
0000
0000
0010
0000
0000
0000
0000
0000
0110
0000
0000
0000
0000
0000
0100
0000
0000
0000
0000
0000
1000
0000
0000
0000
0001
0000
0000
0000
1000
0000
0000
0000
,
0001
0000
0000
0000
0001
0000
0000
0000
1010
0000
0000
1000
0100
0000
0001
0000
,
0100
0000
0000
1000
0010
0000
0100
0000
0110
0000
0010
0000
0001
0000
0010
0000
,
1000
0000
0000
0000
0001
0000
0000
0000
1010
0000
0000
0001
0100
0000
0010
0000
,
0100
0000
0000
0000
0000
0000
0000
0000
0000
0001
0000
0000
0010
0000
0000
0000
0000
0000
0100
0000
0000
0000
0000
0000
0110
0000
0000
0000
0000
0000
0010
0000
0000
0000
0000
0000
0001
0000
0000
0000
1000
0000
0000
0000
0001
0000
0000
0000
,
1000
0000
0000
0000
1000
0000
0000
0000
0101
0000
0000
0001
0010
0000
1000
0000
,
0010
0000
0000
0001
0100
0000
1000
0000
0100
0000
0001
0000
0010
0000
0100
0000
,
1001
0000
0000
1000
0010
0000
0000
0010
1000
0000
0000
1000
0001
0000
0000
0001
,
0010
0000
0000
0010
0100
0000
0000
0100
1000
0000
0000
1000
0001
0000
0000
0001
,
1000
0000
0100
0000
0010
0000
0001
0010
0002
0000
0000
0000
1003
0000
0010
0100
,
0020
0000
0000
0000
1030
0000
0001
0100
0001
0000
0010
0000
0100
0000
0100
0000
,
1000
0000
1000
0000
1000
0000
0100
0010
0001
0000
0001
0000
0001
0000
0100
0001
,
1000
0000
1000
0000
1000
0000
0010
0100
0001
0000
0001
0000
0001
0000
1000
0000
,
0010
1000
0010
1000
0100
0010
0100
0010
0001
1000
0001
1000
0010
0100
0010
0100
,
0002
0000
0000
0000
,
0003
0000
0000
0000
0000
0000
000M
0000
0000
M000
00M0
M000
00M0
0000
0000
0M00
0000
0000
000M
0000
0000
M000
0000
0000
,
00M0
0000
0000
M000
0M00
M000
0M00
0000
0000
00M0
0000
0000
000M
0000
0000
M000
0000
0000
00M0
0000
0000
0M00
0000
0000
,
1001
0000
0000
0001
0100
0001
0100
0000
0000
0010
0000
0000
0100
0000
0000
0001
0000
0000
0010
0000
0000
0000
0001
0000
,
1000
0000
0000
0010
0100
0010
0100
0000
0000
0001
0000
0000
0011
0000
0000
0001
0000
0000
0101
0000
0000
0000
0100
0000
,
0010
0000
0000
0001
0000
0000
0010
0000
0000
0100
0001
0100
0001
0000
0000
1000
0000
0000
0100
0000
0000
0000
1000
0000
,
0001
0000
0000
1000
0100
1000
0100
0000
0000
1000
0000
0000
1010
0000
0000
1000
0000
0000
0001
0000
0000
0000
0100
0000
,
0001
0000
0000
0010
0100
0010
0100
0000
0000
1000
0000
0000
1001
0000
0000
1000
0000
0000
0100
0000
0000
0000
0010
0000
,
0100
0000
0000
1000
0001
1000
0001
0000
0000
0100
0000
0000
0001
0000
1000
0000
0010
0000
0100
0000
0001
0000
0010
0000
,
0000
MMMM
0000
0000
0001
0000
1000
0000
0001
0000
0100
0000
0010
0000
0000
0100
0000
0000
0001
0000
0000
0000
0010
0000
,
0100
0000
0000
1000
0100
1000
0100
0000
0000
0010
0001
0010
0001
0000
0000
0100
0000
0000
0010
0000
0000
0000
0100
0000
,
0001
0000
0000
1000
0010
1000
0010
0000
0000
0100
0001
0100
0001
0000
0000
1000
0000
0000
0010
0000
0000
0000
0010
0000
,
0100
0000
0000
0001
0010
0001
0010
0000
0000
0010
0000
0000
0110
0000
0000
0100
0000
0000
1100
0000
0000
0000
1000
0000
,
0002
0000
0000
0000
0000
0000
0100
0000
0000
0000
0000
0000
1003
0000
0000
0010
0000
0000
1000
0000
0000
0000
1000
0000
,
0010
0000
0000
0100
0010
0100
0010
0000
0000
1000
0100
1000
0100
0000
0000
0010
0000
0000
1000
0000
0000
0010
0000
0000
,
0001
0000
0000
0100
0001
0100
0001
0000
0000
0010
0100
0010
0100
0000
0000
1000
0000
0000
0001
0000
0000
0000
0010
0000
,
0100
0000
0000
0010
0001
0010
0001
0000
0000
1000
0000
0000
2002
0000
0000
3003
0000
0000
0002
0000
0000
0000
0000
0000
,
0203
0000
0000
0310
0000
0000
1000
0100
0010
0100
1000
0000
,
0001
0010
0100
0010
0001
0000
1000
0100
0010
0100
1000
0000
,
1010
0000
0000
0100
0000
0000
0001
0100
1000
0100
0001
0000
,
1000
0010
0001
0010
1000
0000
0001
0100
1000
0100
0001
0000
,
0011
0000
0000
0100
0000
0000
2000
0000
3020
0000
0032
0000
,
0203
0000
2300
0000
3001
0100
0010
0000
0100
0000
0001
0010
,
0100
0000
0000
1000
0000
0000
0002
0000
0023
0000
2030
0000
,
3200
0000
0000
0000
0000
0000
0000
0000
0302
0000
0000
0000
0000
0000
0000
0000
0103
0000
0000
0000
0010
0000
0000
0000
2M00
0000
0000
0M00
0000
0000
0M00
0000
0000
0M00
0000
0000
0M00
0000
0000
0M00
0000
0000
3M00
0000
0000
0000
0000
0000
,
0002
0000
0000
0010
0000
0000
1003
0000
1000
0010
0001
0000
,
1000
0000
0001
0010
1000
0000
0001
0000
0100
0001
1000
0000
,
1001
0000
0000
1100
0000
0000
0101
0100
0001
1000
0001
0000
,
0010
0000
0010
0100
1000
0000
1100
1000
0100
1000
0001
0000
,
1001
0000
0000
0000
0000
0000
0110
0000
0000
0000
0000
0000
1010
0000
0000
1000
0010
0100
0010
0000
0100
0000
0001
0000
,
0010
1000
0001
0100
1000
0010
0100
1000
0100
0001
1000
0100
,
0110
0000
0000
0000
0000
0000
0011
0000
0000
0000
0000
0000
1010
0000
0000
1000
0001
0100
0001
0000
1000
0000
0010
0000
,
0001
0010
0100
0010
1000
0100
0010
0001
0100
0010
1000
0001
,
0100
0000
0000
0000
;
