#TITLE:Fade Away;
#SUBTITLE:;
#ARTIST:Hannah Diamond;
#TITLETRANSLIT:;
#SUBTITLETRANSLIT:;
#ARTISTTRANSLIT:;
#GENRE:House;
#CREDIT:;
#BANNER:fa-bn.png;
#BACKGROUND:fa-bg.png;
#LYRICSPATH:;
#CDTITLE:cdtitle.png;
#MUSIC:fade away.ogg;
#OFFSET:0.000000;
#SAMPLESTART:59.077000;
#SAMPLELENGTH:12.000000;
#SELECTABLE:YES;
#BPMS:0.000000=130.000000
;
#STOPS:
;
#BGCHANGES:;
#KEYSOUNDS:;
#ATTACKS:;

//---------------dance-single - ----------------
#NOTES:
     dance-single:
     :
     Easy:
     3:
     0.250472,0.337867,0.100976,0.275389,0.055078,191.000000,180.000000,11.000000,30.000000,0.000000,0.000000,0.250472,0.337867,0.100976,0.275389,0.055078,191.000000,180.000000,11.000000,30.000000,0.000000,0.000000:
0000
0000
0000
0000
,
0000
0000
0000
0000
,
0000
0000
0000
0000
,
0000
0000
0000
0000
,
0002
0000
0000
0100
0000
0000
0000
0000
,
0203
0000
0000
0010
0000
0000
0000
0000
,
0320
0000
0000
1000
0000
0000
0000
0000
,
2030
0000
0000
0001
0000
0000
0000
3000
,
1001
0000
0000
0000
0000
0000
0000
1000
0000
0000
0100
0000
0000
0000
0000
0000
,
1000
0000
0000
0000
0000
0000
0000
0010
0000
0000
0100
0000
0000
0000
0000
0000
,
0001
0000
0000
0000
0000
0000
0000
0001
0000
0000
0100
0000
0000
0000
0000
0000
,
0010
0000
0000
0000
0000
0000
0000
0010
0000
0000
1000
0000
0000
0000
0000
0000
,
0100
0000
0000
0000
0000
0000
0000
0100
0000
0000
1000
0000
0000
0000
0000
0000
,
0001
0000
0000
0000
0000
0000
0000
1000
0000
0000
0001
0000
0000
0000
0000
0000
,
0010
0000
0000
0000
0000
0000
0000
0010
0000
0000
0001
0000
0000
0000
0000
0000
,
0100
0000
0000
0000
0000
0000
0000
0100
0000
0000
0010
0000
0000
0000
0000
0000
,
0110
0000
0000
0000
0100
0000
0001
0010
,
0000
0100
0000
1000
0000
0000
0000
1000
,
0001
0000
0000
0000
0010
0000
0001
1000
,
0000
0010
0000
0001
0000
0100
0000
1000
,
1100
0000
0000
0000
0010
0000
0100
0001
,
0000
0010
0000
0001
0000
0000
0000
0001
,
1000
0000
0000
0000
0100
0000
1000
0001
,
0000
0100
0000
0001
0000
0100
0000
0010
,
0220
0000
0000
0000
0000
0330
0010
2000
,
0010
0000
0000
3000
0000
0000
0100
0000
,
0020
0000
0030
0002
0000
0003
0100
0000
,
0102
0000
0003
0001
,
0101
0010
0100
0010
,
1000
0100
1000
0010
,
0020
0000
0030
2000
0000
3000
0100
0000
,
0020
0000
0000
0030
0002
0000
0000
0003
,
0011
0010
0001
0100
,
0001
0010
1000
0100
,
0002
0000
0003
0020
0000
0030
0010
0000
,
0200
0000
0000
0300
1000
0000
0002
0000
,
0000
0003
0010
0000
0002
0000
0000
0003
,
1000
0000
0002
0000
0000
0003
0100
0000
,
0020
0000
0000
0030
0001
0000
0200
0000
,
0000
0300
1000
0000
0010
0000
1000
0000
,
1010
0010
0100
0010
,
1000
0001
0010
0001
,
0100
0000
0000
0100
0000
0000
0100
0000
0001
0000
0000
0000
0100
0000
0000
0000
,
0010
0000
0000
0010
0000
0000
0010
0000
1000
0000
0000
0000
0100
0000
1000
0000
,
0100
0010
0001
0100
,
0001
0010
0100
1000
,
0010
0000
0000
0010
0000
0000
0010
0000
1000
0000
0000
0000
0001
0000
0000
0000
,
0100
0000
0000
0100
0000
0000
0100
0000
0001
0000
0000
0000
0001
0000
1000
0000
,
1001
0100
0001
0100
,
0010
0000
0001
0020
0000
0000
1030
0000
,
0200
0000
1000
0000
0000
0300
0010
0100
,
1000
0000
0010
0200
0000
0000
0301
0100
,
0020
0000
0000
0000
0000
0030
0010
0000
,
0110
0000
0100
0002
0000
0000
0013
0001
,
2000
0000
0000
0000
0000
3000
0001
0000
,
1001
0000
0010
2000
0000
0000
3010
0100
,
0002
0000
0000
0000
0000
0003
0000
0000
;

//---------------dance-single - ----------------
#NOTES:
     dance-single:
     :
     Beginner:
     1:
     0.184904,0.337867,0.110155,0.302927,0.018359,141.000000,129.000000,12.000000,33.000000,0.000000,0.000000,0.184904,0.337867,0.110155,0.302927,0.018359,141.000000,129.000000,12.000000,33.000000,0.000000,0.000000:
0000
0000
0000
0000
,
0000
0000
0000
0000
,
0000
0000
0000
0000
,
0000
0000
0000
0000
,
2000
0000
0000
0000
,
3020
0000
0000
0000
,
0230
0000
0000
0000
,
0302
0000
0000
0000
,
0013
0000
0000
0010
0000
0000
0100
0000
,
2000
0000
0000
3000
,
1000
0000
0000
0100
0000
0000
0010
0000
,
0002
0000
0000
0003
,
0011
0000
0000
0001
0000
0000
1000
0000
,
2000
0000
0000
3000
,
0001
0000
0000
1000
0000
0000
0001
0000
,
0002
0000
0000
0003
,
1001
0000
0000
0000
0000
0100
0000
0000
,
0010
0000
0000
0000
0000
0100
0000
0000
,
0001
0000
0000
0000
1000
0000
0000
1000
,
0000
0100
0000
0010
0000
0001
0000
0000
,
0011
0000
0000
0000
0000
0001
0000
0000
,
0100
0000
0000
0000
0000
0010
0000
0000
,
1000
0000
0000
0000
0001
0000
0000
0001
,
0000
0010
0000
0100
0000
1000
0000
0000
,
2001
0000
0000
0000
0001
0000
0000
3000
,
1020
0000
0000
0000
1000
0000
0000
0030
,
2010
0000
0000
0000
0010
0000
0000
3000
,
0102
0000
0000
0000
0100
0000
0000
0003
,
1001
0000
1000
0000
,
0001
0000
0100
0000
,
0002
0000
0003
2000
0000
3000
0100
0000
,
0020
0000
0000
0030
0200
0000
0000
0300
,
0110
0000
0100
0000
,
0010
0000
0001
0000
,
0200
0000
0300
0002
0000
0003
0010
0000
,
0002
0000
0000
0003
0100
0000
0002
0000
,
0000
0003
0001
0000
2000
0000
0000
3000
,
0001
0000
2000
0000
0000
3000
1000
0000
,
0020
0000
0000
0030
0100
0000
0002
0000
,
0000
0003
1000
0000
0200
0000
0000
0300
,
1100
0000
0000
0000
0000
1000
0000
0000
,
0001
0000
0000
0000
0000
0100
0000
0000
,
0100
0000
0000
0100
0000
0000
0100
0000
0010
0000
0000
0000
1000
0000
0000
0000
,
0010
0000
0000
0010
0000
0000
0010
0000
0100
0000
0000
0000
0001
0000
1000
0000
,
1001
0000
0000
0000
0000
1000
0000
0000
,
0001
0000
0000
0000
0000
0100
0000
0000
,
0010
0000
0000
0010
0000
0000
0010
0000
1000
0000
0000
0000
0001
0000
0000
0000
,
0100
0000
0000
0100
0000
0000
0100
0000
0010
0000
0000
0000
0010
0000
1000
0000
,
1010
0000
1000
0000
,
0100
0000
0000
0200
0000
0000
1300
0000
,
0002
0000
0100
0000
0000
0003
0001
0000
,
1000
0000
0001
0002
0000
0000
0003
0000
,
0020
0000
0001
0000
0000
0030
0010
0000
,
0100
0000
1000
0002
0000
0000
0003
0000
,
0200
0000
0000
0000
0000
0300
0000
0000
,
0001
0000
0010
0002
0000
0000
0003
0000
,
2000
0000
0000
0000
0000
3000
0000
0000
;

//---------------dance-single - ----------------
#NOTES:
     dance-single:
     :
     Medium:
     6:
     0.347514,0.415837,0.165233,0.394724,0.100976,265.000000,247.000000,18.000000,43.000000,0.000000,0.000000,0.347514,0.415837,0.165233,0.394724,0.100976,265.000000,247.000000,18.000000,43.000000,0.000000,0.000000:
0000
0000
0000
0000
,
0000
0000
0000
0000
,
0000
0000
0000
0000
,
0000
0000
0000
0000
,
2001
0000
0001
0010
0000
0000
0000
0000
,
3010
0000
0010
1000
0000
0000
0000
0000
,
1010
0000
1000
0001
0000
0000
0000
0000
,
1001
0000
0001
0100
0000
0000
0000
0000
,
0101
0000
0001
0000
1000
0000
0200
0000
0000
0000
0300
2000
0000
0000
0000
3000
,
0002
0000
0000
0000
0000
0000
0003
0100
0000
0000
0001
0000
0000
0000
0001
0000
,
1000
0000
0010
0000
1000
0000
0200
0000
0000
0000
0300
0020
0000
0000
0000
0030
,
0002
0000
0000
0000
0000
0000
0003
0100
0000
0000
0010
0000
0000
0000
0010
0000
,
0100
0000
0001
0000
1000
0000
0002
0000
0000
0000
0003
0200
0000
0000
0000
0300
,
0002
0000
0000
0000
0000
0000
0003
1000
0000
0000
0100
0000
0000
0000
0100
0000
,
1000
0000
0100
0000
0001
0000
0200
0000
0000
0000
0300
0020
0000
0000
0000
0030
,
0012
0000
0000
0000
0010
0000
0003
0001
0000
0000
1000
0000
0000
0000
1000
0000
,
1001
0000
0010
0000
0100
0000
0001
0020
,
0000
0230
0000
2300
0000
3000
0000
1000
,
1100
0000
0100
0000
1000
0000
0001
0002
,
0000
2003
0000
3002
0000
0203
0000
0301
,
0101
0000
0010
0000
0001
0000
1000
0020
,
0000
0230
0000
0302
0000
0003
0000
0001
,
0011
0000
0010
0000
0100
0000
1000
2000
,
0000
3002
0000
2003
0000
3200
0000
0310
,
0201
0000
0000
0000
0010
0300
0001
0002
,
1000
0000
0000
0003
1000
0000
0100
0000
,
0020
0000
0030
0002
0100
0003
0010
0000
,
0102
0000
0000
0000
0100
0003
1000
0000
,
1001
0000
0010
0000
0100
0000
0010
0100
,
0100
0001
1000
1000
0001
0000
0100
0000
,
1001
0100
1000
0100
0010
0100
1000
0100
,
0020
0000
0000
0030
0200
0000
0000
0300
,
0110
0000
0000
0000
0010
0000
0000
0010
0100
0000
0010
0000
0000
0000
0001
0000
,
0100
0000
0000
0000
0010
0000
0000
0100
0001
0000
1000
0000
0000
0000
1000
0000
,
0020
0000
0130
0002
0000
0003
0010
0000
,
2000
0000
0001
3000
1000
0000
0002
0000
,
1000
0003
0001
0000
0200
0000
0010
0300
,
0100
0000
0020
0000
1000
0030
0010
0000
,
2000
0000
0100
3000
1000
0000
0002
0000
,
0010
0000
0003
0000
0001
0000
0000
0100
0010
0000
0100
0000
0000
0000
0001
0000
,
0101
0000
0000
0000
1000
0000
0000
1000
0000
0000
0001
0000
0001
0000
1000
0000
,
1000
0000
0000
0000
0010
0000
0000
0010
0000
0000
0010
0000
1000
0000
0000
0000
,
0100
0000
0000
0100
0000
0000
0010
0000
0001
0000
0000
0000
0001
0000
0000
0000
,
0010
0000
0000
0010
0000
0000
0100
0000
1000
0000
0000
0000
1000
0000
0001
0000
,
0100
0000
0000
0000
0010
0000
0000
0100
0001
0000
0010
0000
0001
0000
0100
0000
,
0100
0000
0000
0000
0001
0000
0000
0010
0100
0000
0010
0000
0001
0000
0000
0000
,
0010
0000
0000
0010
0000
0000
0100
0000
1000
0000
0000
0000
1000
0000
0000
0000
,
0100
0000
0000
0100
0000
0000
0010
0000
0001
0000
0000
0000
0001
0000
0010
0000
,
0011
0000
0001
0000
0001
1000
0100
0000
,
0010
0000
0001
1000
0001
0000
0100
0000
,
0100
0000
0000
0000
0010
0000
0000
0010
0000
0000
0010
0000
1000
0000
0001
0000
,
1000
0000
0010
0100
0010
0000
1000
0100
,
0010
0000
0000
0000
0100
0000
0000
0100
0000
0000
0100
0000
0010
0000
0000
0000
,
0110
0000
0100
1000
0001
0000
0001
0010
,
0100
0000
0000
0000
1000
0000
0000
1000
0000
0000
1000
0000
0010
0000
0000
0000
,
1010
0000
0010
1000
0001
0000
0010
0100
,
0020
0000
0000
0000
0000
0030
0000
0000
;

//---------------dance-single - ----------------
#NOTES:
     dance-single:
     :
     Hard:
     9:
     0.473406,0.467816,0.165233,0.045898,0.211131,361.000000,343.000000,18.000000,5.000000,0.000000,0.000000,0.473406,0.467816,0.165233,0.045898,0.211131,361.000000,343.000000,18.000000,5.000000,0.000000,0.000000:
// measure 0
0000
0000
0000
0000
,  // measure 1
0000
0000
0000
0000
,  // measure 2
0000
0000
0000
0000
,  // measure 3
0000
0000
0000
0000
,  // measure 4
0101
0000
0100
0000
0001
0000
0010
0001
0000
0000
0001
0000
0000
0000
0100
0000
,  // measure 5
0010
0000
1000
0000
0100
0000
1000
0010
0000
0000
1000
0000
0000
0000
0100
0000
,  // measure 6
0010
0000
0100
0000
0010
0000
0100
0010
0000
0000
0100
0000
0000
0000
0010
0000
,  // measure 7
0001
0000
0010
0000
0100
0000
1000
0010
0000
0000
0100
0000
0000
0000
0010
0000
,  // measure 8
0110
0000
0100
0000
0010
0000
0100
0001
0000
0000
0001
0000
0000
0000
0010
0000
,  // measure 9
0100
0000
1000
0000
1000
0000
0010
0100
0000
0000
0010
0000
0000
0000
0100
0000
,  // measure 10
0001
0000
0010
0000
0001
0000
0100
0001
0000
0000
0100
0000
0000
0000
0010
0000
,  // measure 11
1000
0000
0001
0000
1000
0000
0010
1000
0000
0000
1000
0000
0000
0000
0001
0000
,  // measure 12
0010
0000
0100
0000
1000
0000
0010
1000
0000
0000
0100
0000
0000
0000
1000
0000
,  // measure 13
0010
0000
0100
0000
0001
0000
0010
0001
0000
0000
0100
0000
0000
0000
0010
0000
,  // measure 14
0010
0000
0100
0000
0001
0000
0010
0001
0000
0000
0100
0000
0000
0000
0010
0000
,  // measure 15
1000
0000
0010
0000
0100
0000
0001
0100
0000
0000
0100
0000
0000
0000
0010
0000
,  // measure 16
0110
0000
0000
0000
0010
0000
0000
0010
0000
0000
0010
0000
0000
0000
1000
0000
,  // measure 17
0001
0000
0000
0000
0100
0000
0000
0100
0000
0000
0100
0000
0000
0000
0010
0000
,  // measure 18
0110
0000
0000
0000
0100
0000
0000
0001
0000
0000
1000
0000
0000
0000
0001
0000
,  // measure 19
0010
0001
1000
0001
0000
0010
0000
0001
,  // measure 20
0011
0000
0000
0000
0001
0000
0000
0001
0000
0000
0001
0000
0000
0000
0100
0000
,  // measure 21
0010
0000
0000
0000
1000
0000
0000
1000
0000
0000
1000
0000
0000
0000
0100
0000
,  // measure 22
0110
0000
0000
0000
0010
0000
0000
0001
0000
0000
0100
0000
0001
0000
1000
0000
,  // measure 23
0001
1000
0010
1000
0000
1000
0000
0010
,  // measure 24
1010
0000
0000
0000
0010
0000
0000
1000
0010
0000
0100
0000
0001
0000
0001
0000
,  // measure 25
0101
0000
0000
0000
0100
0000
0000
0001
0100
0000
0010
0000
1000
0000
1000
0000
,  // measure 26
1100
0000
0000
0000
1000
0000
0000
0001
1000
0000
0010
0000
0100
0000
0100
0000
,  // measure 27
0101
0000
0000
0000
0001
0000
0000
1000
0001
0000
0010
0000
0001
0000
0010
0000
,  // measure 28
0011
0010
0100
1000
,  // measure 29
0001
0100
0001
0010
,  // measure 30
0011
0001
1000
0001
0010
0001
0100
0001
,  // measure 31
4000
0000
0001
0000
3020
0000
0000
0030
,  // measure 32
1010
0000
1000
0000
0001
0000
0000
0010
0100
0000
0010
0000
0000
0000
0010
0000
,  // measure 33
0100
0000
1000
0000
0001
0000
0000
0001
1000
0000
0010
0000
0010
0000
1000
0000
,  // measure 34
1000
0000
0010
0000
0100
0000
0000
0001
1000
0000
0100
0000
0000
0000
0100
0000
,  // measure 35
0010
0000
0001
0010
0001
0000
0000
0001
0100
0000
0010
0000
1000
0000
0100
1000
,  // measure 36
0100
0010
0001
0000
0001
0010
0001
0100
,  // measure 37
0001
0000
0001
0010
0100
1000
0100
0000
,  // measure 38
1000
0000
0001
0000
0100
0000
0001
1000
0000
0000
1000
0000
0001
0000
1000
0000
,  // measure 39
0010
0000
1000
0001
0000
0000
0000
0100
0010
0000
0100
0000
0010
0000
1000
0000
,  // measure 40
1010
0000
0000
0000
0100
0000
0000
0001
0000
0000
1000
0000
0010
0000
0100
0000
,  // measure 41
0010
0000
0000
0000
0010
0000
0000
0010
0000
0000
1000
0000
0001
0000
0000
0000
,  // measure 42
0100
0000
0000
0100
0000
0000
0010
0000
1000
0000
0000
1000
0001
0000
1000
0000
,  // measure 43
0010
0000
0000
0010
0000
0000
0100
0000
1000
0000
0000
0000
0100
0000
0010
0000
,  // measure 44
0110
0000
0000
0000
0010
0000
0000
0010
1000
0000
0100
0000
1000
0000
0010
0000
,  // measure 45
0010
0000
0000
0000
0100
0000
0000
0001
0100
0000
0010
0000
1000
0000
0000
0000
,  // measure 46
0010
0000
0000
1000
0000
0000
0100
0000
1000
0000
0000
1000
0001
0000
0100
0000
,  // measure 47
0001
0000
0000
0001
0000
0000
0010
0000
0001
0000
0000
0000
0001
0000
0010
0000
,  // measure 48
0011
0000
0001
0000
0100
0000
0001
0000
1000
0000
0000
0010
0100
0000
0001
0000
,  // measure 49
1000
0000
0000
0000
0100
0000
0010
0100
0010
0000
0001
0000
0100
0000
0001
0000
,  // measure 50
0200
0000
0001
0000
0010
0310
0100
0001
,  // measure 51
1000
0000
0000
0000
1000
0000
0001
0100
0001
0000
0010
0000
0100
0000
1000
0000
,  // measure 52
0020
0000
0100
0000
0100
1030
0010
0100
,  // measure 53
0110
0000
0000
0000
0100
0000
0001
1000
0010
0000
0100
0000
0001
0000
1000
0000
,  // measure 54
2000
0000
0010
0000
0001
3001
1000
0100
,  // measure 55
1100
0000
0000
0000
0100
0000
0000
1000
0001
0000
0010
0000
0100
0000
1000
0000
,  // measure 56
0200
0000
0000
0000
0000
0300
0000
0000
;
