#TITLE:Face Down;
#SUBTITLE:;
#ARTIST:The Red Jumpsuit Apparatus;
#TITLETRANSLIT:;
#SUBTITLETRANSLIT:;
#ARTISTTRANSLIT:;
#GENRE:Pop Punk;
#CREDIT:;
#BANNER:face down-bn.png;
#BACKGROUND:face down-bg.png;
#LYRICSPATH:;
#CDTITLE:cdtitle.png;
#MUSIC:face down.ogg;
#OFFSET:0.005000;
#SAMPLESTART:30.962999;
#SAMPLELENGTH:21.000000;
#SELECTABLE:YES;
#BPMS:0.000000=186.000000
,62.000000=93.000000
,63.000000=186.000000
,159.000000=93.000000
,191.000000=186.000000
,255.000000=93.000000
;
#STOPS:
;
#BGCHANGES:0.000=face down.avi=1.000=1=0=0=StretchNoLoop==CrossFade==,
99999=-nosongbg-=1.000=0=0=0 // don't automatically add -songbackground-
;
#KEYSOUNDS:;
#ATTACKS:;

//---------------dance-single - ----------------
#NOTES:
     dance-single:
     X-Scale 14:
     Hard:
     9:
     0.612431,1.047726,0.433311,0.414873,0.267362,465.000000,418.000000,47.000000,45.000000,0.000000,0.000000,0.612431,1.047726,0.433311,0.414873,0.267362,465.000000,418.000000,47.000000,45.000000,0.000000,0.000000:
0000
0000
0000
0000
,
0000
0000
0000
0000
,
0000
0000
0000
0000
,
0000
0000
0000
0000
,
0000
0000
0000
0000
,
0000
0000
0000
0000
,
0000
0000
0000
0000
,
2000
0000
0001
0000
0000
0010
0010
0010
,
3010
0000
1000
0010
0001
0010
0100
0010
,
1000
0001
0010
0001
0100
0010
1000
0001
,
1001
0000
1000
0100
0010
0100
1000
0010
,
0100
0001
0010
0200
0300
0200
0300
1000
,
1100
0000
1000
0010
0001
0010
1000
0010
,
0200
0000
1300
0100
0002
0000
0103
0010
,
2000
3002
0203
2300
,
3020
0000
0032
0000
0203
0300
0101
0000
,
0010
1000
0001
0100
0010
0001
0010
1000
,
0010
0100
0001
1000
0010
1000
1010
0000
,
1000
0010
0100
0010
1000
0100
0001
0100
,
0010
0002
0003
0002
0003
0010
0110
0000
,
0100
1000
0001
0002
0003
0010
0100
0200
,
0300
1000
0010
0020
0030
0100
0120
0000
,
0001
0000
0000
0000
0230
0000
0000
0000
0010
0000
0300
0000
0001
0100
0001
0100
,
0001
0000
1000
0100
1000
0000
0001
0100
0001
0000
1000
0100
1000
0000
0000
0000
,
1010
0000
0010
1000
0001
0000
0100
0000
,
0011
0000
0001
0010
0100
0000
1000
0000
,
1010
0000
0010
1000
0001
0000
0010
0000
,
0110
0000
0100
0010
0001
0000
0100
0000
,
1001
0000
0001
1000
0100
0000
0010
0000
,
0011
0000
0000
0000
1000
0000
0010
1000
0010
0000
0000
0000
1010
0000
0020
0000
,
0030
1000
2000
3000
0100
0200
0300
0010
,
0020
0000
0030
0000
0002
0000
0003
0000
1000
0001
1000
0001
1000
0000
0000
0000
,
0110
0000
0010
0100
0001
0000
0010
0000
,
0101
0000
0001
0010
0100
0000
1000
0000
,
1010
0000
0010
1000
0001
0000
0010
0000
,
0011
0000
0010
0100
1000
0000
0010
0000
,
0110
0000
0100
0001
1000
0000
0010
0000
,
0101
0000
0000
0000
0001
0000
0010
0001
0010
0000
0000
0000
0101
0000
0200
0000
,
0300
0010
0020
0030
1000
2000
3000
0001
,
0002
0003
0101
0100
0110
0010
1010
1000
,
0010
0001
1000
0100
0001
1000
0010
0100
,
0001
0010
1000
0010
0100
1000
0001
0100
,
0010
0000
1000
0000
0100
0000
1000
0000
0010
0000
0100
0010
0100
0001
0010
0001
,
1000
0010
0100
0010
0001
0010
0100
0001
1000
0010
1000
0000
1100
0100
1000
0100
,
2000
0000
3000
0000
0001
0010
0000
0010
1000
0100
0000
0100
0001
1000
0001
1000
,
0002
0000
0003
0000
1000
0100
0000
0100
0001
0010
0000
0010
2000
0001
0001
0001
,
0002
0000
0003
0000
0010
0010
0000
0001
3002
0000
0000
0000
1003
1000
0000
0001
,
0001
0000
1000
0010
1000
0100
1000
0010
1000
0100
0001
0100
1000
0000
0000
0000
,
1001
0000
1000
0001
0100
0000
0001
0000
,
0011
0000
0010
0100
1000
0000
0010
0000
,
0110
0000
0100
0010
1000
0000
0001
0000
,
1001
0000
0001
0010
0100
0000
0010
0000
,
0101
0000
1000
0001
0100
0000
0010
0000
,
1100
0000
0000
0000
1000
0000
0100
1000
0100
0000
0000
0000
1001
0000
0002
0000
,
0003
0100
0200
0300
0010
0020
0030
1000
,
2000
3000
0100
0010
0001
0000
1000
0000
,
1001
0000
0010
1000
0001
0000
0010
0000
,
0011
0000
1000
0001
0010
0000
0001
0000
,
0101
0000
0100
0001
0010
0000
0100
0000
,
1100
0000
1000
0100
0010
0000
0100
0000
,
1010
0000
0001
1000
0010
0000
0100
0000
,
0011
0000
0000
0000
0001
0000
0010
0001
0010
0000
0000
0000
0010
0000
0020
0000
,
0030
0001
0002
0003
1000
2000
3000
0010
,
0020
0000
0030
0000
0100
0000
0000
0000
0100
0010
0100
0010
0100
0000
0100
0000
,
1001
0001
0010
0100
1100
1000
0010
0100
,
0011
0010
0100
1000
1010
0001
1000
0010
,
0110
0000
0100
0000
0010
0000
1000
0000
1001
0000
0001
0010
0001
1000
0010
0100
,
1000
0100
0010
0100
0001
1000
0010
0100
0001
1000
0001
0000
1001
0002
0003
1000
,
1100
0200
0300
1000
1010
0020
0030
0100
0120
0000
0000
0000
0000
0000
0030
0000
;

//---------------dance-single - ----------------
#NOTES:
     dance-single:
     X-Scale 10:
     Medium:
     7:
     0.446482,0.698484,0.119852,0.838965,0.041487,339.000000,326.000000,13.000000,91.000000,0.000000,0.000000,0.446482,0.698484,0.119852,0.838965,0.041487,339.000000,326.000000,13.000000,91.000000,0.000000,0.000000:
0000
0000
0000
0000
,
0000
0000
0000
0000
,
0000
0000
0000
0000
,
0000
0000
0000
0000
,
0000
0000
0000
0000
,
0000
0000
0000
0000
,
0000
0000
0000
0000
,
0000
0000
0000
0000
,
1001
0000
1000
0000
0010
1000
0001
0010
,
0002
0203
0320
0230
,
0301
0000
1000
0000
0010
0000
0100
0010
,
0001
0010
2000
0000
3002
0000
0023
0000
,
0130
0000
1000
0010
0100
0001
0010
0100
,
2000
0000
3100
0010
0001
1000
0020
0000
,
0130
0200
0302
2003
,
3020
0000
0230
0000
0302
0003
0101
0000
,
0100
0001
2000
0000
3020
0000
0031
0010
,
1000
0010
0200
0000
0302
0000
1003
0000
,
0100
0010
0001
0000
1000
0010
0001
0010
,
0100
0010
1000
0001
0200
0000
0301
0000
,
0010
0000
0001
1000
0000
0010
1000
0001
,
0000
0100
0010
1000
0000
0000
1200
0000
,
0010
2300
3100
1002
,
0010
0203
1000
0010
,
0301
0000
0010
0100
0010
0000
0002
0000
,
0023
0230
2300
0100
,
3001
0000
1000
0010
1000
0000
0200
0000
,
0302
0203
0320
0031
,
0010
0100
0010
0000
0002
0000
0010
0000
,
2003
0000
3200
0000
0320
0000
0031
0010
,
0000
0010
1000
0000
1000
0010
0000
0010
,
0001
1001
0110
1001
,
1000
0000
0010
1000
0001
0000
0020
0000
,
0032
2003
3020
0001
,
0130
0000
0010
0100
0001
0000
2000
0000
,
3200
0320
0032
0103
,
0010
0000
1000
0001
0200
0000
1000
0000
,
0320
0000
0230
0000
0302
0000
0010
0010
,
0003
0001
0001
0000
1000
1000
0000
0010
,
0010
1010
0011
1010
,
2000
0000
3001
0100
0010
2000
0000
3100
,
0020
0030
0011
0010
0100
2000
0010
3000
,
1000
0000
0002
0000
0010
0000
0023
0000
0130
0000
1000
0000
0100
0010
0100
0000
,
1000
0010
1000
0000
0001
0010
0001
0000
0100
0010
0100
0000
0110
0000
0010
0000
,
2000
0000
3001
0200
0000
0310
2000
0000
,
3100
0020
0000
1030
0010
0001
0200
0000
,
1000
0000
0010
0000
0302
0000
1003
0010
,
0001
0000
0010
0000
0100
0000
0010
0000
1000
0001
1000
0001
1000
0000
0000
0000
,
0100
0000
1000
0001
0100
0000
0020
0000
,
0230
0302
0023
0100
,
0031
0000
0010
0100
1000
0000
0020
0000
,
0032
0203
2300
3001
,
1000
0000
0100
0010
0002
0000
0010
0000
,
0203
0320
2030
0010
,
3200
0000
2300
0000
0001
0001
0000
0010
,
0010
0000
3001
1000
0001
1000
0001
0000
,
0010
0000
0100
0010
0001
0000
0200
0000
,
0320
2030
3002
0013
,
0100
0000
0010
0100
1000
0000
0002
0000
,
0203
0302
2003
3010
,
1000
0000
0100
0010
0002
0000
0100
0000
,
2003
0000
3020
0000
0230
0000
0001
0001
,
0300
0100
0100
0000
0001
0001
0000
0010
,
0010
0000
0100
1000
0200
0000
0310
0100
,
1000
0001
0100
0010
0001
0010
1000
0100
,
0001
0100
0010
0001
1000
0010
1000
0001
,
0100
0010
0100
0001
1000
0010
0100
0001
,
0010
0000
0200
0000
0000
0000
2300
0000
0000
0000
3001
0000
1002
1000
0000
0000
,
0100
0100
0000
0000
1000
1000
0000
0000
0020
0000
0000
0000
0000
0000
0033
0000
;

//---------------dance-single - ----------------
#NOTES:
     dance-single:
     X-Scale 6:
     Easy:
     4:
     0.322679,0.444490,0.055316,0.212046,0.000000,245.000000,239.000000,6.000000,23.000000,0.000000,0.000000,0.322679,0.444490,0.055316,0.212046,0.000000,245.000000,239.000000,6.000000,23.000000,0.000000,0.000000:
0000
0000
0000
0000
,
0000
0000
0000
0000
,
0000
0000
0000
0000
,
0000
0000
0000
0000
,
0000
0000
0000
0000
,
0000
0000
0000
0000
,
0000
0000
0000
0000
,
0000
0000
0000
0000
,
0001
0010
0001
0010
,
0100
1000
0100
1000
,
0010
0100
0010
0100
,
0001
0010
0001
0010
,
0100
0010
0100
0010
,
0001
1000
0001
1000
,
0100
0010
0001
0100
,
0010
1000
0002
0103
,
0001
0010
0100
0010
,
0001
1000
0010
1000
,
0001
0010
0100
1000
,
0010
1000
0001
1000
,
0010
0100
0010
1000
,
0100
1000
0001
0020
,
0000
0230
0300
2000
,
0000
3002
0000
0100
,
0103
0001
0010
0100
,
1000
0001
1000
0010
,
1000
0001
0010
0100
,
1000
0100
0010
0001
,
0100
0010
0100
0001
,
1000
0001
0010
0100
,
0000
0100
0000
0000
0100
0000
0000
0100
,
0000
0100
1000
0001
,
0100
0001
1000
0100
,
0010
0100
1000
0001
,
0100
0001
0010
0100
,
0010
0001
1000
0010
,
0100
0010
1000
0001
,
0010
0100
1000
0001
,
0000
0001
0000
0000
0001
0000
0000
0001
,
0000
0001
1000
1001
,
1000
0000
0010
0000
1000
0001
0100
0000
,
0010
0000
0100
0000
0001
0010
0100
0000
,
1000
0000
0001
0000
1000
0100
0010
0100
,
1000
0002
0000
2003
0000
3001
1002
0000
,
0103
0010
1010
1000
,
1001
0001
0011
0020
,
0100
0000
0001
0000
0230
0000
1300
0100
,
0010
0001
0100
0010
2000
0000
3001
0000
,
1000
0010
1000
0001
,
0010
0100
0010
0001
,
0100
0010
0100
0001
,
1000
0010
0100
0010
,
1000
0001
0010
0100
,
1000
0100
0010
0001
,
0000
0001
0000
0000
0001
0000
0000
0001
,
0000
0001
1000
0010
,
1000
0001
0100
0001
,
0010
0100
0010
0001
,
1000
0100
0010
0100
,
1000
0001
0100
0010
,
1000
0010
0100
0001
,
0010
0001
1000
0010
,
0000
0010
0000
0000
0010
0000
0000
0010
,
0000
0010
1000
1002
,
0000
0203
0000
0000
0010
0000
0302
0000
,
0000
0023
0000
0000
0100
0000
0032
0000
,
0203
0000
0320
0000
2030
0000
3100
1000
,
0001
0200
0000
0302
0000
0023
0100
0000
,
0100
0000
0001
0000
0002
0000
0000
0033
;

//---------------dance-single - ----------------
#NOTES:
     dance-single:
     X-Scale 2:
     Beginner:
     2:
     0.140925,0.189459,0.027658,0.000000,0.000000,107.000000,104.000000,3.000000,0.000000,0.000000,0.000000,0.140925,0.189459,0.027658,0.000000,0.000000,107.000000,104.000000,3.000000,0.000000,0.000000,0.000000:
// measure 0
0000
0000
0000
0000
,  // measure 1
0000
0000
0000
0000
,  // measure 2
0000
0000
0000
0000
,  // measure 3
0000
0000
0000
0000
,  // measure 4
0000
0000
0000
0000
,  // measure 5
0000
0000
0000
0000
,  // measure 6
0000
0000
0000
0000
,  // measure 7
0000
0000
0000
0000
,  // measure 8
1000
0000
0000
0000
,  // measure 9
0100
0000
0000
0000
,  // measure 10
0010
0000
0000
0000
,  // measure 11
0001
0000
0000
0000
,  // measure 12
0100
0000
0000
0000
,  // measure 13
0010
0000
0100
0000
,  // measure 14
0010
0000
0000
0000
,  // measure 15
0001
0000
0000
1000
,  // measure 16
0000
0000
0000
0100
,  // measure 17
0000
0000
0000
0010
,  // measure 18
0000
0000
0000
0001
,  // measure 19
0000
0000
0000
0100
,  // measure 20
0000
0000
0000
0010
,  // measure 21
0000
0000
0000
1000
,  // measure 22
0000
0000
0000
0001
,  // measure 23
0000
1000
0000
1001
,  // measure 24
0000
0001
0000
1000
,  // measure 25
0000
0010
0000
1000
,  // measure 26
0000
0001
0000
0010
,  // measure 27
0000
0100
0000
1000
,  // measure 28
0000
0001
0000
1000
,  // measure 29
0000
0010
0000
1000
,  // measure 30
0000
0000
0001
0000
,  // measure 31
0100
0010
0100
0010
,  // measure 32
0000
1000
0000
0001
,  // measure 33
0000
1000
0000
0010
,  // measure 34
0000
0100
0000
0001
,  // measure 35
0000
0010
0000
0001
,  // measure 36
0000
1000
0000
0100
,  // measure 37
0000
0010
0000
0001
,  // measure 38
0000
0000
1000
0000
,  // measure 39
0000
0001
0000
0000
,  // measure 40
1000
0000
0001
0000
,  // measure 41
0100
0000
0001
0000
,  // measure 42
1000
0000
0100
0000
,  // measure 43
1000
0000
0001
0000
,  // measure 44
0010
0000
0100
0000
,  // measure 45
0010
0000
0001
0000
,  // measure 46
1000
0000
0001
0000
,  // measure 47
0000
0000
0000
1001
,  // measure 48
0000
1000
0000
0001
,  // measure 49
0000
0100
0000
0001
,  // measure 50
0000
1000
0000
0100
,  // measure 51
0000
0010
0000
0100
,  // measure 52
0000
1000
0000
0001
,  // measure 53
0000
0100
0000
0001
,  // measure 54
0000
0000
0010
0000
,  // measure 55
0000
0100
0000
1000
,  // measure 56
0000
0001
0000
1000
,  // measure 57
0000
0100
0000
0010
,  // measure 58
0000
0100
0000
1000
,  // measure 59
0000
0001
0000
0100
,  // measure 60
0000
0001
0000
1000
,  // measure 61
0000
0001
0000
0100
,  // measure 62
0000
0000
0010
0000
,  // measure 63
0000
0001
0000
0000
,  // measure 64
1000
0000
0100
0000
,  // measure 65
1000
0000
0001
0000
,  // measure 66
0100
0000
0001
0000
,  // measure 67
1000
0000
0100
0000
,  // measure 68
0010
0000
1001
0000
;
