#TITLE:Eyes on Me;
#SUBTITLE:;
#ARTIST:Ravenna Golden;
#TITLETRANSLIT:;
#SUBTITLETRANSLIT:;
#ARTISTTRANSLIT:;
#GENRE:Electropop;
#CREDIT:;
#BANNER:Eyes on Me-bn.png;
#BACKGROUND:Eyes on Me-bg.png;
#LYRICSPATH:;
#CDTITLE:cdtitle.png;
#MUSIC:Eyes on Me.ogg;
#OFFSET:-0.003000;
#SAMPLESTART:56.891998;
#SAMPLELENGTH:14.222000;
#SELECTABLE:YES;
#BPMS:0.000000=67.500000
,32.000000=135.000000
,64.000000=67.500000
,76.000000=135.000000
,84.000000=67.500000
,84.500000=135.000000
,144.500000=67.500000
,147.000000=270.000000
,159.000000=135.000000
,161.000000=270.000000
,173.000000=135.000000
;
#STOPS:115.500000=0.222000,
116.000000=0.666000,
117.500000=0.222000,
118.000000=0.666000,
119.500000=0.222000,
120.000000=0.666000,
121.500000=0.222000,
122.000000=0.666000,
123.500000=0.222000,
124.000000=0.666000,
125.500000=0.222000,
126.000000=0.666000,
127.500000=0.222000,
128.000000=0.666000,
129.500000=0.222000,
130.000000=0.222000,
130.500000=0.222000,
131.000000=0.111000,
131.250000=0.111000,
131.500000=0.222000,
132.000000=0.667000,
133.500000=0.222000,
134.000000=0.667000,
135.500000=0.222000,
136.000000=0.667000,
137.500000=0.222000,
138.000000=0.667000,
139.500000=0.222000,
140.000000=0.667000,
141.500000=0.222000,
142.000000=0.667000,
143.500000=0.222000,
144.000000=0.667000
;
#BGCHANGES:
;
#KEYSOUNDS:;
#ATTACKS:;

//---------------dance-single - ----------------
#NOTES:
     dance-single:
     X-Scale 13:
     Hard:
     9:
     0.506628,0.650173,0.581684,0.450336,0.295533,378.000000,316.000000,62.000000,48.000000,4.000000,0.000000,0.506628,0.650173,0.581684,0.450336,0.295533,378.000000,316.000000,62.000000,48.000000,4.000000,0.000000:
0000
0000
0000
0000
,
0000
0000
0000
0000
,
1000
1000
1000
0000
0000
0000
0000
0000
0001
0001
0001
0000
0000
0000
0000
0000
,
1000
0000
1000
0000
1000
0000
0000
0000
0000
0000
0000
0000
0000
0000
0000
0000
0001
0000
0000
0100
0000
0000
0001
0000
0010
0000
0000
0100
0000
0000
0010
0000
,
0002
0003
2000
3000
0002
0003
2000
3000
0002
0003
2000
3000
0200
0300
0200
0000
,
0310
0010
0010
0000
0001
0000
1000
0000
0001
0001
0001
0000
0100
0100
0100
0010
,
2000
3000
0002
0003
2000
3000
0002
0003
0200
0300
2000
3000
0200
0300
0002
0000
,
0013
0000
0010
0000
0010
0000
0000
0000
0100
0000
0000
0000
1000
0000
0000
0000
0001
0000
0000
1000
0100
0000
1000
0000
0010
0000
0000
0100
0010
0000
0100
0000
,
0101
0001
1000
0400
1300
0000
0100
0010
,
0001
0000
0000
1000
0000
0000
0001
0100
0001
0100
0000
0000
0101
0000
0000
0000
0000
0000
0040
0000
0000
0000
0000
0000
,
1030
0010
0001
0040
0130
0000
0001
0010
,
1000
0000
0000
0010
0000
0000
0001
0010
0001
0010
0000
0000
0011
0000
0000
0100
0000
0000
1000
0000
0000
0001
0000
0000
,
1001
1000
0100
0040
0031
0000
1000
0010
,
0001
0000
0000
0000
0000
0000
0010
0000
0000
0000
0000
0000
0100
0000
0010
0000
0100
0000
0010
0000
0000
0000
0000
0000
2000
0000
0000
0000
0000
0000
3002
0000
0000
0000
0000
0000
2003
0000
0000
0000
0000
0000
0400
0000
0000
3000
0000
0000
,
1300
0100
0010
0004
1003
0000
1001
0100
,
1000
0000
0000
0001
0100
0000
0001
0000
1000
0000
0000
0100
0010
0000
0001
0000
,
0011
0000
1000
0010
0000
0010
0001
1000
0001
0000
1000
0100
0000
0100
0001
0010
,
0100
0000
1000
0010
0000
0010
0001
1000
0001
0000
1000
0100
0000
0100
0001
0010
,
0100
0000
1000
0100
0010
0100
0001
0100
1000
0000
0001
0010
0100
0010
1000
0010
,
0001
0001
0001
0000
1000
0000
0010
1000
,
0001
0000
0000
0010
0100
0000
0010
0000
0001
0000
0000
1000
0010
0000
1000
0000
,
0001
0000
1001
0000
0000
1001
0000
1001
0000
0000
1000
0000
0100
0000
0001
0000
,
0000
0000
1100
0000
0000
1100
0000
1100
0000
0000
0001
0000
1000
0000
0100
0000
,
0000
0000
0101
0000
0000
0101
0000
0101
0000
0000
0001
0000
0100
0000
0010
0000
,
0000
0100
0010
0000
0100
0000
0001
0000
0000
1000
0100
0000
1000
0000
0001
0000
,
0000
0000
0011
0000
0000
0011
0000
0011
0000
0000
1000
0000
0100
0000
0001
0000
,
0000
0000
1010
0000
0000
1010
0000
1010
0000
0000
0001
0000
0010
0000
1000
0000
,
0000
0000
1100
0000
0000
1100
0000
1100
0000
0000
0001
0000
1000
0000
0100
0000
,
0000
0010
0001
0000
1000
0000
0001
0000
0000
0010
0100
0000
1000
0000
1100
0000
,
0101
1000
0100
1100
0101
0001
0100
0101
,
1100
0001
1000
1001
0110
0010
0001
0011
,
1001
1000
0100
0110
0011
0001
0100
1100
,
1001
0000
1000
0000
0010
0000
1010
0000
0011
0000
1010
0000
0011
0001
1001
0000
,
1100
0101
0001
1001
1010
0110
0100
0101
,
0011
1100
1000
1001
0101
1100
0100
0110
,
0011
0011
0010
0110
1010
1100
0100
0110
,
1001
0000
0001
0010
0200
0000
0320
0000
0230
0000
1300
0001
0200
0000
0300
0000
,
0200
0300
0200
0300
0200
0300
0200
0300
,
0200
0300
0200
0300
0200
0300
0200
0300
,
0200
0000
0300
0000
0200
0000
0300
0000
0200
0000
0300
0000
0200
0300
0000
0000
,
MMMM
0000
0020
0030
0020
0030
0020
0030
,
0020
0030
0020
0030
0020
0030
0020
0030
,
0020
0030
0020
0030
0020
0030
0020
0030
,
0020
0000
0030
0000
0020
0030
0000
0000
0000
0000
0000
0000
0000
0000
0000
0000
;

//---------------dance-single - ----------------
#NOTES:
     dance-single:
     X-Scale 9:
     Medium:
     6:
     0.367239,0.446349,0.168876,0.075056,0.164185,274.000000,256.000000,18.000000,8.000000,0.000000,0.000000,0.367239,0.446349,0.168876,0.075056,0.164185,274.000000,256.000000,18.000000,8.000000,0.000000,0.000000:
0000
0000
0000
0000
,
0000
0000
0000
0000
,
1000
0100
1000
0000
0000
0000
0000
0000
0001
0100
0001
0000
0000
0000
0000
0000
,
1000
0100
1000
0000
0000
0000
0000
0000
0001
0000
0000
0000
0010
0000
0000
0000
,
0001
0010
0001
0010
0001
0010
0100
1000
,
0010
1000
0010
0000
0000
0000
0000
0000
1000
0100
1000
0000
0000
0000
0001
0000
,
1000
0010
1000
0010
1000
0100
0010
0001
,
1000
0001
1000
0000
0000
0000
0000
0000
0010
0000
0000
0000
0100
0000
0001
0000
,
0101
0100
0010
1000
,
0100
0010
0001
0000
1000
0000
0010
0000
,
0100
0010
1000
0000
0001
0000
0100
0000
,
0010
0100
0001
0000
1000
0001
0010
0000
,
0100
1000
0001
1000
,
0100
0010
0001
0000
1000
0010
2000
0000
,
3001
1000
0100
0000
0010
0000
0100
0000
,
1000
0000
0000
0001
0000
0000
1000
0000
0100
0000
0000
0010
0000
0000
0001
0000
,
0011
0000
0010
0000
0000
0000
0100
1000
0001
0000
1000
0000
0000
0000
0100
0010
,
0001
0000
1000
0000
0000
0000
0010
0100
0001
0000
0100
0000
0000
0000
0010
0100
,
1000
0000
0001
0000
0000
0000
1000
0010
1000
0000
0001
0000
0000
0000
0100
0010
,
1000
0001
1000
0100
,
0010
0000
0000
0001
0000
0000
1000
0000
0000
0001
0000
0000
0010
0000
0100
0000
,
1000
0000
1100
0000
0000
0001
0000
0001
0000
0000
1000
0000
0100
0000
0010
0000
,
0000
0000
0011
0000
0000
0100
0000
0100
0000
0000
0001
0000
1000
0000
0010
0000
,
0000
0000
1010
0000
0000
0100
0000
0100
0000
0000
0001
0000
1000
0000
0100
0000
,
0000
0000
1100
0000
0000
0010
0000
0010
0000
0000
1000
0000
0100
0000
0010
0000
,
0000
0000
0011
0000
0000
0100
0000
0100
0000
0000
0010
0000
0100
0000
0001
0000
,
0000
0000
0101
0000
0000
1000
0000
1000
0000
0000
0001
0000
0010
0000
0100
0000
,
0000
0000
1010
0000
0000
0001
0000
0001
0000
0000
1000
0000
0100
0000
0010
0000
,
0000
0000
0101
0000
0000
0001
0000
0001
0000
0000
1000
0000
0100
0000
0010
0000
,
0001
1000
0010
0100
0001
1000
0100
0010
,
0001
1000
0010
0100
0001
1000
0100
0010
,
0001
1000
0010
0100
0001
1000
0100
0010
,
0001
0000
1000
0000
0010
0000
0100
0000
0001
0000
1000
0000
0001
0001
0012
0000
,
1003
0001
0010
0210
1300
0001
0010
0012
,
1003
0010
0100
0120
1030
0001
0010
0012
,
1003
0100
0010
0210
1300
0001
1000
1002
,
0103
0000
0001
0010
0100
0000
0010
0000
0100
0000
0010
0100
1000
0000
0000
0000
,
0001
1000
0001
1000
,
0001
1000
0001
1000
,
0001
1000
0001
1000
,
0110
0010
0100
0010
,
0100
0010
0100
0010
,
0100
0010
0100
0010
,
0100
0010
0000
0000
;

//---------------dance-single - ----------------
#NOTES:
     dance-single:
     X-Scale 6:
     Easy:
     4:
     0.320329,0.446349,0.150112,0.309606,0.079747,239.000000,223.000000,16.000000,33.000000,0.000000,0.000000,0.320329,0.446349,0.150112,0.309606,0.079747,239.000000,223.000000,16.000000,33.000000,0.000000,0.000000:
// measure 0
0000
0000
0000
0000
,  // measure 1
0000
0000
0000
0000
,  // measure 2
1000
0001
1000
0001
1000
0100
0001
0100
,  // measure 3
1000
0000
1000
0000
0000
0000
0000
0000
0001
0000
0000
0010
0001
0000
0000
1000
,  // measure 4
0100
0010
0100
0010
0100
0010
0001
0001
,  // measure 5
1000
0000
0001
0000
1000
0000
0001
0000
1000
0000
0001
0000
0010
0000
0010
0100
,  // measure 6
0010
0001
0010
0001
1000
0010
0100
0001
,  // measure 7
0010
0100
0010
0100
1000
0010
0100
0001
,  // measure 8
0201
0300
0002
0003
0200
0300
0002
0003
,  // measure 9
0200
0300
0002
0003
0200
0300
0002
0003
,  // measure 10
2000
3000
0200
0300
2000
3000
0200
0300
,  // measure 11
2000
3000
0200
1300
2000
3000
0200
0300
,  // measure 12
0020
0030
0002
0003
0020
0030
0002
0003
,  // measure 13
0020
0030
0002
0003
2000
3020
0230
0000
,  // measure 14
0302
0003
0020
0030
0200
0300
2000
3000
,  // measure 15
0020
0030
0200
0300
0002
0000
1000
0000
,  // measure 16
0013
0000
0100
0000
0000
0000
1000
0100
0010
0000
0001
0000
0000
0000
1000
0010
,  // measure 17
0100
0000
0001
0000
0000
0000
0010
0100
1000
0000
0001
0000
0000
0000
0100
0010
,  // measure 18
1000
0000
0001
0000
0000
0000
1000
0100
0010
0000
0001
0000
0000
0000
1000
0010
,  // measure 19
0100
0001
1000
0001
,  // measure 20
0010
0100
0010
0100
,  // measure 21
0000
0000
1100
0000
0000
0000
0000
1000
0000
0000
0001
0000
0000
0000
0100
0000
,  // measure 22
0000
0000
0101
0000
0000
0000
0000
1000
0000
0000
0001
0000
0000
0000
0010
0000
,  // measure 23
0000
0000
0110
0000
0000
0000
0000
1000
0000
0000
0100
0000
0000
0000
0010
0000
,  // measure 24
0000
0000
0101
0000
0000
0000
0000
0001
0000
0000
1000
0000
0100
0000
0010
0000
,  // measure 25
0000
0000
0110
0000
0000
0000
0000
0001
0000
0000
1000
0000
0000
0000
0010
0000
,  // measure 26
0000
0000
1010
0000
0000
0000
0000
0001
0000
0000
0100
0000
0000
0000
0010
0000
,  // measure 27
0000
0000
0101
0000
0000
0000
0000
1000
0000
0000
0001
0000
0000
0000
0010
0000
,  // measure 28
0000
0000
0101
0000
0000
0000
0000
1000
0000
0000
0001
0000
0010
0000
0100
0000
,  // measure 29
1000
1000
0100
0010
0001
1000
0010
0100
,  // measure 30
0001
0001
0100
0010
1000
1000
0100
0010
,  // measure 31
0001
0001
0010
0100
1000
1000
0010
0100
,  // measure 32
0001
0001
0100
0010
1000
0010
2000
3001
,  // measure 33
1001
0100
0010
0001
0011
1000
0010
0100
,  // measure 34
1010
0001
0010
0100
0011
1000
0001
0100
,  // measure 35
1010
0001
0010
0100
0011
1000
0010
0100
,  // measure 36
1010
0001
0100
0010
0100
0010
1000
0000
,  // measure 37
0000
0100
0000
1000
,  // measure 38
0000
0100
0000
1000
,  // measure 39
0000
0100
0000
1000
,  // measure 40
0000
0001
0000
0100
,  // measure 41
0000
0001
0000
0100
,  // measure 42
0000
0001
0000
0100
,  // measure 43
0000
0001
0000
0000
;

//---------------dance-single - ----------------
#NOTES:
     dance-single:
     X-Scale 2:
     Beginner:
     2:
     0.125987,0.206404,0.028146,0.000000,0.000000,94.000000,91.000000,3.000000,0.000000,0.000000,0.000000,0.125987,0.206404,0.028146,0.000000,0.000000,94.000000,91.000000,3.000000,0.000000,0.000000,0.000000:
// measure 0
0000
0000
0000
0000
,  // measure 1
0000
0000
0000
0000
,  // measure 2
1000
0000
0100
0000
,  // measure 3
0010
0000
0001
1000
,  // measure 4
0001
0000
0100
0000
,  // measure 5
0010
0000
1000
0000
,  // measure 6
0001
0000
0010
0000
,  // measure 7
0100
0000
1000
0000
,  // measure 8
0001
0000
1000
0000
,  // measure 9
0001
0000
1000
0000
,  // measure 10
0100
0000
0010
0000
,  // measure 11
0100
0000
0010
0000
,  // measure 12
0001
0000
1000
0000
,  // measure 13
0001
0000
1000
0000
,  // measure 14
0010
0000
0100
0000
,  // measure 15
0010
0000
0100
0000
,  // measure 16
0001
0000
0010
0000
,  // measure 17
0100
0000
1000
0000
,  // measure 18
0001
0000
0100
0000
,  // measure 19
0010
0000
1000
0000
,  // measure 20
0001
0000
1000
0000
,  // measure 21
0000
1001
0000
0000
0000
1000
0000
0000
,  // measure 22
0000
0100
0000
0000
0000
0010
0000
0000
,  // measure 23
0000
0001
0000
0000
0000
1000
0000
0000
,  // measure 24
0000
0010
0000
0000
0000
0100
0000
0000
,  // measure 25
0000
0001
0000
0000
0000
1000
0000
0000
,  // measure 26
0000
0100
0000
0000
0000
0010
0000
0000
,  // measure 27
0000
0001
0000
0000
0000
1000
0000
0000
,  // measure 28
0000
0010
0000
0000
0000
0100
0000
0001
,  // measure 29
0001
0000
0000
1000
1000
0000
0000
0010
,  // measure 30
0010
0000
0000
0100
0100
0000
0000
0001
,  // measure 31
0001
0000
0000
0010
0010
0000
0000
0100
,  // measure 32
0100
0000
0000
1000
0001
1000
0001
1000
,  // measure 33
0100
0000
0000
0010
0001
0000
0000
1000
,  // measure 34
0010
0000
0000
0100
0001
0000
0000
1000
,  // measure 35
0100
0000
0000
0010
0001
0000
0000
1000
,  // measure 36
0010
1000
0001
1001
,  // measure 37
0000
0000
0000
0000
,  // measure 38
0000
0000
0000
0000
,  // measure 39
0000
0000
0000
0000
,  // measure 40
0110
0000
0000
0000
;
