#TITLE:EverythingChanges;
#SUBTITLE:;
#ARTIST:宇宙コンビニ;
#TITLETRANSLIT:;
#SUBTITLETRANSLIT:;
#ARTISTTRANSLIT:Uchu Conbini;
#GENRE:Math Rock;
#CREDIT:;
#BANNER:EverythingChanges-bn.png;
#BACKGROUND:EverythingChanges-bg.png;
#LYRICSPATH:;
#CDTITLE:cdtitle.png;
#MUSIC:EverythingChanges.ogg;
#OFFSET:-0.002000;
#SAMPLESTART:67.155998;
#SAMPLELENGTH:22.120001;
#SELECTABLE:YES;
#BPMS:0.000000=130.000000
;
#STOPS:
;
#BGCHANGES:0.000=EverythingChanges.avi=1.000=1=0=0=StretchNoLoop==CrossFade==,
99999=-nosongbg-=1.000=0=0=0 // don't automatically add -songbackground-
;
#KEYSOUNDS:;
#ATTACKS:;

//---------------dance-single - ----------------
#NOTES:
     dance-single:
     X-Scale 13:
     Challenge:
     9:
     0.581249,0.613609,0.335731,0.039968,0.359712,509.000000,467.000000,42.000000,5.000000,0.000000,0.000000,0.581249,0.613609,0.335731,0.039968,0.359712,509.000000,467.000000,42.000000,5.000000,0.000000,0.000000:
// measure 0
0000
0000
0000
0000
,  // measure 1
0000
0000
0000
0000
,  // measure 2
0000
0000
0000
0000
,  // measure 3
0000
0000
0000
0000
0000
0000
1100
0000
0000
0000
0000
0101
0000
0000
0000
0000
,  // measure 4
0110
0000
0000
0000
0000
0000
0000
0000
1000
0000
1010
0000
0000
0000
0000
0011
,  // measure 5
0000
0000
0001
0100
0010
1000
0001
0100
0010
1000
0100
0000
0210
0000
0000
0000
,  // measure 6
1000
0001
1000
0310
,  // measure 7
0100
0010
0001
1000
,  // measure 8
0010
0000
0100
0010
0100
0000
0000
0000
0010
0000
0000
0000
1000
0100
1000
0000
,  // measure 9
0000
0001
0010
1000
0000
0011
0000
0100
,  // measure 10
0000
0001
0000
0010
0000
0001
0000
1000
,  // measure 11
0010
1000
0010
0000
0100
0000
0000
0000
0001
0000
1000
0100
1000
0000
0000
0000
,  // measure 12
0001
0010
1000
0000
0011
0000
0010
0000
,  // measure 13
0001
0001
0100
0001
0001
0000
1000
1000
,  // measure 14
0010
0000
1000
0000
1000
0000
0000
0000
0100
0010
0100
0000
1000
0000
0010
0000
,  // measure 15
0100
1000
0000
0110
0000
0001
0001
1000
,  // measure 16
0001
0001
0000
0100
0100
0010
0100
0100
,  // measure 17
0001
0000
0010
0000
0100
0000
1000
0100
1000
0000
0010
0000
0100
0000
0001
0000
,  // measure 18
0010
0100
0010
0100
0010
0000
0000
0000
0010
0000
0000
0000
0010
0000
0000
0000
,  // measure 19
0010
0000
0010
0000
0010
0000
0010
0000
0011
0000
0000
0000
0000
1010
0000
0000
,  // measure 20
0000
1100
0000
0000
0000
0001
0101
0000
,  // measure 21
0000
0110
0000
0000
1000
0100
0010
0001
1000
0100
0010
0001
0200
0000
0000
0000
,  // measure 22
0001
0000
1000
0000
0001
0000
0310
2000
,  // measure 23
0001
0000
0100
0000
0001
0001
3000
0000
,  // measure 24
0011
0000
0001
0000
0010
0000
0100
0000
1000
0000
0010
0000
1000
0010
1000
0000
,  // measure 25
0100
0010
0100
0010
0100
0000
0000
0010
0001
0000
0100
0000
1000
0000
0100
0000
,  // measure 26
0001
0010
0100
0010
0001
1000
1001
0000
,  // measure 27
1100
0101
0011
1010
,  // measure 28
1001
0000
1000
0000
0001
0000
0000
0000
1000
0010
1000
0000
0001
0000
0001
0000
,  // measure 29
0010
0100
0010
0100
1010
0000
0011
0000
,  // measure 30
0101
0000
0000
0000
0001
0000
0000
0000
1000
0000
0000
0000
1100
0000
0000
0000
0000
0000
0000
0000
0000
0000
0000
0000
0010
0000
0000
1000
0000
0000
0010
0000
0000
1000
0000
0000
0010
0000
0000
0000
0000
0000
0100
0000
0000
0000
0000
0000
,  // measure 31
0001
0000
1000
0010
1000
0100
0010
0100
,  // measure 32
0010
0001
0011
0000
1010
0000
1100
0000
,  // measure 33
0101
0000
1001
0000
0100
0010
0100
0010
,  // measure 34
0001
1000
0001
0010
0100
0010
0001
1000
,  // measure 35
0010
1000
0100
0010
0001
0000
0100
0010
,  // measure 36
1000
0001
0010
0011
0000
0100
0000
0001
,  // measure 37
0001
0000
1000
0000
0000
0000
0010
0100
0010
0100
0010
0000
1000
0000
0001
0000
,  // measure 38
1000
0100
0010
0100
0100
0000
1000
0010
,  // measure 39
1000
0010
0000
0000
0100
0000
0000
0000
0001
0000
0000
0000
0010
0100
1000
0001
,  // measure 40
0010
0100
0000
0000
0010
0001
1000
0001
0010
0001
0000
0000
1000
0000
0001
0000
,  // measure 41
0100
0000
0001
0000
1000
0000
0000
0000
0100
0010
0100
0000
0010
0000
0001
0000
,  // measure 42
1000
0001
1000
0001
1000
0000
0010
0000
0000
0000
0100
0000
0001
0000
1000
0000
,  // measure 43
1000
0000
0010
0000
0000
0000
0100
0010
0100
0010
0100
0000
0001
0000
0000
0000
,  // measure 44
0001
1000
0100
0010
0010
0000
0001
0100
,  // measure 45
0001
0100
0000
0000
0010
0000
1000
0000
0100
0000
0000
0000
0010
0001
1000
0001
,  // measure 46
0100
0001
0000
0000
0100
0010
1000
0001
0010
0100
0000
0000
1000
0000
0001
0000
,  // measure 47
1000
0000
0100
0000
0000
0000
1000
0000
0010
1000
0010
0000
0000
0000
0100
0000
,  // measure 48
0010
0000
0100
0000
0100
0000
1001
0000
0001
0010
0001
0000
0001
0010
0001
0000
,  // measure 49
0001
0000
1000
0000
0000
0000
0001
0010
0100
0010
0001
0000
1000
0000
0000
0000
,  // measure 50
0010
0000
1000
0000
0100
0000
1000
0000
0001
0000
0000
0010
0001
0000
0100
0000
,  // measure 51
0001
0010
0000
0000
0100
0000
0000
0000
1000
0000
1000
0000
0001
1000
0010
0100
,  // measure 52
0001
0000
0000
0000
1000
0100
0010
0001
0100
0000
0000
0000
0001
0000
0100
0000
,  // measure 53
1000
0100
0010
0000
1000
0001
0100
0010
,  // measure 54
1000
0000
1000
0000
0001
1000
0001
0000
0001
1000
0001
0000
0001
1000
0001
0000
,  // measure 55
0001
0000
0100
0000
0000
0000
0010
1000
0001
1000
0010
1000
0001
0000
0001
0000
,  // measure 56
0001
0000
1000
0000
0010
0000
0100
0000
0001
0000
1000
0010
1000
0000
0001
0010
,  // measure 57
0100
1000
0010
0000
1000
0000
0100
0000
0010
0000
0010
0000
0001
0000
0100
0001
,  // measure 58
0100
0001
0100
0000
0010
0000
1000
0100
1000
0000
0001
0000
1000
0001
1000
0000
,  // measure 59
1000
0001
1000
0000
0010
0000
0100
0000
0001
0010
0100
0000
0010
0000
0001
0000
,  // measure 60
1000
0010
1000
0000
1000
0010
1000
0000
0000
0000
1000
0000
0000
0000
1000
0000
,  // measure 61
0000
1000
0010
0100
0100
0001
0100
0101
,  // measure 62
0000
0000
0000
1100
0000
0000
0000
0000
0110
0000
0000
0000
0000
0000
0000
0000
,  // measure 63
1000
0000
1001
0000
0000
0000
0000
0101
0000
0000
0001
0010
0100
1000
0001
0010
,  // measure 64
0100
1000
0002
0000
0003
0000
0101
0000
0000
0000
0000
1100
0000
0000
0000
0000
,  // measure 65
0110
0000
0000
0000
0000
0000
0000
0000
1000
0000
1100
0000
0000
0000
0000
0101
,  // measure 66
0000
0000
1000
0010
0100
0001
1000
0010
0100
0001
0200
0000
0300
0000
0000
0000
;

//---------------dance-single - ----------------
#NOTES:
     dance-single:
     X-Scale 11:
     Hard:
     8:
     0.436222,0.506894,0.239808,0.135891,0.071942,382.000000,352.000000,30.000000,17.000000,0.000000,0.000000,0.436222,0.506894,0.239808,0.135891,0.071942,382.000000,352.000000,30.000000,17.000000,0.000000,0.000000:
0000
0000
0000
0000
,
0000
0000
0000
0000
,
0000
0000
0000
0000
,
0000
0000
0000
0000
0000
0000
0101
0000
0000
0000
0000
1100
0000
0000
0000
0000
,
0101
0000
0000
0000
0000
0000
0000
0000
0010
0000
0010
0000
0000
0000
0000
0010
,
0000
0000
0000
0000
0000
1000
2000
0000
,
0001
0100
0001
3100
,
1000
0010
1000
0100
,
0010
0100
1000
0000
0001
0000
0100
0001
,
0010
0001
1000
0001
0000
0010
0000
0100
,
0000
0010
0000
0001
0000
1000
0010
0001
,
0001
0000
0010
0000
1000
0000
0000
0000
0100
0000
1000
0100
1000
0000
0000
0000
,
0100
0000
0010
0000
0001
0000
1000
0100
,
0010
0100
1000
0000
0001
0010
0100
0010
,
0001
0000
1000
0000
0001
0100
1000
0100
,
0010
0100
0000
0001
0000
1000
0100
0001
,
0100
1000
0000
0001
0010
0100
0010
0001
,
2000
0010
0000
0100
0200
0000
3000
0000
,
1300
0100
0000
1000
0100
0000
0000
0000
0100
0000
0000
0000
0100
0000
0000
0000
,
0100
0000
0100
0000
0100
0000
0100
0000
1100
0000
0000
0000
0000
0101
0000
0000
,
0000
1100
0000
0000
0000
0001
0001
0000
,
0000
0001
0000
0000
0000
0000
0000
0000
0000
0000
0000
0000
0201
0000
0000
0000
,
0010
0000
1000
0000
0010
0000
0301
0200
,
0010
0000
1000
0000
0010
0010
0300
0000
,
1000
0100
0010
0001
1000
0010
0100
0001
,
1000
0100
0010
0001
1000
0010
0100
0001
,
0010
0001
0000
1000
1000
0000
1100
0000
,
1100
0101
0101
0110
,
0110
0100
0001
1000
0001
0010
0100
0010
,
0001
1000
0010
0100
0001
0000
0001
0000
,
1000
0000
0100
0000
0010
0000
0001
0000
0000
0000
0000
0000
0100
0000
0000
0000
0000
0000
0001
0000
0000
0001
0000
0000
,
1000
0000
0010
0100
0010
1000
0001
1000
,
0100
0010
0110
0000
0110
0000
1001
0000
,
1001
0000
1100
0000
1100
0010
0000
0010
,
0100
0001
1000
0010
0100
0001
1000
0010
,
0100
0001
1000
0010
0100
0001
0010
0001
,
0100
0010
0100
0210
0000
1000
0000
0001
,
0301
0002
0000
0100
0003
0001
0010
0000
,
0010
0100
1000
0001
1000
0100
0010
0000
,
0001
0010
0000
0000
0001
0000
0000
0000
1000
0000
0010
0000
0001
0000
0010
0000
,
1000
0100
1000
0000
0010
0000
0100
0001
,
0000
1000
0001
0000
0100
0001
0000
0010
,
0100
0010
0100
2000
0000
0010
0000
0100
,
3100
0200
0000
0001
0000
1300
0100
0000
,
0100
0010
0001
1000
0001
0010
0100
0100
,
1000
0100
0000
0000
1000
0000
0001
0000
0020
0000
0000
0000
1000
0000
0000
0000
,
0001
0030
0002
0000
0100
0000
0010
0010
,
0000
1000
0000
0010
0000
0100
0003
0001
,
0000
1000
0000
1001
1000
0001
1000
0100
,
0010
0001
0000
0100
0001
0010
0001
0000
,
1000
0100
0001
0100
1000
0010
0100
0010
,
1000
0010
0000
0000
1000
0000
0000
0000
0001
0000
0010
0000
1000
0000
0010
0000
,
0001
0100
0010
0000
0001
0000
0010
0100
,
0001
1000
0200
0000
0000
2300
0000
0001
,
0001
0000
3001
0000
0001
1000
0001
0000
0000
0000
1000
0000
0010
0000
0100
0000
,
0001
1000
0000
0001
0100
0010
1000
1000
,
1000
0000
0100
0000
0010
0000
0100
0000
1000
0000
0001
1000
0001
0000
1000
0000
,
0100
0010
0100
1000
2100
0100
0000
0010
,
0000
3100
0200
0000
0001
0000
1000
1000
,
0000
0010
0000
0001
0000
0010
0000
1000
,
1000
1000
0000
0010
0000
1000
0300
0100
,
0000
0010
0000
0001
0100
0001
0100
0101
,
0000
0000
0000
1100
0000
0000
0000
0000
0101
0000
0000
0000
0000
0000
0000
0000
,
1000
0000
1000
0000
0000
0000
0000
1000
0000
0000
0000
0000
0000
0000
0000
0000
,
0000
0000
1001
0000
0000
0000
1001
0000
0000
0000
0000
0101
0000
0000
0000
0000
,
1100
0000
0000
0000
0000
0000
0000
0000
0010
0000
0010
0000
0000
0000
0000
0010
,
0000
0000
0000
0000
0000
0220
0330
0000
;

//---------------dance-single - ----------------
#NOTES:
     dance-single:
     X-Scale 7:
     Medium:
     5:
     0.328880,0.426859,0.095923,0.295763,0.031974,288.000000,276.000000,12.000000,37.000000,0.000000,0.000000,0.328880,0.426859,0.095923,0.295763,0.031974,288.000000,276.000000,12.000000,37.000000,0.000000,0.000000:
0000
0000
0000
0000
,
0000
0000
0000
0000
,
0000
0000
0000
0000
,
0000
0000
0000
0000
0000
0000
1000
0000
0000
0000
0000
1000
0000
0000
0000
0000
,
1000
0000
0000
0000
0000
0000
0000
0000
0001
0000
0001
0000
0000
0000
0000
0001
,
0000
0000
0000
0000
0000
0002
1000
0000
,
0000
0100
0000
0013
,
0001
0100
0001
0010
,
0100
0000
1000
0000
0010
0000
1000
0100
,
0000
1000
0010
1000
0000
0002
0000
0010
,
0003
0001
0000
0100
0000
0010
0000
1000
,
0100
0010
0001
0000
0000
0100
0001
0000
,
1000
0010
1000
0100
,
1000
0001
0100
0010
,
0001
0000
0010
0000
0100
0001
0000
1000
,
0001
1000
0000
0020
0000
0100
0030
0010
,
0000
1000
0000
0001
0000
0100
0001
0010
,
0002
0000
0000
0000
1000
0003
0000
0000
,
0001
0100
0100
0010
,
0010
0000
0100
0000
0010
0000
0100
0000
0010
0000
0000
0000
0000
0010
0000
0000
,
0000
0010
0000
0000
0000
1000
1000
0000
,
0000
1000
0000
0000
0000
0000
0000
0000
0000
0000
0000
0000
0002
0000
0000
0000
,
0100
0000
0000
0000
0010
0000
0003
2000
,
0000
0001
0000
0100
0000
0001
0000
0000
,
3001
0100
1000
0100
,
0001
1000
0010
0100
,
0001
0010
0000
0001
0100
0000
0201
0000
,
1000
0301
0010
0100
,
1000
0010
0100
0001
0000
1000
0000
0001
,
0100
0010
0100
0001
1001
0000
0110
0000
,
1001
0110
0010
1000
,
0001
0000
0010
0000
0100
1000
0000
0010
,
1000
0001
1001
0000
0110
0000
1001
0000
,
0110
0000
0010
0000
1000
0001
0000
0002
,
0100
0100
0103
0001
,
0100
0010
0001
0010
0100
0000
0001
0010
,
1000
0010
0001
0012
0000
1000
0000
0100
,
0103
0200
0000
0000
0310
0100
0001
0000
,
1000
0001
0000
0001
0100
0000
0002
0000
,
0023
0230
2300
3010
,
1000
0000
0200
0000
0302
0000
0103
1000
,
0000
0010
1000
0000
0100
2000
0000
0010
,
0000
3100
1000
0002
0000
0100
0000
0010
,
0013
0020
0000
0000
0000
0130
0010
0000
,
0010
0001
0000
1000
1000
0000
0010
0000
,
0200
0000
0000
0301
0200
0000
1000
0000
,
0001
0300
0002
0000
1000
0000
0100
0100
,
0000
0010
0000
0100
0000
0010
0000
0103
,
0000
0001
1000
0200
0000
0010
0000
1000
,
1300
2000
0000
0000
0000
3001
1000
0010
,
0100
0000
0001
1000
0001
0000
2000
0000
,
3020
0000
0230
0000
0302
0000
0003
1000
,
0001
0000
0010
0000
0100
0000
1000
0010
,
0000
0100
0020
0000
0000
2030
0000
0001
,
0000
3001
0100
0002
0000
0010
0000
0100
,
0103
0200
0000
0000
0300
0010
1000
1000
,
1000
0000
0001
0100
0001
0000
1000
0000
,
0200
0000
0000
0310
0200
0000
0001
0000
,
1000
1000
2300
0000
0001
0000
0010
0010
,
0000
0100
0000
0010
0000
0100
0000
0001
,
0000
0010
0000
0001
0000
0001
3000
1000
,
0000
1000
0010
0100
0100
0001
0010
0100
,
0000
0000
0000
0100
0000
0000
0000
0000
0100
0000
0000
0000
0000
0000
0000
0000
,
1000
0000
1000
0000
0000
0000
0000
1000
0000
0000
0000
0000
0000
0000
0000
0000
,
0000
0000
1001
0000
0000
0000
0001
0000
0000
0000
0000
0001
0000
0000
0000
0000
,
0001
0000
0000
0000
0000
0000
0000
0000
0010
0000
0010
0000
0000
0000
0000
0010
,
0000
0000
0000
0000
0000
0202
0303
0000
;

//---------------dance-single - ----------------
#NOTES:
     dance-single:
     X-Scale 4:
     Easy:
     3:
     0.255795,0.319544,0.079936,0.167866,0.000000,224.000000,214.000000,10.000000,21.000000,0.000000,0.000000,0.255795,0.319544,0.079936,0.167866,0.000000,224.000000,214.000000,10.000000,21.000000,0.000000,0.000000:
0000
0000
0000
0000
,
0000
0000
0000
0000
,
0000
0000
0000
0000
,
0000
0000
0000
1100
0000
0000
0000
0000
,
1001
0000
0000
0000
0010
0010
0000
0000
,
0000
0000
0000
0000
0000
2000
0000
0000
,
0010
0000
0010
3020
,
0000
0000
1000
0000
,
0000
0000
0230
0000
0000
0000
0000
1000
,
0000
0000
0000
0301
0000
0002
0000
0000
,
0000
0000
0000
1000
0000
0000
0000
0000
,
0000
0023
0000
0000
0000
0130
0020
0000
,
0000
0031
0002
0000
,
0000
0100
0000
0000
,
0203
0000
0000
0000
1300
0200
0000
0000
,
0000
0310
0000
0020
0000
0000
0000
0000
,
0000
0001
0000
0100
0000
1000
0030
2000
,
0000
0000
0000
3100
2000
0000
0000
0000
,
0100
3100
1000
0100
,
1000
0001
1001
0000
,
0000
0110
0000
0000
0000
1000
1000
0000
,
0000
0000
0000
0002
,
0000
0000
0000
0000
0100
0000
0003
0200
,
0000
0000
0000
0000
0000
0010
0000
0300
,
0001
0010
0100
1000
,
0001
0100
0010
1000
,
0100
0010
0000
0100
0010
0000
0001
0000
,
0001
0001
1000
1000
,
1000
0020
0000
0000
,
1030
0010
1000
1000
,
0001
0001
0100
0001
,
1000
0000
0001
0000
0010
0001
0000
0010
,
0001
0100
0100
0100
,
0010
0010
0010
2000
,
0000
3000
0020
0000
,
1030
0000
0001
1000
,
0000
0001
0000
1001
0000
0010
0000
1000
,
0000
0100
0000
2000
0000
3001
0001
0000
,
1000
0010
0000
1000
0010
0000
1000
0000
,
0100
0010
0001
1000
,
0001
0000
0010
0000
0100
0000
1000
0010
,
0000
1000
0100
0000
1000
0010
0000
0100
,
0000
0001
0000
0100
0000
0010
0000
1000
,
0000
0100
0000
1000
0000
0001
0001
0000
,
0100
0001
0000
1000
0001
0000
0010
0000
,
0001
0000
0000
1000
0001
0000
0010
0000
,
0100
0000
0010
0000
0100
0000
1000
0100
,
0000
0100
0000
0010
0000
0001
0000
0010
,
0000
0100
0000
0100
1000
0010
1000
0100
,
0100
0020
0000
0000
0000
0031
0010
0000
,
0001
1000
0010
1000
,
0100
0000
0010
0000
0001
0100
0000
0001
,
0100
0000
0010
0000
1000
0000
0100
0010
,
0000
0001
0010
0000
0000
0001
0000
0100
,
0000
0010
0000
1000
0000
1000
0000
1000
,
0001
2000
0000
0000
3000
1000
0001
1000
,
0001
0010
0100
1000
,
0010
1000
0001
1000
,
0100
0000
0010
0000
0100
0000
1000
0001
,
0000
0001
0000
0100
0000
0001
0000
0001
,
0100
0001
0000
0010
0000
0010
0000
0010
,
0000
0010
0000
0100
0000
1000
0000
1100
,
0000
0000
1001
0000
,
1000
1000
0000
0000
0000
0000
0000
0000
,
0000
0002
0003
0011
0000
0000
0000
0000
,
1010
0000
0000
0000
0100
0100
0000
0000
,
0000
0000
0000
0000
0000
1001
0000
0000
;

//---------------dance-single - ----------------
#NOTES:
     dance-single:
     X-Scale 1:
     Beginner:
     1:
     0.103917,0.133143,0.000000,0.000000,0.000000,91.000000,91.000000,0.000000,0.000000,0.000000,0.000000,0.103917,0.133143,0.000000,0.000000,0.000000,91.000000,91.000000,0.000000,0.000000,0.000000,0.000000:
0000
0000
0000
0000
,
0000
0000
0000
0000
,
0000
0000
0000
0000
,
0000
0000
0000
0000
,
0000
0000
0000
0000
,
0000
0000
0000
0000
,
0000
0000
0000
0001
,
0000
0000
0100
0000
,
0000
0000
0010
0000
0000
0000
0000
1000
,
0000
0000
0000
0000
0000
0100
0000
0000
,
0000
0000
0000
0010
0000
0000
0000
0000
,
0000
0001
0000
0000
0000
0000
1000
0000
,
0000
0000
0100
0000
,
0000
1000
0000
0000
,
0001
0000
0000
0000
0000
0100
0000
0000
,
0000
0000
0000
0010
0000
0000
0000
0000
,
0000
1000
0000
0000
0000
0000
0000
0001
,
0000
0000
1000
0000
,
0000
0100
0000
0000
,
0100
0000
0100
0000
,
0000
1000
0000
0000
0000
0000
0001
0000
,
0000
0000
0000
1000
,
0000
0000
0000
0000
0000
0000
0000
0100
,
0000
0000
0000
0000
,
0010
0000
0001
0000
,
1000
0000
0001
0000
,
0000
0000
0000
1000
,
0000
0010
0000
1000
,
0000
0001
0000
0100
,
0000
0000
0001
0000
,
0010
0000
0100
0000
,
1000
0000
0001
0000
,
0000
1000
0000
0100
,
0000
0010
0000
0001
,
0000
1000
0000
0000
,
0001
0000
0000
0000
,
0000
0000
0000
1000
0000
0000
0000
0000
,
0000
0100
0000
0000
0000
0000
0010
0000
,
0000
0000
0000
0000
,
0000
0000
0100
0000
,
0001
0000
0000
0000
1000
0000
0000
1000
,
0000
0000
0000
0010
0000
0000
0000
0100
,
0000
0000
0000
0001
0000
0000
0000
0000
,
0000
1000
0000
0000
0000
0000
0010
0000
,
0000
0000
0100
0000
,
0001
0000
1000
0000
,
0000
0000
0100
0000
0000
0000
0000
1000
,
0000
0000
0000
0001
0000
0000
0000
1000
,
0000
0000
0000
0001
0000
0000
0000
0000
,
0000
0010
0000
0000
0000
0000
0100
0000
,
0000
0000
1000
0000
,
0010
0000
1000
0000
,
0100
0000
0000
0000
0010
0000
0000
0010
,
0000
0000
0000
0000
0000
0001
0000
0000
,
0000
0000
0000
1000
0000
0000
0000
0000
,
0000
0010
0000
0000
0000
0000
1000
0000
,
0000
0000
0100
0000
,
0010
0000
0001
0000
,
0000
0000
1000
0000
0000
0000
0000
0010
,
0000
0000
0000
0100
0000
0000
0000
0010
,
0000
0000
0000
0100
0000
0000
0000
0000
,
0000
0001
0000
0000
0000
0000
0000
1000
,
0000
0000
0100
0000
,
0000
0010
0000
0000
0000
0000
0000
0000
,
0000
0000
0000
0001
0000
0000
0000
0000
,
0010
0000
0000
0000
0000
0100
0000
0000
,
0000
0000
0000
0000
0000
1000
0000
0000
;
