#VERSION:0.83;
#TITLE:Everyday I Love You feat. 하슬 (ViVi);
#SUBTITLE:;
#ARTIST:이달의 소녀;
#TITLETRANSLIT:Everyday I Love You feat. HaSeul (ViVi);
#SUBTITLETRANSLIT:;
#ARTISTTRANSLIT:LOOΠΔ;
#GENRE:K-Pop;
#ORIGIN:;
#CREDIT:;
#BANNER:eily-bn.png;
#BACKGROUND:eily-bg.png;
#PREVIEWVID:;
#JACKET:eily-jacket.png;
#CDIMAGE:;
#DISCIMAGE:;
#LYRICSPATH:;
#CDTITLE:cdtitle.png;
#MUSIC:eily.ogg;
#OFFSET:-0.005000;
#SAMPLESTART:36.500000;
#SAMPLELENGTH:17.500000;
#SELECTABLE:YES;
#BPMS:0.000=120.000,
140.000=60.000,
150.000=120.000;
#STOPS:;
#DELAYS:;
#WARPS:;
#TIMESIGNATURES:0.000=4=4;
#TICKCOUNTS:0.000=4;
#COMBOS:0.000=1;
#SPEEDS:0.000=1.000=0.000=0;
#SCROLLS:0.000=1.000;
#FAKES:;
#LABELS:0.000=Song Start;
#BGCHANGES:
;
#KEYSOUNDS:;
#ATTACKS:
;

//---------------dance-single - ----------------
#NOTEDATA:;
#CHARTNAME:X-Scale 12;
#STEPSTYPE:dance-single;
#DESCRIPTION:;
#CHARTSTYLE:;
#DIFFICULTY:Hard;
#METER:8;
#RADARVALUES:0.584463,0.662666,0.164638,0.444521,0.374550,497.000000,477.000000,20.000000,54.000000,0.000000,0.000000,0.000000,0.000000,0.000000,0.584463,0.662666,0.164638,0.444521,0.374550,497.000000,477.000000,20.000000,54.000000,0.000000,0.000000,0.000000,0.000000,0.000000;
#CREDIT:;
#NOTES:
// measure 0
0000
0000
0000
0000
,  // measure 1
0000
0000
0000
0000
,  // measure 2
1000
0000
0001
0000
1000
0000
0100
0010
0100
0000
1000
0000
0100
0000
1000
0000
,  // measure 3
0001
0000
0100
0000
0001
0000
0010
0100
0010
0000
0001
0000
0010
0000
0001
0000
,  // measure 4
0100
0010
1000
0002
0013
0001
1000
0010
,  // measure 5
1000
0000
0000
0010
1000
0000
0100
0000
0001
0000
0100
0000
0010
0000
0001
0000
,  // measure 6
0100
0000
0010
0000
0100
0000
0001
0010
0001
0000
1000
0000
0010
0000
1000
0000
,  // measure 7
0100
0000
0001
0000
0100
0000
1000
0100
1000
0000
0010
0000
0100
0000
0001
0000
,  // measure 8
1000
0000
0000
0001
1000
0000
0100
1000
0100
0000
1000
0000
0001
0000
0100
0000
,  // measure 9
0010
0000
0000
0100
0001
0000
1000
0001
1000
0000
0100
0000
0010
0000
0001
0000
,  // measure 10
0011
0000
0000
0001
1000
0000
0002
0000
0000
0000
2003
0000
0000
0000
3002
0000
,  // measure 11
1000
0000
0003
1000
0001
0000
0200
0000
0000
0000
0320
0000
0000
0000
0230
0000
,  // measure 12
0001
0000
0300
0001
0100
0000
0001
0000
0010
0000
1000
0000
0010
0000
0001
0000
,  // measure 13
1000
0010
0100
0001
0010
0001
1000
0100
,  // measure 14
1100
0000
0000
1000
0001
0000
2000
0000
0000
0000
3002
0000
0000
0000
2003
0000
,  // measure 15
0001
0000
3000
0001
1000
0000
0020
0000
0000
0000
0230
0000
0000
0000
0320
0000
,  // measure 16
0100
0000
0030
0100
0010
0000
0100
0000
0001
0000
0010
0000
0100
0000
1000
0000
,  // measure 17
1010
1010
0001
0011
0000
0010
0002
0000
,  // measure 18
0023
0000
0032
0000
2003
0100
3200
0300
,  // measure 19
0110
0000
0000
0010
0001
0000
0100
0000
0001
0000
0010
0000
0100
0000
0010
0001
,  // measure 20
0000
0000
0000
1000
0001
0000
1000
0000
0100
0000
1000
0000
0001
0000
0100
0001
,  // measure 21
0000
0000
0000
1000
0010
0000
0100
0000
0001
0000
0010
0000
0100
0000
0010
0100
,  // measure 22
0000
0000
0000
1000
0010
0000
2000
0000
3100
0000
2000
0000
3010
0000
2000
0000
,  // measure 23
3100
1000
0100
0020
0031
0020
1030
0020
,  // measure 24
0031
0000
0010
0000
0001
0000
1000
0000
0010
0100
0010
0000
0010
0100
0010
0000
,  // measure 25
1000
0100
0001
0200
1300
0200
0010
0300
,  // measure 26
0110
0000
0110
0000
1000
0000
1100
0000
1000
0010
1000
0000
0020
0000
0000
0000
,  // measure 27
0130
0000
0010
0000
1000
0000
0001
0100
0010
0100
0001
0000
1000
0000
0010
0000
,  // measure 28
1000
0000
0100
0000
0010
0000
0001
0010
0100
0010
0001
0010
0100
0000
1000
0000
,  // measure 29
0100
0000
1000
0000
0001
0000
0010
0100
1000
0100
0010
0100
1000
0000
0010
0000
,  // measure 30
1000
0010
1000
0010
1000
0100
1000
0100
1000
0010
1000
0010
1000
0000
0100
0000
,  // measure 31
1000
0000
0100
1000
0001
1000
0100
0010
0100
1000
0010
0100
0010
2000
0000
0000
,  // measure 32
3002
0000
0000
0003
0010
0001
0100
0001
0010
0000
0001
0010
0100
0010
0001
0000
,  // measure 33
1000
0000
0100
0000
0001
0000
0100
0000
1000
0000
0010
1000
0000
0001
0100
0001
,  // measure 34
1000
0100
0010
0001
1000
0000
0001
0010
0100
0010
0001
0020
0000
0000
0000
0000
,  // measure 35
0031
0010
0001
0002
0000
0103
0010
0020
1000
1030
0010
2000
0000
3001
1000
0100
,  // measure 36
0200
0300
0010
0002
0000
0013
0001
1000
2000
3000
1000
0200
0000
0301
0100
1000
,  // measure 37
2000
0000
3100
1000
0001
1000
2000
0000
3100
0000
0000
1000
0100
0000
1000
0000
,  // measure 38
0001
0000
0010
0000
0100
0000
0010
0001
0010
0000
0000
0001
0100
0000
0001
0000
,  // measure 39
0010
0100
0010
0001
1000
0010
1000
0010
,  // measure 40
1000
0100
1000
0100
1100
1100
0010
0110
,  // measure 41
0000
0000
0100
0000
0001
0000
0100
0000
0101
0000
0000
0001
1000
0000
0001
0000
,  // measure 42
0010
0000
0001
0000
1000
0000
0100
0000
1000
0000
0000
0010
1000
0000
0100
0000
,  // measure 43
0001
0000
0100
0000
0010
0000
0001
0010
0001
0000
0000
1000
0001
0000
1000
0000
,  // measure 44
0100
0000
1000
0000
0010
0000
0100
0010
0100
0000
0000
0001
0010
0000
0001
0000
,  // measure 45
1000
0000
0100
0000
1000
0000
0001
0100
0001
0000
0000
0010
0100
0000
0020
0000
,  // measure 46
0031
0020
1030
0020
0031
0010
0100
2000
,  // measure 47
3010
2000
3100
2000
3010
1000
0001
0020
,  // measure 48
0130
0020
0001
0030
0011
0011
0001
1010
,  // measure 49
1000
0010
1000
0000
0020
0000
0000
0000
1030
0000
0000
0000
0110
0000
0010
0000
,  // measure 50
0100
0000
0001
0000
1000
0000
0100
0000
0010
0000
0000
0100
0010
0000
0001
0000
,  // measure 51
0100
0000
0001
0000
0010
0000
0100
0010
0100
0000
0000
0010
0001
0000
1000
0000
,  // measure 52
0010
0000
0100
0000
0001
0000
0010
0100
0010
0000
0001
0000
1000
0000
0100
0000
,  // measure 53
1000
0000
0010
0000
0100
0000
0001
0100
0001
0000
0010
0000
0100
0000
0020
0000
,  // measure 54
0031
0020
1030
0020
0001
0000
1000
0000
,  // measure 55
0100
0000
0031
0010
0001
1000
0100
0020
,  // measure 56
0031
0020
0100
0030
0110
0110
1000
1100
,  // measure 57
1000
0100
1000
0000
0002
0000
0000
0000
0003
0000
0000
0000
0000
0000
0000
0000
;

//---------------dance-single - ----------------
#NOTEDATA:;
#CHARTNAME:X-Scale 8;
#STEPSTYPE:dance-single;
#DESCRIPTION:;
#CHARTSTYLE:;
#DIFFICULTY:Medium;
#METER:6;
#RADARVALUES:0.449225,0.497000,0.205797,0.428058,0.156406,382.000000,357.000000,25.000000,52.000000,0.000000,0.000000,0.000000,0.000000,0.000000,0.449225,0.497000,0.205797,0.428058,0.156406,382.000000,357.000000,25.000000,52.000000,0.000000,0.000000,0.000000,0.000000,0.000000;
#CREDIT:;
#NOTES:
// measure 0
0000
0000
0000
0000
,  // measure 1
0000
0000
0000
0000
,  // measure 2
0001
0010
0100
0000
0010
0001
1000
0001
,  // measure 3
0010
0100
0010
0000
0001
1000
0100
1000
,  // measure 4
0001
0010
0100
1000
0000
1000
0100
0010
,  // measure 5
0001
0100
0000
0010
0000
1000
0010
1000
,  // measure 6
0100
0010
0100
0000
1000
0001
0010
0001
,  // measure 7
0100
0010
0100
0000
0001
0010
0100
1000
,  // measure 8
0100
0010
0100
0000
1000
0010
0100
0001
,  // measure 9
1000
0100
0000
0010
0000
0100
1000
0001
,  // measure 10
1001
0000
0100
0020
0000
0230
0000
0320
,  // measure 11
0000
0030
1000
0002
0000
0023
0000
0032
,  // measure 12
0000
0003
1000
0001
0000
0001
0010
0100
,  // measure 13
1000
0010
1000
0100
0000
0100
0010
0001
,  // measure 14
0011
0000
1000
0200
0000
0320
0000
0230
,  // measure 15
0000
0300
1000
0002
0000
0023
0000
0032
,  // measure 16
0000
0003
1000
0001
0000
0001
0010
0100
,  // measure 17
0110
0110
0000
0011
0000
1000
0100
0000
,  // measure 18
2000
3002
2003
3002
,  // measure 19
1003
0000
0000
0000
0001
0000
0100
0000
0000
0000
0100
0000
1000
0000
0010
1000
,  // measure 20
0000
0000
0000
0000
0001
0000
0010
0000
0000
0000
0010
0000
1000
0000
0001
1000
,  // measure 21
0000
0000
0000
0000
0001
0000
0100
0000
0000
0000
0100
0000
1000
0000
0010
1000
,  // measure 22
0000
0000
0100
0020
0030
0200
0300
0020
,  // measure 23
0130
0000
1000
0002
0003
2000
3000
0002
,  // measure 24
0003
0020
0030
0200
0300
0020
0030
0002
,  // measure 25
1003
0100
0010
0001
0000
0100
0000
0001
,  // measure 26
0101
0101
0000
1100
0000
1000
0200
0000
,  // measure 27
0310
0100
1000
0001
0010
0001
1000
0010
,  // measure 28
1000
0100
0010
0001
0100
0001
0010
0100
,  // measure 29
0010
0001
1000
0100
1000
0010
0001
0010
,  // measure 30
1000
0100
0010
0100
1000
0001
1000
0001
,  // measure 31
0010
0000
0100
0000
0010
0000
0001
0000
1000
0000
0100
0000
1000
0200
0000
0000
,  // measure 32
2300
0000
0000
0000
3010
0000
1000
0000
0001
0000
0100
0000
0001
0010
0001
0000
,  // measure 33
0010
0000
0100
0000
0010
0000
0001
0000
1000
0000
0100
1000
0000
0000
0100
0000
,  // measure 34
1100
0000
1100
0000
0000
0000
0101
0000
0000
0000
0001
0020
0000
0000
0000
0000
,  // measure 35
0030
0001
0100
0002
0000
0200
0300
2000
0003
3000
0001
2000
0000
3100
0010
0200
,  // measure 36
0000
0300
1000
0002
0000
0103
0001
0020
0000
0030
0100
2000
0000
3001
0100
0002
,  // measure 37
0000
0003
0000
0010
0100
1000
0100
0000
1100
0000
0000
0100
0000
0000
1000
0000
,  // measure 38
0001
0000
0010
0000
0001
0000
0000
0000
0100
0000
0000
0010
0000
0000
0100
0000
,  // measure 39
0000
0001
1000
0000
1001
0000
0001
1000
,  // measure 40
1001
0000
0001
0100
0001
0000
0000
0000
0110
0000
0110
0000
0000
0000
1001
0000
,  // measure 41
0000
0001
0010
0100
0110
0000
1000
0001
,  // measure 42
0000
0000
0001
0000
1000
0000
0100
0000
1000
0000
0000
0010
1000
0000
0010
0000
,  // measure 43
0000
0000
0100
0000
0001
0000
0100
0010
0000
0000
0000
1000
0001
0000
1000
0000
,  // measure 44
0100
0000
1000
0000
0010
0000
0100
0010
0000
0000
0000
1000
0001
0000
0100
0000
,  // measure 45
1000
0000
0100
0000
0001
0000
0010
0001
0000
0000
0000
0010
0100
0000
2000
0000
,  // measure 46
3000
0020
0030
2000
3001
0010
0100
0020
,  // measure 47
0030
0200
0300
0020
0030
0002
0003
2000
,  // measure 48
3000
0100
1000
0001
1001
1001
0000
1100
,  // measure 49
0000
1000
0020
0000
0030
0000
1010
1000
,  // measure 50
0100
0000
0010
0000
0100
0000
1000
0000
0010
0000
0000
0100
0010
0000
1000
0000
,  // measure 51
0001
0000
0010
0000
0100
0000
1000
0010
1000
0000
0000
0010
0100
0000
0010
0000
,  // measure 52
1000
0000
0010
0000
0100
0000
0001
0100
0001
0000
0000
1000
0100
0000
1000
0000
,  // measure 53
0100
0000
0010
0000
0100
0000
1000
0100
1000
0000
0001
0000
0010
0000
0200
0000
,  // measure 54
0300
0020
0030
0200
0001
0000
1000
0000
,  // measure 55
0001
0000
1300
0100
0010
0001
0100
0010
,  // measure 56
0000
1000
0001
1000
1001
1001
0000
1100
,  // measure 57
0000
0001
0200
0000
0300
0000
0000
0000
;

//---------------dance-single - ----------------
#NOTEDATA:;
#CHARTNAME:X-Scale 5;
#STEPSTYPE:dance-single;
#DESCRIPTION:;
#CHARTSTYLE:;
#DIFFICULTY:Easy;
#METER:3;
#RADARVALUES:0.316339,0.615333,0.032928,0.395130,0.074087,269.000000,265.000000,4.000000,48.000000,0.000000,0.000000,0.000000,0.000000,0.000000,0.316339,0.615333,0.032928,0.395130,0.074087,269.000000,265.000000,4.000000,48.000000,0.000000,0.000000,0.000000,0.000000,0.000000;
#CREDIT:;
#NOTES:
// measure 0
0000
0000
0000
0000
,  // measure 1
0000
0000
0000
0000
,  // measure 2
1000
0000
0000
0000
0010
0000
0100
0001
,  // measure 3
0100
0000
0000
0000
0001
0000
0010
0100
,  // measure 4
0010
0000
0000
0002
0000
0003
1000
0100
,  // measure 5
1000
0000
0000
0020
0000
0130
0010
1000
,  // measure 6
0001
0000
0000
0000
0010
0000
0100
1000
,  // measure 7
0100
0000
0010
0000
,  // measure 8
0001
1000
0001
0000
0000
0000
1000
0100
,  // measure 9
0010
0100
0000
1000
0000
0001
1000
0100
,  // measure 10
1100
0000
0000
0002
0000
2003
0000
3002
,  // measure 11
1000
0000
0003
0200
0000
0320
0000
0230
,  // measure 12
0010
0000
0300
0002
0000
1003
0001
0010
,  // measure 13
0100
0000
0010
0001
0000
1000
0001
1000
,  // measure 14
1001
0000
0000
0020
0000
0230
0000
0320
,  // measure 15
0100
0000
0030
2000
0000
3002
0000
2003
,  // measure 16
0001
0000
3000
0020
0000
1030
0010
0100
,  // measure 17
0001
0001
0000
0001
0000
0001
2000
0000
,  // measure 18
3200
0010
1000
0010
,  // measure 19
1300
0100
1000
0001
,  // measure 20
0010
0100
1000
0010
,  // measure 21
1000
0100
0010
0001
,  // measure 22
0100
0000
0010
0200
0000
0320
0000
2030
,  // measure 23
0000
3000
0001
2000
0000
3200
0000
0320
,  // measure 24
0100
0030
0010
0002
0000
0023
0000
0230
,  // measure 25
0010
0300
0100
0000
1000
0000
0001
0000
,  // measure 26
1000
1000
0000
1000
0000
1000
0002
0000
,  // measure 27
0013
0000
0001
0000
1000
0000
0010
0100
,  // measure 28
0010
0000
1000
0000
0100
0000
0010
0001
,  // measure 29
0010
0000
0001
0000
1000
0000
0010
1000
,  // measure 30
0010
0000
1000
0000
0001
0000
0010
0100
,  // measure 31
0010
0001
1000
0100
,  // measure 32
2000
3001
1000
0100
,  // measure 33
0010
0001
0100
0001
0010
0000
0001
0000
,  // measure 34
0100
0100
0000
0100
0000
0100
0002
0000
,  // measure 35
0023
0000
0000
0100
0000
0001
0000
0100
0130
0010
0001
1000
0000
0001
0000
1000
,  // measure 36
0100
0010
0100
1000
0000
0010
0000
0100
0001
0010
0100
1000
0000
0001
0000
0100
,  // measure 37
0001
1000
0001
0010
0000
0100
0100
0000
0110
0000
0000
0000
0000
0000
0010
0000
,  // measure 38
0001
1000
0002
0000
0203
0000
0001
0000
,  // measure 39
0000
0310
0100
0010
,  // measure 40
0100
0000
0010
0000
0100
0100
0000
0100
,  // measure 41
0000
0100
0020
0000
1030
0000
0010
0000
,  // measure 42
0001
0010
0100
0001
,  // measure 43
1000
0100
1000
0010
,  // measure 44
0100
0010
1000
0001
,  // measure 45
0010
0000
0100
0000
1000
0000
0001
0020
,  // measure 46
0000
0230
0000
0320
0000
0030
0010
0002
,  // measure 47
0000
2003
0000
3002
1000
0003
0001
0000
,  // measure 48
0100
0000
0001
0000
0010
0010
0000
0010
,  // measure 49
0000
0010
0200
0000
0300
0000
0110
0000
,  // measure 50
1000
0000
0100
0010
0100
0000
1000
0000
,  // measure 51
0001
0000
0010
0100
0010
0000
0001
0000
,  // measure 52
1000
0000
0001
0100
0001
0000
1000
0000
,  // measure 53
0010
0000
0100
0001
0100
0000
0010
2000
,  // measure 54
0000
3200
0000
0320
0000
0030
0001
0020
,  // measure 55
0000
0230
0000
2300
0100
3000
1000
0000
,  // measure 56
0001
0000
1000
0000
0001
0001
0000
0001
,  // measure 57
0000
0001
0020
0000
0030
0000
0000
0000
;

//---------------dance-single - ----------------
#NOTEDATA:;
#CHARTNAME:X-Scale 2;
#STEPSTYPE:dance-single;
#DESCRIPTION:;
#CHARTSTYLE:;
#DIFFICULTY:Beginner;
#METER:1;
#RADARVALUES:0.122302,0.165666,0.041159,0.032928,0.000000,104.000000,99.000000,5.000000,4.000000,0.000000,0.000000,0.000000,0.000000,0.000000,0.122302,0.165666,0.041159,0.032928,0.000000,104.000000,99.000000,5.000000,4.000000,0.000000,0.000000,0.000000,0.000000,0.000000;
#CREDIT:;
#NOTES:
// measure 0
0000
0000
0000
0000
,  // measure 1
0000
0000
0000
0000
,  // measure 2
0100
0000
0000
0000
,  // measure 3
1000
0000
0000
0000
,  // measure 4
0010
0000
0000
0000
,  // measure 5
1000
0000
0000
0000
,  // measure 6
0100
0000
0000
0000
,  // measure 7
0010
0000
0000
0000
,  // measure 8
0001
0000
0000
0000
,  // measure 9
1000
0000
0000
0000
,  // measure 10
1001
0000
0000
0000
,  // measure 11
1000
0000
0000
0000
,  // measure 12
0100
0000
0000
0000
,  // measure 13
0010
0000
0000
0000
,  // measure 14
0001
0000
0000
0000
,  // measure 15
1000
0000
0000
0000
,  // measure 16
0010
0000
0000
0000
,  // measure 17
0100
0000
0000
0100
0000
0000
0200
0000
,  // measure 18
0301
0000
0000
0000
,  // measure 19
1001
0000
0100
0000
,  // measure 20
0010
0000
1000
0000
,  // measure 21
0001
0000
0010
0000
,  // measure 22
0001
0000
0100
0000
,  // measure 23
0010
0000
1000
0000
,  // measure 24
0100
0000
0010
0000
,  // measure 25
0001
0000
1000
0000
,  // measure 26
0001
0000
0000
0001
0000
0000
0002
0000
,  // measure 27
1003
0000
1000
0000
,  // measure 28
0100
0000
0010
0000
,  // measure 29
0001
0000
1000
0000
,  // measure 30
0100
0000
0010
0000
,  // measure 31
0001
0000
0100
0000
,  // measure 32
0010
0000
1000
0000
,  // measure 33
0001
0000
1000
0000
,  // measure 34
0100
0000
0000
0100
0000
0000
0200
0000
,  // measure 35
0310
0000
0001
0000
,  // measure 36
0100
0000
0010
0000
,  // measure 37
1000
0000
1001
0000
,  // measure 38
0000
0000
0100
0000
,  // measure 39
0000
0000
1000
0000
,  // measure 40
0001
0000
0000
0000
1000
0000
0000
1000
,  // measure 41
0000
1000
1100
0000
,  // measure 42
0100
0000
0010
0000
,  // measure 43
0001
0000
1000
0000
,  // measure 44
0010
0000
0100
0000
,  // measure 45
0001
0000
0010
0000
,  // measure 46
0001
0000
1000
0000
,  // measure 47
0100
0000
1000
0000
,  // measure 48
0001
0000
0000
0000
0010
0000
0000
0010
,  // measure 49
0000
0010
0000
0011
,  // measure 50
0001
0000
1000
0000
,  // measure 51
0001
0000
0100
0000
,  // measure 52
0010
0000
1000
0000
,  // measure 53
0100
0000
1000
0000
,  // measure 54
0010
0000
0100
0000
,  // measure 55
0001
0000
0010
0000
,  // measure 56
0100
0000
0000
0000
1000
0000
0000
1000
,  // measure 57
0000
2000
3000
0000
;
