#TITLE:Euphoria;
#SUBTITLE:;
#ARTIST:Loreen;
#TITLETRANSLIT:;
#SUBTITLETRANSLIT:;
#ARTISTTRANSLIT:;
#GENRE:Eurodance Pop;
#CREDIT:;
#BANNER:Euphoria-bn.png;
#BACKGROUND:Euphoria-bg.png;
#LYRICSPATH:;
#CDTITLE:cdtitle.png;
#MUSIC:Euphoria.ogg;
#OFFSET:-0.231000;
#SAMPLESTART:47.028999;
#SAMPLELENGTH:14.545000;
#SELECTABLE:YES;
#BPMS:0.000000=66.000000
,20.000000=132.000000
,52.000000=66.000000
,68.000000=132.000000
,100.000000=66.000000
,132.000000=132.000000
;
#STOPS:
;
#BGCHANGES:-0.331=Euphoria.avi=1.000=1=0=0=StretchNoLoop==CrossFade==,
99999=-nosongbg-=1.000=0=0=0 // don't automatically add -songbackground-
;
#KEYSOUNDS:;
#ATTACKS:;

//---------------dance-single - ----------------
#NOTES:
     dance-single:
     X-Scale 2:
     Beginner:
     1:
     0.092177,0.136080,0.008272,0.000000,0.000000,78.000000,77.000000,1.000000,0.000000,0.000000,0.000000,0.092177,0.136080,0.008272,0.000000,0.000000,78.000000,77.000000,1.000000,0.000000,0.000000,0.000000:
// measure 0
0000
0000
0000
0000
,  // measure 1
0000
0000
0000
0000
,  // measure 2
0000
0000
0000
0000
,  // measure 3
1000
0000
0000
0000
,  // measure 4
0001
0000
0000
0000
,  // measure 5
1000
0000
0000
0000
,  // measure 6
0100
0000
0000
0000
,  // measure 7
0010
0000
0000
0000
,  // measure 8
0100
0000
0000
0000
,  // measure 9
1000
0000
0000
0000
,  // measure 10
0001
0000
0000
0000
,  // measure 11
1000
0000
0000
0000
,  // measure 12
0010
0000
0000
0000
,  // measure 13
1000
0000
0001
0000
,  // measure 14
0100
0000
0010
0000
,  // measure 15
1000
0000
0001
0000
,  // measure 16
0100
0000
0000
0000
,  // measure 17
0001
0000
1000
0000
,  // measure 18
0010
0000
1000
0000
,  // measure 19
0001
0000
0010
0000
,  // measure 20
0100
0000
0010
0000
,  // measure 21
0001
0000
1000
0000
,  // measure 22
0010
0000
1000
0000
,  // measure 23
0100
0000
0010
0000
,  // measure 24
0100
0000
1000
0000
,  // measure 25
0001
0000
0010
0000
,  // measure 26
0100
0000
1000
0000
,  // measure 27
0010
0000
0100
0000
,  // measure 28
0001
0000
1000
0000
,  // measure 29
0001
0000
0000
0000
,  // measure 30
1000
0000
0000
0000
,  // measure 31
0010
1000
0001
1000
,  // measure 32
0010
0000
0000
0000
,  // measure 33
1001
0000
0001
0000
,  // measure 34
0100
0000
0001
0000
,  // measure 35
1000
0000
0010
0000
,  // measure 36
1000
0000
0100
0000
,  // measure 37
0010
0000
0100
0000
,  // measure 38
1000
0000
0001
0000
,  // measure 39
0100
0000
0001
0000
,  // measure 40
1000
0000
0001
0000
,  // measure 41
0100
0000
0001
0000
,  // measure 42
0010
0000
0100
0000
,  // measure 43
1000
0000
0001
0000
,  // measure 44
1000
0000
0010
0000
,  // measure 45
1000
0000
0001
0000
,  // measure 46
0010
0000
0100
0000
,  // measure 47
1000
0000
0000
0000
;

//---------------dance-single - ----------------
#NOTES:
     dance-single:
     X-Scale 5:
     Easy:
     3:
     0.174901,0.199053,0.041362,0.000000,0.000000,148.000000,143.000000,5.000000,0.000000,0.000000,0.000000,0.174901,0.199053,0.041362,0.000000,0.000000,148.000000,143.000000,5.000000,0.000000,0.000000,0.000000:
// measure 0
0000
0000
0000
0000
,  // measure 1
0000
0000
0000
0000
,  // measure 2
0000
0000
0000
0000
,  // measure 3
0001
0000
0000
0010
0000
0000
0100
0000
,  // measure 4
1000
0000
0000
0001
0000
0000
0100
0000
,  // measure 5
0001
0000
0010
0000
,  // measure 6
0100
0000
1000
0000
,  // measure 7
0001
0000
0100
0000
,  // measure 8
0001
0000
1000
0000
,  // measure 9
0100
0000
0010
0000
,  // measure 10
0001
0000
0100
0000
,  // measure 11
0001
0000
1000
0000
,  // measure 12
0001
0000
0100
0000
,  // measure 13
1001
0000
0001
0000
,  // measure 14
0100
0000
0000
0001
0000
0000
1000
0000
,  // measure 15
0100
0000
0000
0010
0000
0000
0001
0000
,  // measure 16
1000
0000
0100
0010
,  // measure 17
1001
0001
0100
0010
,  // measure 18
0100
0001
1000
0010
,  // measure 19
1000
0001
0010
0100
,  // measure 20
0010
0001
1000
0100
,  // measure 21
0010
0100
1000
0001
,  // measure 22
0100
0001
1000
0010
,  // measure 23
1000
0100
0010
0100
,  // measure 24
1000
0001
0100
0101
,  // measure 25
0001
0000
0010
0000
,  // measure 26
0100
0000
1000
0000
,  // measure 27
0010
0000
0100
0000
,  // measure 28
0001
0000
1000
0000
,  // measure 29
1001
0000
0001
0000
,  // measure 30
1000
0000
0100
0000
,  // measure 31
1000
0001
0010
0001
,  // measure 32
1000
0000
0001
0000
,  // measure 33
1001
1000
0010
1000
,  // measure 34
0100
0010
0100
1000
,  // measure 35
0001
0100
0001
1000
,  // measure 36
0010
0100
0001
0010
,  // measure 37
0100
0010
0001
1000
,  // measure 38
0100
0010
0100
1000
,  // measure 39
0001
0100
0001
0010
,  // measure 40
0100
1000
0001
1000
,  // measure 41
0100
0010
0001
1000
,  // measure 42
0010
1000
0001
0010
,  // measure 43
0100
1000
0001
0100
,  // measure 44
0001
1000
0100
0010
,  // measure 45
0100
1000
0001
1000
,  // measure 46
0010
1000
0001
0010
,  // measure 47
0100
0000
0000
1000
0000
0000
0010
0000
,  // measure 48
0000
1000
0000
0000
0000
0000
0000
0000
;

//---------------dance-single - ----------------
#NOTES:
     dance-single:
     X-Scale 8:
     Medium:
     6:
     0.301349,0.338390,0.148902,0.090996,0.198536,255.000000,237.000000,18.000000,11.000000,0.000000,0.000000,0.301349,0.338390,0.148902,0.090996,0.198536,255.000000,237.000000,18.000000,11.000000,0.000000,0.000000:
// measure 0
0000
0000
0000
0000
,  // measure 1
0000
0000
0000
0000
,  // measure 2
0000
0000
0000
0000
,  // measure 3
2000
0000
3000
0000
0000
0001
0100
0010
,  // measure 4
1000
0000
0000
0020
0000
0000
0000
0000
0000
0030
0000
0000
0000
0000
0000
0000
,  // measure 5
2100
0001
0100
0001
,  // measure 6
3100
0000
0010
0001
1000
0000
0001
1000
,  // measure 7
0010
0000
0000
1000
0000
0000
0002
0000
0000
1000
0000
0000
0013
0000
0000
0000
,  // measure 8
0100
0010
0001
0000
1000
0000
0001
1000
,  // measure 9
0020
0001
0130
0010
,  // measure 10
1000
0000
0010
1000
0001
0000
1000
0001
,  // measure 11
0100
0000
0000
0001
0000
0000
0020
0000
0000
0100
0000
0000
0100
0000
0000
1000
,  // measure 12
0000
0000
0001
0000
0000
0001
0030
0000
0010
0000
0000
0000
0100
0000
0000
0000
,  // measure 13
1200
0000
0000
0000
0000
0000
1300
0001
0100
0000
0000
0000
0001
0000
0010
0000
,  // measure 14
0100
0000
0000
1000
0000
0000
0001
0000
0000
0000
0000
0000
0100
0000
0001
0000
,  // measure 15
1000
0000
0000
0100
0000
0000
0010
0000
0000
0000
0000
0000
0001
0000
1000
0000
,  // measure 16
0010
0000
0000
0010
0000
0000
0010
0000
0000
0010
0000
0000
0000
0000
0000
0000
,  // measure 17
1001
0000
1000
0000
0010
0000
1000
0100
,  // measure 18
0010
0000
0001
0000
1000
0010
0001
0010
,  // measure 19
1000
0000
0001
0010
0100
0000
1000
0000
,  // measure 20
0010
0000
1000
0000
0001
0100
1000
0100
,  // measure 21
0001
0000
0010
0100
1000
0000
0010
0000
,  // measure 22
1000
0000
0100
0010
0001
0000
1000
0001
,  // measure 23
0011
0000
0000
1000
0000
0000
1010
0000
0000
0001
0000
0000
0110
0000
0000
1000
,  // measure 24
0000
0000
1010
0000
0000
0001
0000
0000
1000
0000
0000
0000
1001
0000
0000
0000
,  // measure 25
0001
0000
0000
0000
1000
0000
0010
0100
,  // measure 26
0001
0000
0000
0010
0000
0000
0000
0000
0000
0000
0000
0000
0000
0000
0000
0000
,  // measure 27
1000
0000
0001
0000
0100
0000
1000
0100
,  // measure 28
0010
0000
0000
2000
0000
0000
0000
3002
0000
0000
0000
0203
0000
0000
0000
0300
,  // measure 29
2001
0000
0000
0000
0000
0000
3001
0100
0000
0001
0000
0000
0001
0000
0000
0001
,  // measure 30
1000
0000
0000
1000
0000
0000
1000
0000
0000
0100
0000
0000
0100
0000
0000
0100
,  // measure 31
0010
0100
1000
0001
1000
0010
0100
0001
,  // measure 32
0010
0000
0000
0010
0000
0000
0010
0000
0000
0010
0000
0000
0000
0000
0000
0000
,  // measure 33
1001
0000
0100
0000
0001
0000
0010
0100
,  // measure 34
1000
0000
0001
0000
1000
0010
0001
0010
,  // measure 35
1000
0000
0100
0010
0001
0000
1000
0000
,  // measure 36
0010
0000
1000
0000
0001
0100
1000
0100
,  // measure 37
0001
0000
0100
0001
1000
0000
0001
0000
,  // measure 38
0100
0000
0010
0000
1000
0010
0100
0001
,  // measure 39
0101
0000
0000
1000
0000
0000
1010
0000
0000
0010
0000
0000
0110
0000
0000
0001
,  // measure 40
0000
0000
0011
0000
0000
0001
0000
0000
1000
0000
0000
0001
0010
0000
0100
0000
,  // measure 41
1000
0000
0000
0100
0000
0000
0010
0000
0000
0001
0000
0000
1000
0000
0000
0001
,  // measure 42
0000
0000
0100
0000
0000
0001
0000
0000
0010
0000
0100
0000
1000
0000
0001
0000
,  // measure 43
1000
0000
0000
0010
0000
0000
0100
0000
0000
1000
0000
0000
0100
0000
0000
0001
,  // measure 44
0000
0000
1000
0000
0000
0010
0000
0000
1000
0000
0100
0000
0001
0000
0100
0000
,  // measure 45
1000
0000
0000
0010
0000
0000
0100
0000
0000
0001
0000
0000
1000
0000
0000
0010
,  // measure 46
0000
0000
1000
0000
0000
0001
0000
0000
1000
0000
0100
0000
0010
0000
0001
0000
,  // measure 47
0011
0000
0000
1000
0000
0000
1010
0000
0000
0001
0000
0000
0011
0000
0000
0100
,  // measure 48
0000
0110
0000
0000
0000
0000
0000
0000
;

//---------------dance-single - ----------------
#NOTES:
     dance-single:
     X-Scale 12:
     Hard:
     8:
     0.389981,0.560243,0.124085,0.670058,0.550110,330.000000,315.000000,15.000000,81.000000,0.000000,0.000000,0.389981,0.560243,0.124085,0.670058,0.550110,330.000000,315.000000,15.000000,81.000000,0.000000,0.000000:
// measure 0
0000
0000
0000
0000
,  // measure 1
0000
0000
0000
0000
,  // measure 2
0000
0000
0000
0000
,  // measure 3
0002
0000
0000
0100
0000
0000
1000
0000
0003
0001
0000
0000
0100
0000
0000
0001
0000
0000
1000
0000
0001
0000
0100
0000
1000
0000
0100
0000
0001
0000
1000
0000
,  // measure 4
0010
0000
0000
1000
0000
0000
0200
0000
0000
0010
0000
0000
1000
0000
0000
0010
0000
0000
1300
0000
0000
1000
0000
0000
0001
0000
0000
0001
0000
0000
0100
0000
,  // measure 5
0201
0000
0000
0000
1000
0000
0000
0000
0010
0000
0000
0000
0301
0000
0000
0001
,  // measure 6
0000
0001
0010
0100
1000
0001
0100
0010
,  // measure 7
0200
0000
0000
0302
0000
0000
0023
0000
0000
0100
0000
0000
0031
0000
0000
0010
,  // measure 8
0000
0000
1000
0000
0000
0010
0000
0000
0100
0000
0000
1000
0100
0000
1000
0000
,  // measure 9
0002
0000
0000
0000
0100
0000
0000
0000
1003
0000
0000
0000
0001
0000
0000
0001
,  // measure 10
0100
0001
1000
0010
0001
0010
1000
0001
,  // measure 11
1000
0000
0000
0100
0000
0000
0020
0000
0000
0001
0000
0000
0100
0000
0000
1000
,  // measure 12
0000
0000
0100
0000
0000
0001
0000
0000
0130
0000
0000
0000
0010
0000
0000
0000
,  // measure 13
2001
0000
0000
0000
0000
0000
3001
0200
0300
0000
0000
0001
0100
1000
0001
0010
,  // measure 14
1000
0000
0000
2000
0000
0000
0002
0000
0000
3003
0000
1000
0010
0001
1000
0100
,  // measure 15
0001
0000
0000
0002
0000
0000
2000
0000
0000
3003
0000
0000
0000
1000
0001
1000
,  // measure 16
0020
0000
0030
0020
0000
0030
0020
0000
0030
0020
0000
0030
0020
0000
0030
0020
0000
0030
0020
0000
0030
0000
0000
0000
0000
0000
0000
0000
0000
0000
0000
0000
,  // measure 17
2001
0000
0010
0000
0001
0000
3010
0200
,  // measure 18
0300
0000
0001
0000
0000
0001
0000
0000
0001
0000
0010
0000
1000
0000
0010
0000
,  // measure 19
0002
0000
0000
0000
1003
0000
0002
0000
0000
0010
0000
0000
2003
0000
0000
0100
,  // measure 20
0000
0000
3001
0000
0000
0001
0000
0000
1000
0000
0100
0000
0001
0000
0100
0000
,  // measure 21
2000
0000
0000
0010
0000
0000
3002
0000
0000
0100
0000
0000
2003
0000
0000
0001
,  // measure 22
0000
0000
3100
0000
0000
0100
0000
0000
0100
0000
0010
0000
0001
0000
1000
0000
,  // measure 23
0020
0000
0030
0020
0000
0030
0020
0000
0030
0020
0000
0030
0020
0000
0030
0020
,  // measure 24
0000
0030
0020
0000
0030
1000
0000
1000
0001
0000
0000
0000
0011
0000
0000
0000
,  // measure 25
0002
0000
0020
0000
0000
0000
0000
0000
0033
0000
0000
1000
0100
1000
0001
0100
,  // measure 26
1000
0000
0000
0010
0000
0000
0002
0000
0000
0000
0000
0000
0000
0000
0000
0000
0000
0000
0000
0000
0003
0000
0000
0000
0000
0000
0000
0000
0000
0000
1000
0000
,  // measure 27
0002
0000
0013
0200
0000
0000
0000
0000
0300
0000
0000
1000
0100
0001
0100
1000
,  // measure 28
0010
0000
0000
0001
0000
0000
0200
0000
0000
0000
0000
0000
0000
0000
2300
0000
0000
0000
0000
0000
0000
0000
3020
0000
0000
0000
0000
0000
0200
0000
0330
0000
,  // measure 29
0110
0000
0000
0000
0000
0000
1000
0000
0000
0000
0000
0000
0001
0000
0000
0000
0000
0000
1000
0000
0000
0100
0000
0000
0001
0000
0000
0010
0000
0000
1000
0000
,  // measure 30
0001
0000
0000
0001
0000
0000
0001
0000
0000
0010
0000
0000
1000
0000
0000
0100
0000
0000
0001
0000
0000
1000
0000
0000
1000
0000
0000
1000
0010
0000
0100
0000
,  // measure 31
0010
0000
0000
0001
0000
0000
0010
0000
0000
1000
0000
0010
0100
0000
0001
0000
1000
0000
0001
0000
0000
0010
0000
0000
0010
0000
1000
0000
0010
0000
0001
0000
,  // measure 32
0020
0000
0030
0020
0000
0030
0020
0000
0030
0020
0000
0030
0020
0000
0030
0020
0000
0030
0220
0000
0000
0000
0030
0000
0000
0000
0000
0000
0000
0000
0300
0000
,  // measure 33
2001
0000
0000
0100
0000
0000
0010
0000
0000
0100
0000
0000
3001
0000
0000
1000
,  // measure 34
0001
0000
0001
0000
0100
0001
0000
0000
1000
0000
0010
0000
0001
0000
0010
0000
,  // measure 35
2000
0000
0000
0010
0000
0000
3002
0000
0000
0010
0000
0000
2003
0000
0000
0100
,  // measure 36
0000
0000
3001
0000
0001
0100
0000
0100
1000
0000
0100
0000
0010
0000
0100
0000
,  // measure 37
0002
0000
0000
0100
0000
0000
2003
0000
0000
0010
0000
0000
3002
0000
0000
0100
,  // measure 38
0000
0000
1003
0000
0000
1000
0000
0000
1000
0000
0100
0000
1000
0000
0001
0000
,  // measure 39
0020
0000
0030
0020
0000
0030
0020
0000
0030
0020
0000
0030
0020
0000
0030
0020
,  // measure 40
0000
0030
0020
0000
0000
1000
0000
0000
0031
0000
0000
0001
0100
0000
0001
0000
,  // measure 41
0101
0000
0000
0001
1000
0000
0010
0000
0000
0100
0000
0000
0001
0000
0000
0010
,  // measure 42
0100
0000
1000
0000
0000
0001
0000
0001
0100
0000
0010
0000
0001
0000
0010
0000
,  // measure 43
1000
0000
0000
0100
1000
0000
0001
0000
0000
0100
0000
0000
1000
0000
0000
0010
,  // measure 44
0000
0000
0001
0000
0000
1000
0000
1000
0010
0000
0100
0000
0001
0000
1000
0000
,  // measure 45
0100
0000
0000
0100
0010
0000
0001
0000
0000
1000
0000
0000
0010
0000
0000
0010
,  // measure 46
0100
0000
0001
0000
0000
1000
0000
1000
0100
0000
0001
0000
0100
0000
1000
0000
,  // measure 47
2020
0000
3030
2020
0000
3030
2020
0000
3030
0220
0000
0330
0220
0000
0330
0022
,  // measure 48
0000
0033
0022
0000
0000
0000
0033
0000
0000
0000
0000
0000
0000
0000
0000
0000
;

//---------------dance-single - ----------------
#NOTES:
     dance-single:
     X-Scale 12 (DRS Special):
     Challenge:
     8:
     0.294258,0.378200,0.115813,0.231625,0.165446,249.000000,235.000000,14.000000,28.000000,152.000000,0.000000,0.294258,0.378200,0.115813,0.231625,0.165446,249.000000,235.000000,14.000000,28.000000,152.000000,0.000000:
// measure 0
0000
0000
0000
0000
,  // measure 1
0000
0000
0000
0000
,  // measure 2
0000
0000
0000
0000
,  // measure 3
2000
0000
3000
0000
0000
1000
0100
0001
,  // measure 4
0010
0000
0000
2000
0000
0000
0002
0000
0000
0000
0000
0000
0000
0000
0000
0000
0000
0000
3003
0000
0000
0000
0000
0000
0000
0000
0000
0000
0000
0000
0000
0000
,  // measure 5
0002
0010
0100
1003
,  // measure 6
0001
0000
1000
0000
0001
0100
0001
0000
,  // measure 7
1000
0000
0000
0001
0000
0000
0200
0000
0000
0000
0000
0000
0310
0000
0000
0000
,  // measure 8
1000
0100
0010
0000
0011
0000
0001
0010
,  // measure 9
0200
0010
1300
0001
,  // measure 10
0100
0000
0001
1000
0010
0000
0100
0001
,  // measure 11
1000
0000
0000
0001
0000
0000
0020
0000
0000
0001
0000
0000
0100
0000
0000
1000
,  // measure 12
0000
0000
0100
0000
0000
0001
0000
0000
0230
0000
0000
0000
2000
0000
3300
0000
,  // measure 13
LL00
0000
0000
0000
0000
0000
0000
0000
0001
0000
0000
0000
1000
0000
0100
0001
,  // measure 14
0020
0000
0000
2000
0000
3030
L0L0
0000
0000
0000
0000
0000
0001
0000
0100
1000
,  // measure 15
0020
0000
0000
0002
0000
0033
00LL
0000
0000
0000
0000
0000
1000
0000
0001
0100
,  // measure 16
0010
0000
0000
0010
0000
0000
0010
0000
0000
0010
0000
0000
0010
0000
0000
0010
0000
0000
0220
0000
0000
0000
0000
0000
0000
0000
0330
0000
0LL0
0000
0000
0000
,  // measure 17
1000
MMMM
1000
MMMM
1000
0000
0010
1000
,  // measure 18
0001
MMMM
0001
MMMM
0001
0100
1000
0100
,  // measure 19
0001
MMMM
0001
MMMM
0001
0000
0110
0000
,  // measure 20
1000
MMMM
1000
MMMM
1000
0100
0001
0100
,  // measure 21
1000
MMMM
1000
MMMM
1000
0000
0110
0000
,  // measure 22
0001
MMMM
0001
MMMM
0001
0100
1000
0100
,  // measure 23
0001
0000
MMMM
0000
0001
0000
MMMM
0000
0001
0000
0000
0000
0010
0000
0000
0010
,  // measure 24
0000
0020
0200
0000
0000
0330
0LL0
0000
,  // measure 25
2000
0000
0000
0000
3002
0000
1003
0010
,  // measure 26
0001
0000
0000
0100
0000
0000
2000
0000
0000
0000
0000
0000
0000
0000
0000
0000
0000
0000
0000
0000
3000
0000
0000
0000
0002
0000
0000
0000
0000
0000
0000
0000
,  // measure 27
0023
0000
0000
0000
0130
0000
1000
0100
,  // measure 28
0001
0000
0000
0010
0000
0000
2000
0000
0000
0000
0000
0000
0000
0000
0000
0000
0002
0000
0000
0000
0000
0000
0000
0000
0000
0000
0000
0000
3003
0000
0000
0000
,  // measure 29
L00L
0000
0000
0100
0000
0000
0001
0000
0000
0100
0000
0000
0001
0000
0000
0000
,  // measure 30
1000
MMMM
1000
MMMM
1000
MMMM
1000
MMMM
,  // measure 31
1000
0100
0010
0001
1000
0010
1000
0001
,  // measure 32
0010
0000
0000
0010
0000
0000
0010
0000
0000
0010
0000
0000
0010
0000
0000
0010
0000
0000
0022
0000
0000
0000
0000
0000
0000
0000
0033
0000
00LL
0000
0000
0000
,  // measure 33
0001
MMMM
0001
MMMM
0001
0000
0010
0100
,  // measure 34
1000
MMMM
1000
MMMM
1000
0010
0001
0010
,  // measure 35
1000
MMMM
1000
MMMM
1000
0001
0100
0000
,  // measure 36
0001
MMMM
0001
MMMM
0001
0010
1000
0010
,  // measure 37
0001
MMMM
0001
MMMM
0001
0010
0100
0000
,  // measure 38
1000
MMMM
1000
MMMM
1000
0010
0001
0010
,  // measure 39
1000
0000
0000
0100
0000
0000
0001
0000
0000
0010
0000
0000
1000
0000
0000
0010
,  // measure 40
0000
0000
0001
0000
0000
0100
0000
0000
1000
0000
0000
0000
1100
0000
0000
0000
,  // measure 41
0001
MMMM
0001
MMMM
0001
0000
0010
0100
,  // measure 42
1000
MMMM
1000
MMMM
1000
0100
0001
0100
,  // measure 43
1000
0000
0000
0001
0000
0000
0010
0000
0000
1000
0000
0000
0001
0000
0000
0100
,  // measure 44
0000
0000
0010
0000
0000
0001
0000
0000
1000
0000
0010
0000
0001
0000
0010
0000
,  // measure 45
1000
MMMM
1000
MMMM
1000
0000
0010
1000
,  // measure 46
0001
MMMM
0001
MMMM
0001
0100
1000
0100
,  // measure 47
0001
0000
0000
0100
0000
0000
1000
0000
0000
0010
0000
0000
0002
0000
0000
2000
,  // measure 48
0000
3003
L00L
0000
0000
0000
0000
0000
0000
0000
0000
0000
0000
0000
0000
0000
;
