#VERSION:0.83;
#TITLE:Enjoy the Silence;
#SUBTITLE:;
#ARTIST:Depeche Mode;
#TITLETRANSLIT:;
#SUBTITLETRANSLIT:;
#ARTISTTRANSLIT:;
#GENRE:Synthpop;
#ORIGIN:;
#CREDIT:;
#BANNER:Enjoy the Silence-bn.png;
#BACKGROUND:Enjoy the Silence-bg.png;
#PREVIEWVID:;
#JACKET:Enjoy the Silence-jacket.png;
#CDIMAGE:;
#DISCIMAGE:;
#LYRICSPATH:;
#CDTITLE:cdtitle.png;
#MUSIC:Enjoy the Silence.ogg;
#OFFSET:-0.021000;
#SAMPLESTART:50.967999;
#SAMPLELENGTH:16.990999;
#SELECTABLE:YES;
#BPMS:0.000=113.000;
#STOPS:;
#DELAYS:;
#WARPS:;
#TIMESIGNATURES:0.000=4=4;
#TICKCOUNTS:0.000=4;
#COMBOS:0.000=1;
#SPEEDS:0.000=1.000=0.000=0;
#SCROLLS:0.000=1.000;
#FAKES:;
#LABELS:0.000=Song Start;
#BGCHANGES:-0.020=Enjoy the Silence.avi=1.000=1=0=0=StretchNoLoop==CrossFade==,
99999=-nosongbg-=1.000=0=0=0 // don't automatically add -songbackground-
;
#KEYSOUNDS:;
#ATTACKS:
;

//---------------dance-single - ----------------
#NOTEDATA:;
#CHARTNAME:X-Scale 12;
#STEPSTYPE:dance-single;
#DESCRIPTION:;
#CHARTSTYLE:;
#DIFFICULTY:Challenge;
#METER:8;
#RADARVALUES:0.516248,0.511372,0.097231,0.324102,0.328153,446.000000,434.000000,12.000000,40.000000,0.000000,0.000000,0.000000,0.000000,0.000000,0.516248,0.511372,0.097231,0.324102,0.328153,446.000000,434.000000,12.000000,40.000000,0.000000,0.000000,0.000000,0.000000,0.000000;
#CREDIT:;
#NOTES:
// measure 0
0000
0000
0000
0000
,  // measure 1
0000
0000
0000
0000
,  // measure 2
0000
0000
0000
0000
,  // measure 3
0000
0000
0000
0000
,  // measure 4
1000
0000
0100
0000
0010
0000
0001
0010
0000
0001
0010
0000
0100
0000
0010
0000
,  // measure 5
0001
0000
1000
0000
0010
0000
0100
0001
0000
0100
0001
0000
1000
0000
0001
0000
,  // measure 6
0010
0000
0100
0000
0010
0000
0001
0100
0000
0001
0100
0000
0010
0000
0001
0000
,  // measure 7
0010
0000
1000
0000
0010
0000
0100
0010
0000
0100
0010
0000
0001
0000
0010
0000
,  // measure 8
0101
0000
1000
0000
0001
0000
0100
0010
0000
0100
0010
0000
1000
0000
1000
0000
,  // measure 9
0001
0000
0100
0000
0010
0000
1000
0100
0000
1000
0100
0000
0010
0000
0010
0000
,  // measure 10
0001
0000
1000
0000
0001
0000
0010
0100
0000
0010
0100
0000
0010
0000
0010
0000
,  // measure 11
0001
0000
1000
0000
0010
0000
1000
0001
0000
1000
0001
0000
0100
0000
0100
0000
,  // measure 12
1000
0000
0100
0000
0010
0000
0100
0001
0000
0100
0001
0000
0010
0000
0010
0000
,  // measure 13
1000
0000
0010
0000
0001
0000
0010
0100
0000
0010
0100
0000
1000
0000
1000
0000
,  // measure 14
0001
0000
0010
0000
0100
0000
0010
0001
0000
0010
0001
0000
0100
0000
0100
0000
,  // measure 15
0010
0000
1000
0000
0001
0000
0100
0001
0000
0100
0001
0000
1000
0000
1000
0000
,  // measure 16
2010
0000
0001
0000
3010
0000
1000
0100
0000
1000
0100
0000
0010
0000
0001
0000
,  // measure 17
0021
0000
0100
0000
0031
0000
0010
0100
0010
0000
0100
0010
0000
0001
0000
0001
,  // measure 18
1000
0100
1000
0000
0010
0000
0100
0000
0010
0000
1000
0002
0000
0013
0001
0000
,  // measure 19
1000
0010
1000
0000
0001
0000
1000
0100
0000
1000
0001
0000
0100
0000
0010
0100
,  // measure 20
0020
0000
0001
0000
0130
0000
0010
0000
0100
0001
0000
1000
0001
0000
1000
0000
,  // measure 21
2001
0000
0100
0000
3001
0000
1000
0010
1000
0100
0000
0010
0100
0000
1000
0100
,  // measure 22
1000
0000
0100
0000
0001
0000
0100
0000
0010
0100
0000
0010
0001
0000
1000
0000
,  // measure 23
0001
0000
0010
0000
0100
0000
1000
0001
0100
0001
0000
1000
0010
0000
1000
0001
,  // measure 24
2000
0000
0000
0000
3100
1000
0000
0001
0100
0000
0001
0000
0101
0000
0000
0000
,  // measure 25
0020
0000
0000
0000
0130
0000
0010
0000
1000
0001
1000
0000
1001
0000
1000
0000
,  // measure 26
0200
0000
0000
0000
0310
0000
0000
0100
0010
0000
0001
0000
0011
0000
0010
0000
,  // measure 27
0100
0000
1000
0000
0001
0000
1000
0001
1000
0001
1000
0000
1001
0000
0010
0000
,  // measure 28
0200
0000
0000
0000
0310
0000
0000
0100
0001
0000
1000
0000
1001
0000
0001
0000
,  // measure 29
2000
0000
0000
0000
3010
0000
0010
0100
0000
0001
0010
0000
0101
0000
1000
0000
,  // measure 30
0002
0000
0000
0000
0103
0000
0000
0001
0010
0000
0100
0000
0110
0000
0010
0000
,  // measure 31
0001
0000
1000
0000
0001
0000
0100
0010
0100
0000
0001
0000
0010
0000
0100
0010
,  // measure 32
0100
0000
1000
0000
0001
0000
0100
0010
0100
0000
0001
0000
1000
0000
0010
0000
,  // measure 33
1002
0000
0000
0000
1003
0000
0000
0100
1000
0000
0001
0000
1000
0000
1000
0000
,  // measure 34
2000
0000
0000
0000
3001
0000
1000
0010
0100
0000
0001
0000
0100
0000
0100
0000
,  // measure 35
0020
0000
0000
0000
1030
0000
0000
0010
1000
0000
0001
0000
0010
0000
0010
0000
,  // measure 36
0200
0000
0000
0000
0310
0000
0100
0010
0001
0000
1000
0000
0001
0000
0001
0000
,  // measure 37
1000
0000
0000
0000
0100
0000
1000
0000
0000
0100
0000
1000
0000
0000
0001
0000
0100
0000
0000
0000
0001
0000
0000
0000
0010
0000
0000
0000
0010
0000
0000
0000
,  // measure 38
0200
0000
1300
0100
0001
0100
1000
1000
,  // measure 39
0002
0000
0000
0000
0013
0000
0000
0100
0010
0000
0001
0000
1000
0000
1000
0000
,  // measure 40
0010
0000
0000
0100
0010
0000
0100
0000
0001
0000
1000
0000
0001
0000
0001
0000
,  // measure 41
0002
0000
0000
0000
1003
0000
0000
0001
0010
0000
0001
0000
0100
0000
0010
0000
,  // measure 42
0100
0000
0001
0000
1000
0000
0100
1000
0100
0000
0010
0000
0001
0000
1000
0000
,  // measure 43
0020
0000
0000
0000
0130
0000
0000
0010
0100
0000
0001
0000
1000
0000
0001
0000
,  // measure 44
0010
0000
0100
0000
1000
0000
0001
1000
0001
0000
0100
0000
0010
0000
0100
0000
,  // measure 45
0002
0000
0000
0000
1003
0000
0000
0100
1000
0000
0001
0000
0010
0000
0100
0000
,  // measure 46
0010
0000
0001
0000
1000
0000
0010
1000
0010
0000
0100
0000
0001
0000
1000
0000
,  // measure 47
0200
0000
0000
0000
0310
0000
0000
0100
0010
0000
0001
0000
1000
0000
0100
0000
,  // measure 48
0001
0000
0100
0000
1000
0000
0001
1000
0001
0000
0010
0000
0100
0000
0010
0000
,  // measure 49
0002
0000
1003
0100
1000
0001
0200
0000
,  // measure 50
0020
0300
0130
0010
0001
0010
0200
0000
,  // measure 51
0020
0300
1030
0100
0010
0001
0002
0000
,  // measure 52
0020
0003
0130
0010
0001
1000
0002
0000
,  // measure 53
0020
0003
0031
0010
1000
0010
0002
0000
,  // measure 54
2000
0003
3001
1000
0010
0100
0020
0000
,  // measure 55
0200
0030
0310
0100
0001
1000
0200
0000
,  // measure 56
0320
0000
0030
0200
0000
0300
2000
0000
3002
0000
0000
0000
0203
0000
0000
0000
,  // measure 57
0000
0000
0000
0300
0000
0000
0000
0000
;

//---------------dance-single - ----------------
#NOTEDATA:;
#CHARTNAME:X-Scale 7;
#STEPSTYPE:dance-single;
#DESCRIPTION:;
#CHARTSTYLE:;
#DIFFICULTY:Medium;
#METER:5;
#RADARVALUES:0.399340,0.441639,0.008103,0.623896,0.129641,345.000000,344.000000,1.000000,77.000000,0.000000,0.000000,0.000000,0.000000,0.000000,0.399340,0.441639,0.008103,0.623896,0.129641,345.000000,344.000000,1.000000,77.000000,0.000000,0.000000,0.000000,0.000000,0.000000;
#CREDIT:;
#NOTES:
// measure 0
0000
0000
0000
0000
,  // measure 1
0000
0000
0000
0000
,  // measure 2
0000
0000
0000
0000
,  // measure 3
0000
0000
0000
0000
,  // measure 4
1000
0001
1000
0001
0010
0100
0010
0100
,  // measure 5
1000
0010
1000
0010
0100
0001
0100
0001
,  // measure 6
0010
0100
0010
0100
1000
0001
1000
0001
,  // measure 7
0010
0100
0010
0100
1000
0001
1000
0001
,  // measure 8
1001
0000
1000
0200
0000
1300
0001
0010
,  // measure 9
0001
0000
0100
0020
0000
1030
0001
0010
,  // measure 10
0100
0000
1000
0002
0000
0103
0010
0100
,  // measure 11
0001
0000
0010
0200
0000
1300
0001
0100
,  // measure 12
0010
0000
1000
0200
0000
1300
0001
0100
,  // measure 13
0001
0000
0010
0200
0000
1300
0001
0010
,  // measure 14
0100
0000
1000
0002
0000
0103
0001
1000
,  // measure 15
0001
0000
0010
0200
0000
1300
0002
0000
,  // measure 16
1003
0000
0200
0000
0300
2000
0000
3000
0001
0000
0020
0000
0130
0000
0010
0000
,  // measure 17
0100
0000
2000
0000
3000
0002
0003
0020
0000
0030
0002
0000
1003
0001
0000
1000
,  // measure 18
0001
0000
0000
0000
0010
0000
0100
0000
1000
0000
0001
2000
0000
3100
1000
0000
,  // measure 19
0001
0000
0000
0010
0000
0000
0001
0000
1000
0100
0020
0000
0001
0030
0010
0100
,  // measure 20
0010
0000
0001
0000
1000
0000
0010
0000
0200
0000
0300
0002
1000
0000
0003
0000
,  // measure 21
0001
0000
0010
0000
0100
0000
0010
0000
0002
0000
0003
2000
0010
3000
0000
1000
,  // measure 22
0001
0000
0010
0000
0100
0000
1000
0100
0000
1000
0002
0000
0010
0000
0000
0000
,  // measure 23
1003
0000
0001
0000
0100
0000
0010
0000
1000
0001
0200
0000
0010
0000
0000
0000
,  // measure 24
0301
0000
0000
0000
1000
0100
1000
0001
0200
0000
0000
0000
0320
0000
0000
0000
,  // measure 25
1030
0000
0000
0000
0001
0010
0100
0010
0002
0000
0003
2000
0000
3000
0200
0000
,  // measure 26
0320
0000
1000
0000
0031
0020
0030
0002
,  // measure 27
0003
0000
2000
0000
0100
0000
0000
0000
3001
1000
0000
0001
1000
0000
0100
0000
,  // measure 28
0010
0000
0002
0000
0003
2000
0000
3000
0020
0000
0030
0200
0000
0000
0301
0000
,  // measure 29
0002
0000
0003
2000
0000
3000
0001
0000
0020
0000
0030
0200
0000
0000
1300
0000
,  // measure 30
2000
0000
0000
0000
0001
3000
1000
0100
0000
2000
0000
0000
0001
3000
0002
0000
,  // measure 31
0003
0020
0100
0000
0001
0000
0130
0010
,  // measure 32
0001
0000
1000
0000
0001
0000
0010
0000
0100
0010
0000
0100
0010
0000
0001
0000
,  // measure 33
2000
0000
3100
0010
0100
1000
0001
0001
,  // measure 34
0200
0000
0310
0100
1000
0100
0001
0001
,  // measure 35
2000
0000
3100
0010
0001
1000
0010
0010
,  // measure 36
0200
0000
0301
0100
1000
0100
0010
0010
,  // measure 37
2000
0000
3100
0010
0001
1000
0001
0001
,  // measure 38
0200
0000
0310
0100
1000
0100
0001
0001
,  // measure 39
0020
0000
0130
0010
0001
1000
0010
0010
,  // measure 40
0200
0001
0302
1000
,  // measure 41
2003
0000
0010
0010
3000
1000
2000
0000
,  // measure 42
3001
1000
0100
1000
0001
0010
0100
0100
,  // measure 43
1000
0000
0001
0010
1000
0010
0200
0000
,  // measure 44
1300
0000
0001
1000
0100
1000
0010
0010
,  // measure 45
0100
0000
0010
0100
1000
0100
0002
0000
,  // measure 46
1003
0000
0001
0010
1000
0010
0001
0001
,  // measure 47
1000
0000
0010
1000
0001
1000
0020
0000
,  // measure 48
0230
0001
0302
0010
,  // measure 49
0023
0000
0100
0100
0000
0001
0032
0000
,  // measure 50
2003
0000
0100
0100
0000
0010
3020
0000
,  // measure 51
0230
0000
1000
1000
0000
0010
0320
0000
,  // measure 52
2030
0000
0001
0001
0000
0100
3200
0000
,  // measure 53
0320
0000
1000
1000
0000
0001
0032
0000
,  // measure 54
2003
0000
0010
0010
0000
0100
3200
0000
,  // measure 55
0320
0000
0001
0001
0000
0100
0230
0000
,  // measure 56
1300
0000
0000
0100
0000
0000
0010
0000
0002
0000
0000
0000
2000
0000
0000
0000
,  // measure 57
0000
0000
0000
3003
0000
0000
0000
0000
;

//---------------dance-single - ----------------
#NOTEDATA:;
#CHARTNAME:X-Scale 4;
#STEPSTYPE:dance-single;
#DESCRIPTION:;
#CHARTSTYLE:;
#DIFFICULTY:Easy;
#METER:3;
#RADARVALUES:0.262754,0.275892,0.032410,0.437537,0.000000,227.000000,223.000000,4.000000,54.000000,0.000000,0.000000,0.000000,0.000000,0.000000,0.262754,0.275892,0.032410,0.437537,0.000000,227.000000,223.000000,4.000000,54.000000,0.000000,0.000000,0.000000,0.000000,0.000000;
#CREDIT:;
#NOTES:
// measure 0
0000
0000
0000
0000
,  // measure 1
0000
0000
0000
0000
,  // measure 2
0000
0000
0000
0000
,  // measure 3
0000
0000
0000
0000
,  // measure 4
1000
0100
0000
1000
,  // measure 5
0001
1000
0000
0010
,  // measure 6
0100
0010
0000
1000
,  // measure 7
0100
1000
0000
0001
,  // measure 8
1000
0000
0010
2000
0000
3010
0200
0000
,  // measure 9
0301
0000
1000
0200
0000
1300
0002
0000
,  // measure 10
0013
0000
0100
0020
0000
0130
2000
0000
,  // measure 11
3001
0000
0100
0020
0000
0130
0002
0000
,  // measure 12
1003
0000
0100
0020
0000
0130
2000
0000
,  // measure 13
3001
0000
1000
0020
0000
1030
0002
0000
,  // measure 14
0013
0000
0100
2000
0000
3100
0020
0000
,  // measure 15
0031
0000
0100
0020
0000
0130
0002
0000
,  // measure 16
1003
0000
0100
0000
1000
0100
1000
0000
,  // measure 17
0001
0000
0100
0000
0001
0100
0001
0000
,  // measure 18
0010
0000
0100
0000
0010
0100
0010
0000
,  // measure 19
0001
0000
1000
0000
0001
1000
0001
0000
,  // measure 20
0100
0000
0010
0000
0100
0010
0100
0000
,  // measure 21
0001
0000
0100
0000
0001
0100
0001
0000
,  // measure 22
1000
0000
0100
0000
1000
0100
1000
0000
,  // measure 23
0010
0000
0100
0000
0010
0100
0010
0000
,  // measure 24
0110
0100
0002
2003
,  // measure 25
3100
0010
0100
1000
,  // measure 26
0002
0000
0100
0000
0003
0200
0000
0320
,  // measure 27
0000
0230
0001
0000
0300
0000
0100
0000
,  // measure 28
0101
0001
1000
0001
,  // measure 29
0100
0010
0100
0001
,  // measure 30
0020
0000
0031
0000
0010
0000
0100
1000
,  // measure 31
0001
2000
0010
0000
0000
0000
3010
0000
,  // measure 32
1000
0001
1000
0010
,  // measure 33
1010
0000
1000
0200
0000
0310
0200
0000
,  // measure 34
1300
0000
0001
0020
0000
0130
2000
0000
,  // measure 35
3001
0000
1000
0200
0000
0310
0002
0000
,  // measure 36
0103
0000
0001
0020
0000
0130
0020
0000
,  // measure 37
0031
0000
1000
0020
0000
0130
0020
0000
,  // measure 38
1030
0000
0001
0200
0000
0310
0200
0000
,  // measure 39
0301
0000
1000
0020
0000
0130
0002
0000
,  // measure 40
0023
0100
0032
1000
,  // measure 41
0103
0000
0010
0200
0000
0301
2000
0000
,  // measure 42
0100
0000
3001
0020
0000
0130
2000
0000
,  // measure 43
0001
0000
3100
0020
0000
0031
0200
0000
,  // measure 44
0010
0000
0301
0020
0000
0130
2000
0000
,  // measure 45
0001
0000
3010
2000
0000
3100
0020
0000
,  // measure 46
0001
0000
0130
0020
0000
0031
2000
0000
,  // measure 47
0100
0000
3001
0020
0000
0130
2000
0000
,  // measure 48
0001
3100
1000
0001
,  // measure 49
1001
0000
0000
1000
0000
0000
0100
0000
,  // measure 50
0000
0000
0000
0010
0000
0000
0001
0000
,  // measure 51
0000
0000
0000
1000
0000
0000
0001
0000
,  // measure 52
0000
0000
0000
0010
0000
0000
0100
0000
,  // measure 53
0000
0000
0000
1000
0000
0000
0001
0000
,  // measure 54
0000
0000
0000
0010
0000
0000
0001
0000
,  // measure 55
0000
0000
0000
1000
0000
0000
0010
0000
,  // measure 56
0000
0000
0001
0001
;

//---------------dance-single - ----------------
#NOTEDATA:;
#CHARTNAME:X-Scale 2;
#STEPSTYPE:dance-single;
#DESCRIPTION:;
#CHARTSTYLE:;
#DIFFICULTY:Beginner;
#METER:2;
#RADARVALUES:0.119223,0.180687,0.016205,0.000000,0.000000,103.000000,101.000000,2.000000,0.000000,0.000000,0.000000,0.000000,0.000000,0.000000,0.119223,0.180687,0.016205,0.000000,0.000000,103.000000,101.000000,2.000000,0.000000,0.000000,0.000000,0.000000,0.000000,0.000000;
#CREDIT:;
#NOTES:
// measure 0
0000
0000
0000
0000
,  // measure 1
0000
0000
0000
0000
,  // measure 2
0000
0000
0000
0000
,  // measure 3
0000
0000
0000
0000
,  // measure 4
0001
0000
0000
0000
,  // measure 5
0010
0000
0000
0000
,  // measure 6
0100
0000
0000
0000
,  // measure 7
1000
0000
0000
0000
,  // measure 8
1001
0000
0000
0000
,  // measure 9
0001
0000
0000
0000
,  // measure 10
1000
0000
0000
0000
,  // measure 11
0010
0000
0000
0000
,  // measure 12
1000
0000
0000
0000
,  // measure 13
0001
0000
0000
0000
,  // measure 14
0010
0000
0000
0000
,  // measure 15
0100
0000
0000
0000
,  // measure 16
1000
0000
0100
0000
,  // measure 17
0010
0000
0001
0000
,  // measure 18
1000
0000
0010
0000
,  // measure 19
0100
0000
0001
0000
,  // measure 20
1000
0000
0100
0000
,  // measure 21
0010
0000
0001
0000
,  // measure 22
1000
0000
0010
0000
,  // measure 23
0100
0000
0001
0000
,  // measure 24
1000
0000
0001
0100
,  // measure 25
0001
0000
0010
0000
,  // measure 26
0100
1000
0000
1000
,  // measure 27
0010
1000
0000
0001
,  // measure 28
0100
0000
0010
0000
,  // measure 29
0100
0000
0001
0000
,  // measure 30
0010
0100
0000
0010
,  // measure 31
0001
0010
0000
0001
,  // measure 32
1000
0001
0000
0100
,  // measure 33
0110
0010
0000
0010
,  // measure 34
0000
1000
0000
1000
,  // measure 35
0000
0001
0000
0001
,  // measure 36
0000
0010
0000
0010
,  // measure 37
0000
0100
0000
0100
,  // measure 38
0000
1000
0000
1000
,  // measure 39
0000
0001
0000
0001
,  // measure 40
0100
0000
0010
0000
,  // measure 41
0100
0100
0000
0100
,  // measure 42
0000
0010
0000
0010
,  // measure 43
0000
1000
0000
1000
,  // measure 44
0000
0001
0000
0001
,  // measure 45
0000
0010
0000
0010
,  // measure 46
0000
0100
0000
0100
,  // measure 47
0000
1000
0000
1000
,  // measure 48
0010
0000
0100
0000
,  // measure 49
0010
0010
0000
0010
,  // measure 50
0000
1000
0000
1000
,  // measure 51
0000
0100
0000
0100
,  // measure 52
0000
0010
0000
0010
,  // measure 53
0000
0001
0000
0001
,  // measure 54
0000
1000
0000
1000
,  // measure 55
0000
0001
0000
0001
;

//---------------dance-single - ----------------
#NOTEDATA:;
#CHARTNAME:X-Scale 10;
#STEPSTYPE:dance-single;
#DESCRIPTION:;
#CHARTSTYLE:;
#DIFFICULTY:Hard;
#METER:7;
#RADARVALUES:0.449113,0.464884,0.299794,0.332204,0.158000,388.000000,351.000000,37.000000,41.000000,0.000000,0.000000,0.000000,0.000000,0.000000,0.449113,0.464884,0.299794,0.332204,0.158000,388.000000,351.000000,37.000000,41.000000,0.000000,0.000000,0.000000,0.000000,0.000000;
#CREDIT:;
#NOTES:
// measure 0
0000
0000
0000
0000
,  // measure 1
0000
0000
0000
0000
,  // measure 2
0000
0000
0000
0000
,  // measure 3
0000
0000
0000
0000
,  // measure 4
0001
0100
0010
1000
0001
0100
0010
1000
,  // measure 5
0001
0010
0100
1000
0001
0010
0100
1000
,  // measure 6
0001
0100
0010
1000
0001
0100
0010
1000
,  // measure 7
0001
0010
0100
1000
0001
0010
0100
1000
,  // measure 8
1100
0100
1000
0002
0000
0013
0100
0100
,  // measure 9
1010
1000
0001
0020
0000
0130
0010
0010
,  // measure 10
0011
0001
1000
0020
0000
0130
0001
0001
,  // measure 11
1001
1000
0010
2000
0000
3100
0010
0010
,  // measure 12
0101
0001
1000
0020
0000
0130
0010
0010
,  // measure 13
1001
1000
0100
2000
0000
3001
0010
0010
,  // measure 14
0011
0001
0010
0200
0000
1300
0001
0001
,  // measure 15
1001
1000
0100
0020
0000
0031
0100
0000
,  // measure 16
1001
0000
0001
0000
1000
0000
0100
0000
2000
0000
3000
0002
0000
0000
0000
0003
,  // measure 17
0011
0000
0010
0000
0100
0000
1000
0000
0002
0000
0003
2000
0000
0000
0000
3000
,  // measure 18
1010
0000
0000
0000
0010
0000
1000
0000
0001
0000
0010
0002
0000
0000
0000
0003
,  // measure 19
1001
0000
0000
1000
0000
0000
0010
0000
1000
0001
0000
0200
0000
0000
0000
0300
,  // measure 20
0101
0000
0001
0000
1000
0000
0010
0000
2000
0000
3000
0200
0000
0000
0000
0300
,  // measure 21
0110
0000
0010
0000
0001
0000
1000
0000
0002
0000
0003
0200
0000
0000
0000
0300
,  // measure 22
1001
0000
1000
0000
0001
0000
1000
0000
0100
0010
0000
0002
0000
0000
0000
0003
,  // measure 23
0011
0000
0010
0000
0100
0000
0010
0000
0001
1000
0000
0200
0000
0000
0000
0300
,  // measure 24
1010
0000
0000
0000
0101
0000
0000
0100
0001
0000
0000
0000
1001
0000
0000
0000
,  // measure 25
1100
0000
1010
0000
1000
0001
1000
0100
,  // measure 26
0020
0000
0000
0000
0001
0000
0030
0001
0010
0000
0001
0000
1000
0000
0010
0000
,  // measure 27
0001
0000
0020
0000
1000
0000
0000
0000
0130
0010
0000
1000
0001
0000
0010
0000
,  // measure 28
0011
0000
0000
0000
0101
0000
0000
0001
1000
0000
0100
0000
1000
0000
0000
0000
,  // measure 29
1010
0000
0000
0000
0101
0000
0001
0000
1000
0000
0000
0100
0000
0000
1000
0000
,  // measure 30
1001
0000
0000
0000
0011
0000
0000
0010
0100
0000
0010
0000
0001
0000
1000
0000
,  // measure 31
0100
0000
1000
0000
0001
0000
0010
0000
0001
0100
0000
0010
1000
0000
0100
0000
,  // measure 32
1000
0000
0001
0000
0100
0000
0001
0000
1000
0010
0000
0100
0001
0000
1000
0000
,  // measure 33
1001
0000
0000
0000
0100
0000
0000
0001
1000
0000
1000
0000
0100
0000
0100
0000
,  // measure 34
1100
0000
0000
0000
1000
0000
0010
1000
0001
0000
0010
0000
0100
0000
0100
0000
,  // measure 35
1100
0000
0000
0000
1000
0000
0000
0001
0010
0000
0001
0000
0100
0000
0100
0000
,  // measure 36
0101
0000
0000
0000
0001
0000
1000
0010
1000
0000
0100
0000
0010
0000
0010
0000
,  // measure 37
0101
0000
0000
0000
0001
0000
0000
0010
0100
0000
0010
0000
0001
0000
0001
0000
,  // measure 38
1001
0000
0000
0000
1000
0000
0100
1000
0001
0000
0010
0000
0001
0000
0001
0000
,  // measure 39
0011
0000
0000
0000
0010
0000
0000
0100
1000
0000
0001
0000
0100
0000
0100
0000
,  // measure 40
0002
0100
2003
0010
,  // measure 41
3001
0000
0000
0000
1001
0000
0000
1000
0100
0000
1000
0000
0002
0000
0000
0000
,  // measure 42
0010
0000
0103
0001
1000
0001
0200
0000
,  // measure 43
1000
0000
0000
0000
0301
0000
0000
1000
0100
0000
1000
0000
0020
0000
0000
0000
,  // measure 44
0001
0000
0130
0010
0001
0010
2000
0000
,  // measure 45
0100
0000
0000
0000
3001
0000
0000
0010
0001
0000
1000
0000
0200
0000
0000
0000
,  // measure 46
0010
0000
1300
0001
0010
0001
2000
0000
,  // measure 47
0010
0000
0000
0000
3100
0000
0000
1000
0001
0000
0100
0000
0020
0000
0000
0000
,  // measure 48
2000
0030
3002
0010
,  // measure 49
0103
0000
0001
0000
1000
0000
0000
0100
1000
0000
0001
0000
0010
0000
0000
0000
,  // measure 50
0101
0000
0000
0000
0100
0000
0010
0100
0001
0000
1000
0000
0100
0000
1000
0000
,  // measure 51
0001
0000
0010
0000
0100
0000
0000
1000
0100
0000
1000
0000
0001
0000
0000
0000
,  // measure 52
1001
0000
0000
0000
0001
0000
0010
0100
1000
0000
0001
0000
0100
0000
0001
0000
,  // measure 53
1000
0000
0100
0020
0000
0130
2000
0000
,  // measure 54
0010
0000
3001
0020
0000
0130
2000
0000
,  // measure 55
0010
0000
3001
0020
0000
0031
2000
0000
,  // measure 56
3001
0000
0000
0010
0000
0000
0001
0000
2000
0000
0000
0000
3020
0000
0000
0000
,  // measure 57
0000
0000
0000
0030
0000
0000
0000
0000
;
