#TITLE:Emoji;
#SUBTITLE:;
#ARTIST:Au/Ra;
#TITLETRANSLIT:;
#SUBTITLETRANSLIT:;
#ARTISTTRANSLIT:;
#GENRE:Pop;
#CREDIT:;
#BANNER:Emoji-bn.png;
#BACKGROUND:Emoji-bg.png;
#LYRICSPATH:;
#CDTITLE:cdtitle.png;
#MUSIC:Emoji.ogg;
#OFFSET:-0.004000;
#SAMPLESTART:60.004002;
#SAMPLELENGTH:15.000000;
#SELECTABLE:YES;
#BPMS:0.000000=64.000000
,16.000000=128.000000
,80.000000=64.000000
,96.000000=128.000000
,176.000000=64.000000
;
#STOPS:
;
#BGCHANGES:;
#KEYSOUNDS:;
#ATTACKS:;

//---------------dance-single - ----------------
#NOTES:
     dance-single:
     X-Scale 11:
     Hard:
     8:
     0.428416,0.719371,0.036796,0.248376,0.317370,326.000000,322.000000,4.000000,27.000000,0.000000,0.000000,0.428416,0.719371,0.036796,0.248376,0.317370,326.000000,322.000000,4.000000,27.000000,0.000000,0.000000:
// measure 0
0000
0000
0000
0000
,  // measure 1
0000
0000
0000
0000
,  // measure 2
1000
0000
0000
0000
0100
0000
0000
0000
0010
0000
0000
0000
0001
0000
0000
0000
0100
0000
0000
0010
0000
0000
0100
0000
0001
0000
0000
0000
0010
0000
0100
0000
,  // measure 3
1000
0000
1000
0100
0010
0001
0000
1000
0000
1000
0000
0100
0010
0001
0000
0000
,  // measure 4
0011
0010
0001
1000
0010
0000
0100
0001
,  // measure 5
1000
0000
0010
0100
1000
0100
0001
0100
,  // measure 6
0010
0000
0000
1000
0010
0000
1000
0000
0100
0000
0000
0000
0010
0000
0001
0000
,  // measure 7
0010
0000
0001
0100
0010
0100
0000
0100
,  // measure 8
1000
0001
1000
0010
0100
0000
0001
1000
,  // measure 9
0001
0000
1000
0100
0001
0100
1000
0100
,  // measure 10
0010
0000
0000
0001
0000
0000
1000
0000
0001
0000
0000
0000
0100
0000
0010
0000
,  // measure 11
0100
0000
0001
1000
0010
0100
0000
0100
,  // measure 12
1000
0000
0001
0000
1000
0000
0100
0000
0010
0000
0000
0010
0000
0000
0100
0000
,  // measure 13
1000
0000
0000
0001
0000
0000
0100
0000
0000
0010
0000
0000
1000
0000
0010
0000
,  // measure 14
1000
0000
0001
0000
0010
0000
0001
0000
0100
0000
0000
0001
0000
0000
1000
0000
,  // measure 15
0001
0000
0010
0100
0000
0000
1000
0000
0000
0001
0000
0000
1000
0000
0100
0000
,  // measure 16
0001
0100
0010
0001
1000
0001
0100
0000
,  // measure 17
0010
0000
1000
0001
1000
0100
0001
0100
,  // measure 18
1000
0000
0000
0001
1000
0000
0100
0000
0010
0000
0000
0000
0001
0000
0100
0000
,  // measure 19
0001
0000
1000
0010
0100
0010
2000
0000
,  // measure 20
3001
0000
0000
0000
0010
0001
0010
0001
0010
0000
0001
1000
0001
1000
0001
1000
0001
0000
0000
0100
0000
0000
0010
0000
1000
0000
0000
0100
0000
0000
0010
0000
,  // measure 21
0001
0000
0000
0000
0001
1000
0001
1000
0001
0000
0000
0001
0000
0000
0001
0000
0100
0000
0000
0010
0000
0000
1000
0000
0001
0000
0000
0010
0000
0000
0100
0000
,  // measure 22
1000
0000
0100
0000
1000
0000
0001
0000
1000
0000
0010
0000
0400
0000
0300
0000
0001
0000
0000
0100
0000
0000
0010
0000
1000
0000
0000
0100
0000
0000
0010
0000
,  // measure 23
0001
0000
0000
0000
0100
0001
0100
0001
0100
0000
0000
0100
0000
0000
0100
0000
0001
0000
0000
0100
0000
0000
0010
0000
1000
0000
0000
0100
0000
0000
0010
0000
,  // measure 24
0011
0000
1000
0100
0001
0100
1000
0001
,  // measure 25
0010
0001
1000
0010
0001
0010
1000
0000
,  // measure 26
0001
0000
0100
0010
0001
0010
0100
0001
,  // measure 27
1000
0000
0001
0000
0100
0000
0010
0000
1000
0000
0001
1000
0001
0000
0100
0000
,  // measure 28
0010
0000
1000
0100
0001
0100
1000
0010
,  // measure 29
0100
0010
1000
0001
0010
0100
1000
0000
,  // measure 30
0001
0000
1000
0010
0001
1000
0100
0001
,  // measure 31
1000
0000
0001
0000
0100
0000
0010
0000
0000
0000
0010
0000
1000
0010
0000
0000
,  // measure 32
1010
2000
3200
0320
,  // measure 33
0031
0010
0002
0000
2003
0000
3010
1000
,  // measure 34
0001
0000
0100
0010
1000
0001
0010
0000
,  // measure 35
0100
0000
0000
1000
0000
0000
0001
0000
1000
0000
0000
0100
0000
0000
0010
0000
,  // measure 36
0001
0200
0320
2030
,  // measure 37
3002
0000
0023
0000
0230
0000
1300
0001
,  // measure 38
0100
0000
0010
0100
1000
0100
0010
0000
,  // measure 39
1000
0000
0000
0100
0000
0000
1000
0000
0001
0000
0000
0100
0000
0000
0001
0000
,  // measure 40
0101
2000
3002
0203
,  // measure 41
0310
0100
0002
0000
2003
0000
3010
1000
,  // measure 42
0001
0000
1000
0100
0001
0100
1000
0000
,  // measure 43
0010
0000
0000
0100
0000
0000
0001
0000
1000
0000
0000
0010
0000
0000
0100
0000
,  // measure 44
0000
0001
0000
0000
2000
0000
0000
0000
3200
0000
0000
0000
0302
0000
0000
0000
0203
0000
0000
0000
2300
0000
0000
0000
3002
0000
0000
0000
1003
0000
0000
0002
,  // measure 45
0000
0000
0000
0000
0000
0000
0000
0000
0003
0020
0000
0000
0000
0130
0000
0020
0000
0000
0000
0000
0000
0000
0000
0000
0000
0032
0000
0000
0000
0000
0000
0000
,  // measure 46
0003
0000
0000
0000
;

//---------------dance-single - ----------------
#NOTES:
     dance-single:
     X-Scale 13:
     Challenge:
     9:
     0.530921,0.782314,0.045996,0.128788,0.427759,404.000000,399.000000,5.000000,14.000000,0.000000,0.000000,0.530921,0.782314,0.045996,0.128788,0.427759,404.000000,399.000000,5.000000,14.000000,0.000000,0.000000:
// measure 0
0000
0000
0000
0000
,  // measure 1
0000
0000
0000
0000
,  // measure 2
0001
0000
0000
0000
1000
0000
0000
0000
0001
0000
0000
0000
0040
0000
0030
0000
0001
0000
0000
0100
0000
0000
0010
0000
1000
0000
0001
1000
0001
0000
1000
0001
,  // measure 3
1000
0000
0000
0000
0000
0000
0000
0000
0010
0000
1000
0000
0010
0000
1000
0000
0010
0000
0000
0000
0000
0000
0100
0000
0000
0000
0000
0000
0001
0000
0000
0000
1000
0000
0000
0000
0000
0000
0100
1000
0100
1000
0000
0000
0001
0000
0000
0000
0010
0000
0000
0000
0100
0000
0000
0000
0110
0000
0000
0000
0000
0000
0000
0000
,  // measure 4
1001
0100
0001
1000
0001
0000
0010
0100
,  // measure 5
1000
0000
0001
0100
1000
0100
0001
0001
,  // measure 6
1000
0000
0000
0010
1000
0000
0001
0000
1000
0000
0100
0000
0010
0000
0100
0000
,  // measure 7
0010
0000
0001
1000
0010
1000
0001
0100
,  // measure 8
0001
1000
0100
0010
0001
0000
0100
0010
,  // measure 9
0100
0000
0001
0010
1000
0010
0001
1000
,  // measure 10
0100
0000
0000
0010
0000
0000
0100
0000
1000
0000
0000
0000
0001
0000
0100
0000
,  // measure 11
1000
0000
1000
0100
0001
0100
0010
1000
,  // measure 12
0001
0000
0010
0000
0100
0000
1000
0000
0001
0000
0000
0010
0000
0000
0001
0000
,  // measure 13
1000
0000
0000
0100
0000
0000
1000
0000
0010
0000
0100
0000
1000
0000
0100
0000
,  // measure 14
0010
0000
1000
0000
0001
0000
0010
0000
0001
0000
0000
1000
0000
0000
0010
0000
,  // measure 15
1000
0000
0100
0010
0001
0000
1000
0000
0000
0001
0000
0000
0100
0000
0010
0000
,  // measure 16
0100
1000
0100
0001
0010
0100
1000
0001
,  // measure 17
1000
0000
0100
0010
0001
0100
1000
0100
,  // measure 18
0001
0000
0000
0010
0001
0000
1000
0000
0001
0000
0000
0000
0100
0000
0010
0000
,  // measure 19
1000
0000
0001
0020
1030
0020
0032
0000
,  // measure 20
1003
0000
0000
0000
0000
0000
0000
0000
0100
0000
1000
0000
0100
0000
1000
0000
0100
0000
0000
0000
0010
0000
0001
0000
1000
0000
0001
0000
0100
0000
0010
0000
1000
0000
0000
0000
0000
0000
0001
0000
0000
0000
0000
0000
0100
0000
0000
0000
0001
0000
0000
0000
0000
1000
0001
1000
0001
0000
0000
0000
0100
0000
0000
0000
,  // measure 21
0100
0000
0000
0000
0001
0010
0001
0010
0001
0000
0000
0100
0000
0000
0010
0000
1000
0000
0000
0001
0000
0000
0010
0000
0100
0000
0000
0010
0000
0000
0001
0000
,  // measure 22
1000
0000
0000
0000
0001
0000
0000
0000
0010
0000
0000
0000
0100
0000
0000
0000
0010
0000
0000
0000
0001
0000
0000
0000
0040
0000
0000
0000
0030
0000
0000
0000
0001
0000
0000
0000
0000
0000
0100
0000
0000
0000
0000
0000
0010
0000
0000
0000
1000
0000
0000
0000
0000
0100
1000
0100
1000
0000
0000
0000
0010
0000
0000
0000
,  // measure 23
0010
0000
0000
0000
0000
0000
0000
0000
1000
0000
0010
0000
1000
0000
0010
0000
1000
0000
0000
0000
0000
0000
0001
0000
0000
0000
0000
0000
0100
0000
0000
0000
0010
0000
0000
0000
0000
1000
0100
1000
0100
0000
0000
0000
1000
0000
0000
0000
0001
0000
0000
0000
0000
0000
0010
0000
0000
0000
0000
0000
0001
0000
0000
0000
,  // measure 24
0011
0000
1000
0010
0100
0001
0010
1000
,  // measure 25
0010
1000
0010
0001
0100
0001
1000
0001
,  // measure 26
0100
0000
0000
0000
0010
0100
0010
0100
0010
0000
1000
0010
0000
0010
0100
0000
,  // measure 27
0001
0000
0000
1000
0100
0000
1000
0000
0001
0000
0100
0010
1000
0001
0100
0000
,  // measure 28
0010
4000
3100
1000
0001
0100
0010
1000
,  // measure 29
0100
1000
0100
0001
0100
0010
0001
0001
,  // measure 30
1000
0000
0040
0000
1030
0010
1000
0010
1000
0000
0100
0010
0000
0010
0001
0000
,  // measure 31
1000
0000
1000
0000
0001
0000
1000
0000
1000
0000
0100
0010
0001
1000
0001
0000
,  // measure 32
1001
0000
0100
0001
1000
0001
0010
0100
,  // measure 33
1000
0000
0100
0000
0001
0000
0100
0000
1000
0000
0001
0010
0001
0000
0100
0000
,  // measure 34
0001
0000
0020
0100
0230
1000
2300
0001
,  // measure 35
3001
0000
0000
1000
0001
0000
0010
0000
0100
0000
1000
0010
0100
0001
1000
0000
,  // measure 36
0001
0000
0100
0010
0001
0010
1000
0010
,  // measure 37
0100
0000
0001
0000
1000
0000
0001
0000
0010
0000
0100
0000
1000
0000
1000
0100
,  // measure 38
1000
0001
0200
0010
0320
1000
2030
0001
,  // measure 39
3001
0000
1000
0000
0001
0000
0010
0000
0100
0000
1000
0010
0100
0001
1000
0000
,  // measure 40
1001
1000
0100
0001
0100
0010
0100
1000
,  // measure 41
0001
0000
1000
0000
0010
0000
0001
0000
0010
0000
0100
0000
0001
0000
1000
0001
,  // measure 42
1000
0100
0020
0001
0032
0100
0203
0010
,  // measure 43
0310
0000
0100
0000
1000
0000
0100
0000
0001
0000
0100
0010
1000
0001
0100
0000
,  // measure 44
0000
0000
0000
0000
1000
0000
0000
0000
0100
0000
0000
0000
0001
0000
0000
0000
1000
0000
0000
0000
0010
0000
0000
0000
0001
0000
0000
0000
0100
0000
0000
0002
,  // measure 45
0000
0000
0000
0000
0000
0000
0000
0000
1003
0000
0000
0000
0100
0000
0000
2000
0000
0000
0000
0000
0000
0000
0000
0000
3010
0000
0000
0000
0100
0000
0000
0010
;

//---------------dance-single - ----------------
#NOTES:
     dance-single:
     X-Scale 8:
     Medium:
     6:
     0.341682,0.465476,0.027597,0.505952,0.137987,260.000000,257.000000,3.000000,55.000000,0.000000,2.000000,0.341682,0.465476,0.027597,0.505952,0.137987,260.000000,257.000000,3.000000,55.000000,0.000000,2.000000:
// measure 0
0000
0000
0000
0000
,  // measure 1
0000
0000
0000
0000
,  // measure 2
0001
0000
0000
0000
1000
0000
0000
0000
0001
0000
0000
0000
1000
0000
0000
0000
0100
0000
0000
0010
0000
0000
0100
0000
0010
0000
0000
0000
0001
0000
0000
0000
,  // measure 3
1000
0000
0000
0000
0200
0000
0000
0000
0301
0000
0000
0100
0000
0000
2000
0000
3000
0000
2000
0000
3000
0000
0001
0000
0100
0000
0001
0000
0000
0000
0000
0000
,  // measure 4
1001
0000
1000
0010
0002
0000
0023
0000
,  // measure 5
2030
0000
3001
1000
0100
0000
1000
0001
,  // measure 6
0200
0000
0310
0200
0000
0300
0002
0000
0000
0000
0003
0000
1000
0000
0001
0000
,  // measure 7
0010
0000
0100
1000
0000
0001
0000
1000
,  // measure 8
0100
0000
0010
0001
2000
0000
3010
1000
,  // measure 9
0001
0000
0100
0010
1000
0100
0010
0001
,  // measure 10
2000
0000
3000
0200
0000
0300
2000
0000
0000
0000
3000
0000
0001
0000
1000
0000
,  // measure 11
0100
0000
1000
0010
0000
0100
0000
0010
,  // measure 12
2000
0001
3002
0010
,  // measure 13
1003
0000
0000
0010
0000
0000
0001
0000
0000
0010
0000
0000
1000
0000
0010
0000
,  // measure 14
0200
0010
0320
0001
,  // measure 15
1030
0000
0001
1000
0000
0000
0100
0000
0000
0010
0000
0000
0001
0000
0010
0000
,  // measure 16
0001
0000
1000
0000
0010
0100
0001
0000
,  // measure 17
1000
0000
0100
1000
0001
0000
0100
0010
,  // measure 18
2000
0000
3000
0002
0000
0003
0020
0000
0000
0000
0030
0000
0100
0000
0010
0000
,  // measure 19
0001
0000
1000
0001
0000
1000
0200
0000
,  // measure 20
0001
0000
0000
0000
0010
0000
0000
0000
1300
0000
0000
0000
0100
0000
0000
0000
1000
0000
0000
0100
0000
0000
0010
0000
0002
0000
0000
0000
0000
0000
0000
0000
,  // measure 21
1003
0000
0000
0000
0100
0000
0000
0000
1000
0000
0000
1000
0000
0000
1000
0000
0001
0000
0000
0100
0000
0000
0010
0000
1000
0000
0000
1000
0000
0000
1000
0000
,  // measure 22
0001
0000
0000
0000
0100
0000
0010
0000
0100
0000
0010
0000
0200
0000
0000
0000
0301
0000
0000
0100
0000
0000
0010
0000
2000
0000
0000
0000
0000
0000
0000
0000
,  // measure 23
3001
0000
0000
0000
0020
0000
0000
0000
0130
0000
0000
0100
0000
0000
0100
0000
1000
0000
0000
0100
0000
0000
0010
0000
0002
0000
0000
0000
0000
0000
0000
0000
,  // measure 24
1003
0000
0100
1000
0000
0001
0100
0010
,  // measure 25
0100
0000
0001
1000
0000
1000
0100
0100
,  // measure 26
0010
0000
0001
0100
0000
0001
1000
0100
,  // measure 27
1000
0000
0001
0010
0000
0010
0100
0100
,  // measure 28
1000
0000
0001
0100
0000
0100
0010
1000
,  // measure 29
0001
0000
0010
0001
0000
0001
1000
1000
,  // measure 30
0100
0000
0010
0001
0000
0001
1000
0010
,  // measure 31
0100
0010
1000
0100
0000
0100
0010
0000
,  // measure 32
0011
0002
2003
3002
,  // measure 33
0013
0100
2000
0000
3200
0000
0310
0002
,  // measure 34
0000
0000
2000
0003
3002
0000
0023
0000
,  // measure 35
0130
0000
1000
0010
0000
0010
0100
0000
,  // measure 36
0001
2000
3200
0320
,  // measure 37
0032
0000
2003
0000
3002
0000
0013
0200
,  // measure 38
0000
0000
2000
0000
3020
0300
0032
0000
,  // measure 39
1003
0001
1000
0100
0000
0100
0010
0000
,  // measure 40
0011
2000
3200
2300
,  // measure 41
3001
1000
0020
0000
0230
0000
0301
2000
,  // measure 42
0000
0000
0002
0000
0203
3000
2300
0000
,  // measure 43
3001
0000
1000
0100
0000
0100
0010
0000
,  // measure 44
0001
1000
0100
1000
0001
0010
0100
1000
,  // measure 45
0200
1000
0001
1000
,  // measure 46
0300
0000
0000
0000
;

//---------------dance-single - ----------------
#NOTES:
     dance-single:
     X-Scale 5:
     Easy:
     3:
     0.198438,0.232738,0.036796,0.073593,0.000000,151.000000,147.000000,4.000000,8.000000,0.000000,0.000000,0.198438,0.232738,0.036796,0.073593,0.000000,151.000000,147.000000,4.000000,8.000000,0.000000,0.000000:
// measure 0
0000
0000
0000
0000
,  // measure 1
0000
0000
0000
0000
,  // measure 2
1000
0100
1000
0001
,  // measure 3
0100
0000
0010
0000
1000
0000
0000
0001
,  // measure 4
1001
0000
0100
1000
,  // measure 5
0001
0000
0010
0100
,  // measure 6
1000
0000
0001
0100
,  // measure 7
0010
0000
0000
1000
0000
0001
0000
1000
,  // measure 8
1000
0000
0001
0010
,  // measure 9
0001
0000
1000
0010
,  // measure 10
0100
0000
0001
0010
,  // measure 11
0100
0000
0000
1000
0000
0001
0000
1000
,  // measure 12
1000
0000
0100
1000
,  // measure 13
0001
0000
0100
0010
,  // measure 14
1000
0000
0001
0010
,  // measure 15
0100
0000
0000
1000
0000
0001
0000
1000
,  // measure 16
1000
0000
0010
0100
,  // measure 17
0001
0000
1000
0100
,  // measure 18
0010
0000
0001
0100
,  // measure 19
0010
0000
0000
1000
0000
0000
0002
0000
,  // measure 20
0010
1000
0103
0001
,  // measure 21
1000
0010
0100
0001
,  // measure 22
1000
0100
1000
0100
1000
0000
0001
0000
,  // measure 23
0100
0010
0100
0000
,  // measure 24
1001
0000
1000
0010
,  // measure 25
0100
0000
0010
0100
,  // measure 26
0001
0000
1000
0100
,  // measure 27
1000
0000
0001
0100
,  // measure 28
0001
0000
0010
0100
,  // measure 29
1000
0000
0001
0100
,  // measure 30
0010
0000
1000
0100
,  // measure 31
0010
0000
0001
0010
,  // measure 32
0011
0000
0100
0000
,  // measure 33
0010
0000
1000
0000
0001
0000
0010
0002
,  // measure 34
0000
1000
0000
1003
,  // measure 35
0001
0000
0100
0010
0000
0010
1000
0000
,  // measure 36
0001
0000
0100
0000
,  // measure 37
0010
0000
1000
0000
0001
0000
1000
0200
,  // measure 38
0000
0010
0000
0310
,  // measure 39
0100
1000
0001
1000
0000
1000
0010
0000
,  // measure 40
1010
0000
1000
0000
,  // measure 41
0001
0000
0010
0000
0001
0000
0100
0020
,  // measure 42
0000
1000
0000
1030
,  // measure 43
0010
0000
1000
0100
0000
0100
1000
0000
,  // measure 44
0002
0000
0000
0000
2000
0000
0000
0003
,  // measure 45
0200
0000
0000
3000
0020
0000
0000
0000
,  // measure 46
0330
0000
0000
0000
;

//---------------dance-single - ----------------
#NOTES:
     dance-single:
     X-Scale 2:
     Beginner:
     1:
     0.139301,0.165584,0.009199,0.091991,0.000000,106.000000,105.000000,1.000000,10.000000,0.000000,0.000000,0.139301,0.165584,0.009199,0.091991,0.000000,106.000000,105.000000,1.000000,10.000000,0.000000,0.000000:
// measure 0
0000
0000
0000
0000
,  // measure 1
0000
0000
0000
0000
,  // measure 2
1000
0000
0010
0000
,  // measure 3
0100
0000
0001
0000
,  // measure 4
1000
0000
0000
0100
0000
0000
1000
0000
,  // measure 5
0001
0000
0000
0010
0000
0000
0001
0000
,  // measure 6
0100
0000
0000
0010
0000
0000
1000
0000
,  // measure 7
0001
0000
0000
0100
0000
0010
0000
0100
,  // measure 8
0010
0000
0000
1000
0000
0000
0001
0000
,  // measure 9
0010
0000
0000
0001
0000
0000
1000
0000
,  // measure 10
0100
0000
0000
0010
0000
0000
0001
0000
,  // measure 11
1000
0000
0000
0010
0000
0100
0000
0010
,  // measure 12
0100
0000
0001
0000
,  // measure 13
1000
0000
0100
0000
,  // measure 14
1000
0000
0001
0000
,  // measure 15
0100
0000
0010
0000
,  // measure 16
0100
0000
0001
0000
,  // measure 17
0010
0000
0100
0000
,  // measure 18
1000
0000
0001
0000
,  // measure 19
1000
0000
0000
0100
0000
1000
0200
0000
,  // measure 20
1300
0000
0100
0000
,  // measure 21
0010
0000
0001
0000
,  // measure 22
0100
0000
0010
0000
,  // measure 23
1000
0000
0001
0000
,  // measure 24
1001
0000
1000
0000
,  // measure 25
0001
0000
0010
0000
,  // measure 26
0001
0000
0100
0000
,  // measure 27
0010
0000
1000
0000
,  // measure 28
0001
0000
1000
0000
,  // measure 29
0100
0000
1000
0000
,  // measure 30
0001
0000
0010
0000
,  // measure 31
0100
0000
1000
0000
,  // measure 32
0001
0000
1000
0000
,  // measure 33
0100
0000
0010
0000
,  // measure 34
0001
2000
3200
2300
,  // measure 35
3001
0000
0010
0000
,  // measure 36
0001
0000
0100
0000
,  // measure 37
0010
0000
1000
0000
,  // measure 38
0001
0200
0320
0230
,  // measure 39
0301
0000
0010
0000
,  // measure 40
0100
0000
1000
0000
,  // measure 41
0001
0000
1000
0000
,  // measure 42
0100
0020
0032
0023
,  // measure 43
0031
0000
1000
0000
,  // measure 44
0100
0000
1000
0000
,  // measure 45
0001
0000
0000
0000
;
