#TITLE:Dumptruck;
#SUBTITLE:;
#ARTIST:Full Tac;
#TITLETRANSLIT:;
#SUBTITLETRANSLIT:;
#ARTISTTRANSLIT:;
#GENRE:Hypertrap;
#CREDIT:;
#BANNER:Dumptruck-bn.png;
#BACKGROUND:Dumptruck-bg.png;
#LYRICSPATH:;
#CDTITLE:cdtitle.png;
#MUSIC:Dumptruck.ogg;
#OFFSET:-0.003000;
#SAMPLESTART:14.548000;
#SAMPLELENGTH:14.545000;
#SELECTABLE:YES;
#BPMS:0.000000=132.000000
,222.000000=214.000000
;
#STOPS:188.000000=0.455000,
220.000000=0.455000
;
#BGCHANGES:32.000=Dumptruck.avi=1.000=0=0=0=StretchNoLoop====,
99999=-nosongbg-=1.000=0=0=0 // don't automatically add -songbackground-
;
#KEYSOUNDS:;
#ATTACKS:;

//---------------dance-single - ----------------
#NOTES:
     dance-single:
     X-Scale 3:
     Beginner:
     2:
     0.140607,0.175553,0.016542,0.000000,0.000000,119.000000,117.000000,2.000000,0.000000,0.000000,0.000000,0.140607,0.175553,0.016542,0.000000,0.000000,119.000000,117.000000,2.000000,0.000000,0.000000,0.000000:
// measure 0
0000
0000
0000
0000
,  // measure 1
0000
0000
0000
0000
,  // measure 2
0000
0000
0000
0000
,  // measure 3
0000
0000
0000
0000
,  // measure 4
0001
0000
0000
0000
,  // measure 5
0000
0000
0000
0000
,  // measure 6
1000
0000
0000
0000
,  // measure 7
0000
0000
0000
0000
,  // measure 8
1001
0000
0100
0000
,  // measure 9
1000
0000
0001
0000
,  // measure 10
0100
0000
0001
0000
,  // measure 11
0010
0000
0100
0000
,  // measure 12
1000
0000
0001
0000
,  // measure 13
1000
0000
0100
0000
,  // measure 14
1000
0000
0001
0000
,  // measure 15
0010
0000
0100
0000
,  // measure 16
1000
1000
1000
0000
,  // measure 17
0000
0001
0000
0000
,  // measure 18
0100
0000
0001
0000
,  // measure 19
1000
0000
0001
0000
,  // measure 20
0010
0000
0100
0000
,  // measure 21
1000
0000
0001
0000
,  // measure 22
1000
0000
0010
0000
,  // measure 23
1000
0000
0001
0000
,  // measure 24
1000
0000
0000
0000
,  // measure 25
0000
0100
0000
0000
,  // measure 26
0010
0010
0010
0000
,  // measure 27
0000
0100
0000
0000
,  // measure 28
1000
0000
0001
0000
,  // measure 29
1000
0000
0001
0000
,  // measure 30
0100
0000
0001
0000
,  // measure 31
1000
0000
0010
0000
,  // measure 32
1000
0000
0100
0000
,  // measure 33
0010
0000
0001
0000
,  // measure 34
1000
0000
0001
0000
,  // measure 35
0100
0000
0001
0000
,  // measure 36
0010
0000
0100
0000
,  // measure 37
0000
1000
0000
0000
,  // measure 38
0001
0000
0100
0000
,  // measure 39
0000
0001
0000
0000
,  // measure 40
1000
0000
0000
0000
,  // measure 41
0000
0001
0000
0000
,  // measure 42
0100
0000
0001
0000
,  // measure 43
1000
0000
0001
0000
,  // measure 44
0010
0000
0100
0000
,  // measure 45
0010
0000
0001
0000
,  // measure 46
1000
0000
0010
0000
,  // measure 47
1000
0001
0000
0100
,  // measure 48
0100
0100
0000
0000
,  // measure 49
0001
0000
0000
1000
,  // measure 50
0000
0001
0000
1000
,  // measure 51
0000
0010
0000
1000
,  // measure 52
0000
0001
0000
0010
,  // measure 53
0000
0100
0000
0010
,  // measure 54
0000
0001
0000
1000
,  // measure 55
0000
0000
1001
0000
,  // measure 56
0001
0000
0000
0100
,  // measure 57
0000
0000
0000
0000
0001
0000
0000
0001
,  // measure 58
0000
0000
0000
1000
,  // measure 59
0000
1000
0000
0000
1000
0000
0000
0000
,  // measure 60
0010
0000
0000
0100
,  // measure 61
0000
0000
0000
0000
0001
0000
0000
0001
,  // measure 62
0000
0000
0000
0010
,  // measure 63
0000
0010
0000
0000
0010
0000
0000
0100
,  // measure 64
0000
0000
0000
1000
,  // measure 65
0000
0000
0000
0000
0001
0000
0000
0100
,  // measure 66
0000
0000
0000
0010
,  // measure 67
0000
0000
0000
0000
1000
0000
0000
0100
,  // measure 68
0000
0000
0000
1000
,  // measure 69
0000
0000
0000
0000
0001
0000
0000
0100
,  // measure 70
0000
0000
0000
0001
;

//---------------dance-single - ----------------
#NOTES:
     dance-single:
     X-Scale 7:
     Easy:
     5:
     0.342657,0.386412,0.090981,0.066168,0.000000,290.000000,279.000000,11.000000,8.000000,0.000000,0.000000,0.342657,0.386412,0.090981,0.066168,0.000000,290.000000,279.000000,11.000000,8.000000,0.000000,0.000000:
// measure 0
0000
0000
0000
0000
,  // measure 1
0000
0000
0000
0000
,  // measure 2
0000
0000
0000
0000
,  // measure 3
0000
0000
0000
0000
,  // measure 4
0100
0000
0000
0000
0000
0000
0001
0010
,  // measure 5
0000
0000
1000
0001
,  // measure 6
1001
0000
1000
0002
,  // measure 7
0000
0003
0000
0000
,  // measure 8
0110
1000
0001
1000
,  // measure 9
0001
0000
0100
0010
0100
0000
0001
1000
,  // measure 10
0010
0100
0010
0100
,  // measure 11
0010
0000
1000
0100
0010
0000
0001
1000
,  // measure 12
0010
1000
0010
1000
,  // measure 13
0010
0000
0100
0001
1000
0000
0100
0010
,  // measure 14
0001
0010
0001
0010
,  // measure 15
0001
0000
0100
0000
0001
0010
0100
0000
,  // measure 16
1100
0001
1000
0001
,  // measure 17
1000
0001
0100
0000
0001
0000
0010
0100
,  // measure 18
1000
0001
1000
0001
,  // measure 19
1000
0000
0100
0010
0001
0000
1000
0000
,  // measure 20
0001
0100
0001
0100
,  // measure 21
0001
0000
0010
0100
1000
0000
0001
1000
,  // measure 22
0010
0100
0010
0100
,  // measure 23
0010
0000
1000
0100
0010
0000
0001
0000
,  // measure 24
0011
0000
0000
0110
0000
0000
1000
0010
,  // measure 25
0000
0010
0100
0000
0001
0100
0001
0000
,  // measure 26
1000
0000
1000
0001
0100
0000
0001
0000
,  // measure 27
0010
0000
0100
0010
0001
0000
1000
0000
,  // measure 28
0001
0100
0010
0000
1000
0010
0100
0000
,  // measure 29
0001
0100
0010
0000
1000
0000
0001
0010
,  // measure 30
0100
0000
1000
0000
0001
0000
0010
0100
,  // measure 31
1000
0000
0100
0010
0001
0000
1000
0000
,  // measure 32
1001
0000
0001
0100
0001
0000
0010
0100
,  // measure 33
0000
0100
1000
0000
0001
0000
0100
0001
,  // measure 34
1000
0000
0100
0010
0001
0000
1000
0100
,  // measure 35
0000
0100
0010
0000
0100
0010
0001
0000
,  // measure 36
1000
0000
0001
0100
0010
0000
0010
1000
,  // measure 37
0000
1000
0001
0000
0010
0000
0100
0010
,  // measure 38
0001
0000
0100
0010
1000
0000
0001
0100
,  // measure 39
0000
0100
0010
0000
1000
0100
0010
0000
,  // measure 40
0001
1000
0001
1000
,  // measure 41
0001
0100
0010
0000
,  // measure 42
0011
0000
0010
0100
1000
0000
0010
0100
,  // measure 43
0000
0100
0001
0000
1000
0001
0100
0000
,  // measure 44
0001
0000
0001
0010
0100
0000
1000
0001
,  // measure 45
0000
0001
0100
0000
0010
0000
0100
0010
,  // measure 46
1000
0000
0001
0010
0100
0000
0010
0001
,  // measure 47
0000
1100
0000
0101
,  // measure 48
0100
0000
0001
0000
1000
0100
0010
0000
,  // measure 49
0100
1000
0000
1001
,  // measure 50
0001
0000
1000
0000
0010
1000
0001
0000
,  // measure 51
0100
0010
0100
0001
,  // measure 52
0010
0100
1000
0000
0001
1000
0000
1000
,  // measure 53
0100
1000
0010
0100
,  // measure 54
0001
1000
0010
0000
0100
0010
2000
0000
,  // measure 55
3000
0000
0011
0000
,  // measure 56
0001
0000
1000
0000
,  // measure 57
0010
0000
0000
0000
0100
0000
0000
0100
,  // measure 58
0000
0001
0000
1000
,  // measure 59
0000
0001
0000
0000
1000
0000
0000
0000
,  // measure 60
0100
0000
0010
0000
,  // measure 61
0001
0000
0000
0000
0010
0000
0000
0010
,  // measure 62
0000
0100
0000
1000
,  // measure 63
0000
0001
0000
0000
1000
0000
0000
2000
,  // measure 64
0000
0000
0000
3000
0010
0000
0100
0000
,  // measure 65
0001
0000
0000
0000
0010
0000
0000
0020
,  // measure 66
0000
0000
0000
0030
0100
0000
1000
0000
,  // measure 67
0001
0000
0000
0000
0100
0000
0000
0002
,  // measure 68
0000
0000
0000
0003
0010
0000
0100
0000
,  // measure 69
1000
0000
0000
0000
0001
0000
0000
0002
,  // measure 70
0000
0000
0000
0003
1000
0000
0002
0000
,  // measure 71
0010
0000
0003
0000
0020
0000
0000
0030
;

//---------------dance-single - ----------------
#NOTES:
     dance-single:
     X-Scale 11:
     Medium:
     8:
     0.484446,0.475998,0.322570,0.148878,0.028949,410.000000,371.000000,39.000000,18.000000,0.000000,0.000000,0.484446,0.475998,0.322570,0.148878,0.028949,410.000000,371.000000,39.000000,18.000000,0.000000,0.000000:
// measure 0
0000
0000
0000
0000
,  // measure 1
0000
0000
0000
0000
,  // measure 2
0000
0000
0000
0000
,  // measure 3
0000
0000
0000
0000
,  // measure 4
2000
0000
0000
0000
0000
0000
3001
0020
,  // measure 5
0000
0000
0130
0010
0001
0000
1000
0000
,  // measure 6
1010
0000
0000
0010
1000
0001
0200
0000
,  // measure 7
0301
1000
0000
0000
2200
0000
3300
0000
0202
0000
0303
0000
0000
0000
0000
0000
,  // measure 8
0011
0010
0110
0010
,  // measure 9
1001
0000
0100
0000
0001
0100
1000
0100
,  // measure 10
0010
0000
0010
1000
0010
0000
0010
0100
,  // measure 11
0010
0000
1001
0000
0010
0001
1000
0000
,  // measure 12
1100
0000
0010
0000
1010
0000
1000
0001
,  // measure 13
0010
0000
0001
0000
1000
0000
0001
0100
,  // measure 14
0010
0000
0010
1000
1010
0000
1000
0001
,  // measure 15
0010
0000
0100
0000
0010
0100
1000
0001
,  // measure 16
1001
0110
1001
1000
,  // measure 17
0010
0000
1000
0100
0010
0000
0100
0010
,  // measure 18
0001
0010
0011
0001
,  // measure 19
1000
0000
0001
0000
0010
0100
1000
0000
,  // measure 20
0001
0000
0100
0010
1000
0000
0001
1000
,  // measure 21
0010
0000
1000
0000
0100
0000
0010
0100
,  // measure 22
1000
0000
0010
1000
0001
0000
0010
0001
,  // measure 23
1000
0000
0010
0000
1000
0001
0100
0001
,  // measure 24
2000
0000
3000
0200
0000
0000
0020
0330
,  // measure 25
0100
0000
1000
0000
0001
1000
0001
0000
,  // measure 26
0101
0000
0000
0000
0101
0000
0000
0000
0001
1000
0000
0000
1100
0000
0000
0000
,  // measure 27
0100
1000
0001
0100
0010
0100
0001
0000
,  // measure 28
1000
0001
0100
0000
0001
1000
0100
0000
,  // measure 29
1000
0001
0100
0000
0001
0010
1000
0010
,  // measure 30
0001
0000
0100
0010
1000
0000
0100
0010
,  // measure 31
0001
0000
0010
0100
1000
0001
0100
0100
,  // measure 32
0101
0000
1000
0001
0100
0000
0010
0100
,  // measure 33
1000
0100
0001
0000
1000
0010
0100
0001
,  // measure 34
1000
0000
0001
0010
1000
0000
0001
0100
,  // measure 35
1000
0000
0010
1000
0001
0100
0010
0000
,  // measure 36
1010
0000
1000
0001
0100
0000
0001
0010
,  // measure 37
1000
0010
0100
0010
0001
0000
1000
0001
,  // measure 38
0100
0000
0001
1000
0010
0000
0001
0010
,  // measure 39
0100
0000
0010
0000
1000
0010
1000
0000
1010
0000
0000
0000
0001
0000
0000
0000
,  // measure 40
0100
0000
0100
0010
0100
0000
0001
0100
,  // measure 41
0000
0100
1000
0000
1001
0000
0100
0001
,  // measure 42
0010
0000
0010
0100
0110
0000
0010
0001
,  // measure 43
0000
0001
1000
0010
0100
0010
2000
0000
,  // measure 44
3001
0000
0100
0001
0101
0000
0001
1000
,  // measure 45
0000
1000
0010
0100
0010
0000
1000
0100
,  // measure 46
0010
0000
0010
0001
0011
0000
0010
0100
,  // measure 47
1000
0000
0001
0201
0000
0300
0110
0000
,  // measure 48
1001
0000
1010
0000
0010
1000
0000
1000
,  // measure 49
0001
0100
0001
0000
0010
0000
0100
0000
,  // measure 50
0100
1000
0010
0000
0010
0100
0001
0000
,  // measure 51
1000
0000
0010
0100
0001
0000
1001
0000
,  // measure 52
0100
1000
0001
0000
0100
0001
0000
0001
,  // measure 53
1000
0010
1000
0000
0100
0010
0001
0000
,  // measure 54
0010
0100
1000
0000
0010
1000
0002
0000
,  // measure 55
0003
0000
1001
1000
,  // measure 56
0010
1000
0001
0010
,  // measure 57
1000
0010
0100
0010
0001
0000
0000
0011
,  // measure 58
0000
1000
0001
1100
,  // measure 59
0100
1000
0001
0100
0010
0000
1000
0000
,  // measure 60
1001
0000
0001
0100
0001
0000
0101
0000
,  // measure 61
1000
0001
0010
0100
1000
0000
0000
1100
,  // measure 62
0000
0100
1000
0001
,  // measure 63
1000
0100
1000
0100
1000
0000
0001
0200
,  // measure 64
0010
0000
1000
0300
0100
0000
0002
0000
,  // measure 65
0010
0000
1003
0000
1001
0000
1000
0200
,  // measure 66
0010
0000
1000
0000
0310
0100
1000
0000
,  // measure 67
1001
0100
0001
0000
0101
0000
0001
0200
,  // measure 68
1000
0000
0010
0300
0100
0001
1000
0000
,  // measure 69
1100
0100
0010
0000
0001
0000
1000
0020
,  // measure 70
0001
0000
0130
0010
1000
0000
0001
0000
,  // measure 71
0010
0000
0100
0000
1000
0000
0000
0000
1000
0001
1000
0001
1000
0001
1000
0001
;

//---------------dance-single - ----------------
#NOTES:
     dance-single:
     X-Scale 14:
     Hard:
     9:
     0.596695,0.654497,0.355654,0.306028,0.136472,505.000000,462.000000,43.000000,37.000000,0.000000,0.000000,0.596695,0.654497,0.355654,0.306028,0.136472,505.000000,462.000000,43.000000,37.000000,0.000000,0.000000:
// measure 0
0000
0000
0000
0000
,  // measure 1
0000
0000
0000
0000
,  // measure 2
0000
0000
0000
0000
,  // measure 3
0000
0000
0000
0000
,  // measure 4
0001
0000
0010
0100
1000
0000
0010
0001
,  // measure 5
0000
0000
0010
0000
0100
0000
0010
0000
1000
0000
0100
0000
0010
0100
0000
0000
,  // measure 6
1001
0000
1000
0001
0100
0001
2000
0000
,  // measure 7
3100
0010
0000
0000
0022
0000
0033
0000
2002
0000
3003
0000
1000
0000
0010
0000
,  // measure 8
0110
0000
0100
0001
1001
0000
1000
0010
,  // measure 9
1000
0000
2001
0000
3010
0100
1000
0100
,  // measure 10
0010
0000
0010
0100
1001
0000
0001
0010
,  // measure 11
0001
0000
0000
0000
0100
0010
0100
0000
0001
0000
1000
0000
0200
0000
0000
0000
,  // measure 12
0310
0000
0001
0100
1001
0000
0001
1000
,  // measure 13
0001
0000
1002
0000
0103
0001
1000
0100
,  // measure 14
0010
0000
0100
0010
0011
0000
0010
0100
,  // measure 15
0010
0000
0000
0000
0001
0100
0010
0000
1000
0000
0001
0000
1000
0000
0010
0000
,  // measure 16
2020
3030
0022
0033
2020
3030
1000
0010
,  // measure 17
0100
0000
0001
0000
0010
0100
0010
0000
0001
0000
0100
0000
1000
0000
0100
0000
,  // measure 18
0001
0000
0000
0000
1000
0000
0010
1000
0010
0000
0000
0000
0010
0000
0100
0000
,  // measure 19
0010
0000
0001
0000
0010
0100
0010
0000
1000
0000
0100
0000
1000
0000
0000
0000
,  // measure 20
1100
0000
1000
0001
0101
0000
0100
0001
,  // measure 21
1000
0000
0010
0000
1000
0100
0010
0000
0001
0000
0100
0000
1000
0000
0100
0000
,  // measure 22
0001
0000
0001
1000
1010
0000
0010
1000
,  // measure 23
0001
0000
0100
0000
0001
0100
0001
0000
1000
0000
0010
0000
0100
0000
0001
0000
,  // measure 24
0202
0000
0303
2010
0000
0000
3001
1000
,  // measure 25
0010
0100
2002
0000
3003
0000
1000
0001
,  // measure 26
1001
0000
0000
0000
1100
0000
4000
0000
3001
0100
0000
0000
0001
0000
0000
0000
,  // measure 27
1000
0010
0100
1000
0100
0010
2000
0000
,  // measure 28
3001
1000
0001
0000
0010
0000
0000
0000
0001
1000
0001
0000
0010
0000
0000
0000
,  // measure 29
0001
1000
0001
0000
0010
0000
0100
1000
0100
0000
0010
0000
0001
0000
0100
0000
,  // measure 30
1001
0000
0000
0000
0001
0000
0400
0000
0310
0000
0000
0000
1000
0001
1000
0000
,  // measure 31
0010
0000
0000
0000
1000
0001
1000
0000
1010
0000
0001
0000
0011
0000
1000
0000
,  // measure 32
1001
1000
0010
0400
0301
0010
1000
0010
,  // measure 33
0001
0000
0100
0010
0001
0000
0010
0000
1000
0000
0001
0000
0100
0000
1000
0000
,  // measure 34
0100
0010
1000
0004
0103
0010
1000
0001
,  // measure 35
0100
0000
0001
1000
0010
0000
0100
0000
1000
0000
0001
0000
0010
0000
0100
0000
,  // measure 36
1001
1000
0010
0004
0013
1000
0001
0100
,  // measure 37
0000
0100
0040
1030
0001
0000
0010
0100
,  // measure 38
1000
0100
0010
0000
0001
0000
0400
0000
0310
0000
1000
0000
0001
0000
0100
0000
,  // measure 39
1000
0001
1000
0100
0001
1000
0020
0000
,  // measure 40
1030
0000
0100
0040
0031
0000
0100
0001
,  // measure 41
0000
0000
0001
0000
0100
0010
0100
0000
0110
0000
1000
0000
0000
0000
0001
0000
,  // measure 42
1001
0000
1000
0400
0310
0000
0001
1000
,  // measure 43
0001
0000
0100
0000
0010
1000
0010
0000
0100
0000
1000
0000
0100
0000
0001
0000
,  // measure 44
1000
0000
0010
4000
3001
0000
0100
0001
,  // measure 45
0010
0000
0100
0000
1000
0100
1000
0000
0001
0000
0100
0000
1000
0000
0100
0000
,  // measure 46
0001
1000
0010
4000
3100
0001
1000
0010
,  // measure 47
0001
0000
1100
1000
0001
0100
0220
0330
,  // measure 48
2020
3030
0022
0033
0001
1000
0001
0100
,  // measure 49
0010
0100
0001
0000
0101
0000
0001
0000
0000
0000
0000
0000
0011
0000
0000
0000
,  // measure 50
0010
0400
1300
0000
0001
0100
1000
0100
,  // measure 51
0001
0100
0001
0000
1000
0000
0100
0000
0010
0000
0000
0000
1001
0000
0000
0000
,  // measure 52
0010
4000
3001
0000
0100
0010
1000
0100
,  // measure 53
0010
0100
0010
0000
0001
0000
1000
0000
0001
0000
1000
0000
0010
0000
0000
0000
,  // measure 54
0100
0004
1003
0010
0001
0010
2002
0000
,  // measure 55
0000
0000
0000
0000
0000
3003
1100
0000
0000
1000
0000
0000
,  // measure 56
0001
0000
0000
1000
0001
1000
0001
1000
0001
1000
0001
0000
1001
0000
0000
0000
,  // measure 57
1000
0010
0001
0010
1000
0000
0100
1000
,  // measure 58
0001
0100
0001
0010
,  // measure 59
1000
0010
0100
0010
0001
0000
0001
0000
,  // measure 60
1001
0000
0100
1000
0001
0000
0100
0000
,  // measure 61
1000
0100
0010
0100
0001
0000
0010
0100
,  // measure 62
1000
0000
0001
0000
0100
0000
1000
0100
,  // measure 63
0001
1000
1000
1000
0010
0100
0001
0020
,  // measure 64
0100
0000
0031
0000
1000
0001
0200
0000
,  // measure 65
1000
0000
0301
0000
1001
0000
0000
1200
,  // measure 66
1000
0000
0310
0000
0100
1000
0001
0100
,  // measure 67
0001
1000
0010
0000
1001
0000
0000
0201
,  // measure 68
0001
0000
1300
0100
0001
1000
0002
0000
,  // measure 69
0023
0000
0130
1000
0001
1000
0010
0200
,  // measure 70
0000
0310
0100
1000
0100
0001
0200
0000
,  // measure 71
0010
0000
0000
0000
0301
0000
0000
0000
0001
1000
0001
1000
0001
1000
0001
1000
;
