#VERSION:0.83;
#TITLE:Drumstick;
#SUBTITLE:;
#ARTIST:RayRay & Juyen Sebulba;
#TITLETRANSLIT:;
#SUBTITLETRANSLIT:;
#ARTISTTRANSLIT:;
#GENRE:Hard Dance;
#ORIGIN:;
#CREDIT:;
#BANNER:Drumstick-bn.png;
#BACKGROUND:Drumstick-bg.png;
#PREVIEWVID:;
#JACKET:Drumstick-jacket.png;
#CDIMAGE:;
#DISCIMAGE:;
#LYRICSPATH:;
#CDTITLE:cdtitle.png;
#MUSIC:Drumstick.ogg;
#OFFSET:-0.008000;
#SAMPLESTART:44.807999;
#SAMPLELENGTH:12.792000;
#SELECTABLE:YES;
#BPMS:0.000=150.000;
#STOPS:;
#DELAYS:;
#WARPS:;
#TIMESIGNATURES:0.000=4=4;
#TICKCOUNTS:0.000=4;
#COMBOS:0.000=1;
#SPEEDS:0.000=1.000=0.000=0;
#SCROLLS:0.000=1.000;
#FAKES:;
#LABELS:0.000=Song Start;
#BGCHANGES:0.000=Drumstick.avi=1.000=0=0=0=StretchNoLoop====,
99999=-nosongbg-=1.000=0=0=0 // don't automatically add -songbackground-
;
#KEYSOUNDS:;
#ATTACKS:
;

//---------------dance-single - ----------------
#NOTEDATA:;
#CHARTNAME:X-Scale 15;
#STEPSTYPE:dance-single;
#DESCRIPTION:;
#CHARTSTYLE:;
#DIFFICULTY:Hard;
#METER:10;
#RADARVALUES:0.717827,0.841661,0.222994,0.148662,0.371656,676.000000,646.000000,30.000000,20.000000,0.000000,0.000000,33.000000,0.000000,0.000000,0.717827,0.841661,0.222994,0.148662,0.371656,676.000000,646.000000,30.000000,20.000000,0.000000,0.000000,33.000000,0.000000,0.000000;
#CREDIT:;
#NOTES:
// measure 0
0000
0000
0000
0000
,  // measure 1
0000
0000
0000
0000
,  // measure 2
0000
0000
0000
0000
,  // measure 3
0000
0000
0000
0000
,  // measure 4
1000
0000
0001
0100
0010
0000
1000
0100
,  // measure 5
0010
0000
0001
0100
0010
0000
1000
0100
,  // measure 6
0010
0000
0001
0100
0010
0000
1000
0100
,  // measure 7
0010
0000
0000
0000
0001
0000
0100
0000
0010
0000
0000
0000
1000
0001
1000
0001
,  // measure 8
1000
0100
0000
0010
0001
0000
1000
0100
,  // measure 9
1000
0001
0000
0010
0100
0000
1000
0001
,  // measure 10
0010
0100
0000
1000
0001
0000
0100
0001
,  // measure 11
1000
0100
0000
0010
0001
1000
0001
0001
,  // measure 12
0010
0100
0000
0010
0001
0000
0100
0010
,  // measure 13
1000
0001
0000
0010
0100
0000
1000
0001
,  // measure 14
0010
0100
0000
1000
0100
0000
0010
0100
,  // measure 15
1000
0000
0001
0000
1000
0001
0000
0000
1000
0000
0100
0000
0001
0000
0100
0000
,  // measure 16
1000
0010
0100
0010
2000
0000
3002
0000
,  // measure 17
0013
0100
1000
0001
0200
0000
0320
0000
,  // measure 18
1030
0100
0010
0100
2000
0000
3002
0000
,  // measure 19
1003
0100
0001
1000
0010
0001
1000
0001
,  // measure 20
0100
0010
0100
0001
2000
0000
3020
0000
,  // measure 21
0130
0010
0001
0010
2000
0000
3002
0000
,  // measure 22
0013
0100
1000
0001
0020
0000
0032
0000
,  // measure 23
1003
0100
0001
1000
0010
0001
1000
0001
,  // measure 24
1001
0000
0001
0000
1000
0000
0100
0100
,  // measure 25
0100
0000
0010
0000
0010
0000
0000
0001
0000
0000
1000
0000
1000
0000
0000
0001
,  // measure 26
0010
0000
0100
0000
1000
0000
0001
0000
0100
0001
1000
0010
0100
0001
1000
0010
,  // measure 27
0100
0001
0010
0100
1000
0001
1000
0100
,  // measure 28
4400
0000
3300
0000
0404
0000
0303
0000
1000
0100
0010
0001
1000
0001
0100
0000
,  // measure 29
0010
0100
0001
1000
0100
0010
0001
0000
1000
0001
1000
0010
0100
0001
1000
0000
,  // measure 30
4004
0000
3003
0000
0440
0000
0330
0000
0100
0001
1000
0001
0010
0100
1000
0001
,  // measure 31
1000
0000
0010
0000
1000
0000
0001
0000
0010
0100
1000
0000
0001
1000
0100
0000
,  // measure 32
4400
0000
3300
0000
0404
0000
0303
0000
0001
0010
0100
1000
0010
0100
0001
0000
,  // measure 33
1000
0100
0010
0001
0100
0010
1000
0000
0001
1000
0100
1000
0001
0010
0100
0000
,  // measure 34
0440
0000
0330
0000
4004
0000
3003
0000
0001
0010
0100
1000
0001
0010
0100
1000
,  // measure 35
0001
0000
0100
0000
0010
0000
0100
0000
0001
0000
1000
0100
1000
0000
1000
0000
,  // measure 36
4400
0000
3300
0000
0404
0000
0303
0000
1000
0000
0001
1000
0001
0010
0100
0010
,  // measure 37
0001
0000
1000
0010
0100
0001
0010
0100
1000
0000
0001
0010
0100
0010
0001
1000
,  // measure 38
4004
0000
3003
0000
0440
0000
0330
0000
0010
0000
1000
0010
0100
0010
1000
0001
,  // measure 39
0010
0000
0001
0100
0000
0000
0100
1000
0001
0010
0100
0000
0400
0000
0310
0000
,  // measure 40
0404
0000
0303
0000
4400
0000
3300
0000
0001
0000
1000
0100
1000
0001
0010
0100
,  // measure 41
1000
0000
0010
0100
0001
1000
0001
0100
0010
0000
1000
0100
0010
0100
1000
0001
,  // measure 42
4004
0000
3003
0000
0440
0000
0330
0000
0100
0000
0001
0010
0100
1000
0010
0100
,  // measure 43
0001
0100
1000
0001
0010
1000
0001
1000
,  // measure 44
1001
0000
0001
0000
0001
0000
0000
0100
0000
0000
0010
0000
0100
0000
0010
0000
,  // measure 45
0000
0000
1000
0000
1000
0000
0000
0001
0000
0000
0100
0010
0100
0000
0001
0000
,  // measure 46
0010
0000
0100
0000
0100
0000
0000
1000
0000
0000
0001
0000
1000
0000
0100
0000
,  // measure 47
0000
0000
0010
0000
0010
0000
0000
0001
0000
0000
1000
0001
1000
0000
0100
0000
,  // measure 48
1100
0000
0100
0000
0010
0000
0001
0000
1000
0000
0001
0000
0010
0000
0100
0010
,  // measure 49
0100
1000
0001
0010
0100
1000
1100
0000
,  // measure 50
1000
0100
0001
0100
1000
0010
1000
0000
,  // measure 51
0001
0000
0100
0000
0010
0000
0000
0100
0001
0000
1000
0000
0100
0000
1000
0000
,  // measure 52
1100
0000
0100
0000
0010
0000
0001
0000
1000
0000
0001
0000
0100
0000
0001
1000
,  // measure 53
0001
0010
0100
0001
0100
1000
1100
0000
,  // measure 54
1000
0100
0010
0001
1000
0010
0100
0001
,  // measure 55
1000
0000
0010
0000
0010
0000
0000
0100
0010
0100
0010
0100
0010
0000
0010
0000
,  // measure 56
0110
0100
0001
0100
1000
0100
0001
0001
,  // measure 57
0001
0010
1000
0010
0001
0010
0100
0100
,  // measure 58
0100
0000
1000
0000
0001
0000
1000
0000
0100
1000
0001
0100
0010
1000
0001
0010
,  // measure 59
0100
0010
0001
1000
0010
0010
0010
0010
,  // measure 60
1010
0000
1000
0000
1000
0000
0001
1000
0000
0000
0100
0000
0010
0000
0100
0000
,  // measure 61
1000
0000
0001
0000
0001
0000
0100
0001
0000
0000
0010
0100
1000
0000
0001
0000
,  // measure 62
1000
0000
0010
0000
0010
0000
0100
0010
0000
0000
1000
0000
0100
0000
0001
0000
,  // measure 63
0100
0000
1000
0000
1000
0000
0010
1000
0000
0000
0001
0100
0010
0000
1000
0000
,  // measure 64
0001
0000
0100
0000
0100
0000
0010
0100
0000
0000
0001
0000
0100
0000
1000
0000
,  // measure 65
0100
0000
0010
0000
0010
0000
0100
0010
0000
0000
1000
0100
0010
0000
0001
0000
,  // measure 66
0100
0000
0010
0000
0010
0000
1000
0010
0000
0000
0100
0000
0001
0000
1000
0000
,  // measure 67
0001
0100
1000
0001
0010
1000
0001
0001
,  // measure 68
1001
0000
1000
0000
1000
0000
0001
0100
0010
0000
0100
0000
0001
0000
0010
0000
,  // measure 69
0100
0000
1000
0000
1000
0000
0010
0100
0001
0000
1000
0100
0010
0000
0100
0000
,  // measure 70
1000
0000
0001
0000
0001
0000
0100
0001
1000
0000
0100
0000
0010
0000
0100
0000
,  // measure 71
1000
0000
0001
0000
0001
0000
0010
0001
1000
0000
1000
0000
1000
0000
0100
0000
,  // measure 72
0010
0000
0001
0000
0001
0000
1000
0001
0010
0000
0100
0000
1000
0000
0010
0000
,  // measure 73
0100
0000
0010
0000
0010
0000
1000
0001
0010
0000
0100
0010
0001
0000
1000
0000
,  // measure 74
0010
0000
0100
0000
0100
0000
0001
0100
0010
0000
1000
0000
0001
0000
0010
0000
,  // measure 75
0011
0010
0101
1000
1100
1000
1001
0001
,  // measure 76
0101
0100
0010
1000
0200
0000
0301
0100
,  // measure 77
1000
0000
0010
0100
0020
0000
0031
0010
,  // measure 78
0100
0000
0001
1000
0200
0000
0301
0100
,  // measure 79
1000
0000
0010
0100
0002
0000
1003
0100
,  // measure 80
0010
0000
0100
1000
0020
0000
0031
0010
,  // measure 81
0100
0000
0001
1000
0200
0000
0301
0100
,  // measure 82
1000
0000
0010
0100
0002
0000
1003
0100
,  // measure 83
0010
0000
0100
1000
0020
0000
0130
0010
;

//---------------dance-single - ----------------
#NOTEDATA:;
#CHARTNAME:X-Scale 11;
#STEPSTYPE:dance-single;
#DESCRIPTION:;
#CHARTSTYLE:;
#DIFFICULTY:Medium;
#METER:8;
#RADARVALUES:0.526690,0.716971,0.222994,0.460853,0.085481,496.000000,466.000000,30.000000,62.000000,0.000000,0.000000,0.000000,0.000000,0.000000,0.526690,0.716971,0.222994,0.460853,0.085481,496.000000,466.000000,30.000000,62.000000,0.000000,0.000000,0.000000,0.000000,0.000000;
#CREDIT:;
#NOTES:
// measure 0
0000
0000
0000
0000
,  // measure 1
0000
0000
0000
0000
,  // measure 2
0000
0000
0000
0000
,  // measure 3
0000
0000
0000
0000
,  // measure 4
1000
0001
1000
0001
,  // measure 5
0010
0100
0010
0100
,  // measure 6
1000
0010
1000
0010
,  // measure 7
0100
0001
0100
0002
,  // measure 8
0013
0100
0000
0010
0100
0000
1000
0000
,  // measure 9
0001
0100
0000
0001
0100
0000
0010
0000
,  // measure 10
1000
0100
0000
1000
0100
0000
0010
0000
,  // measure 11
0001
0100
0000
0000
0001
0100
1000
0100
,  // measure 12
0001
1000
0000
0001
1000
0000
0100
0000
,  // measure 13
0010
0001
0000
0010
0001
0000
1000
0000
,  // measure 14
0010
0100
0000
0010
0100
0000
0001
0000
,  // measure 15
1000
0100
0000
0000
1000
0100
0010
0001
,  // measure 16
1002
0000
0013
0001
2000
0000
3200
0000
,  // measure 17
0320
1000
0032
2003
,  // measure 18
3010
0000
1000
0100
0020
0000
0032
0000
,  // measure 19
2003
0001
0100
0010
,  // measure 20
3100
1000
0001
1000
0200
0000
0320
0000
,  // measure 21
0230
0001
2300
3002
,  // measure 22
0013
0100
1000
0001
0200
0000
0320
0000
,  // measure 23
1030
0100
0010
0001
0100
0010
1000
0001
,  // measure 24
1001
0000
1000
0000
0001
0000
1000
0100
,  // measure 25
1000
0000
0010
0000
0100
0000
0010
0100
,  // measure 26
0010
1000
0010
1000
0001
0010
0001
0010
,  // measure 27
0100
0000
0000
0000
,  // measure 28
1100
0000
1010
0000
1100
0000
0010
0001
,  // measure 29
1000
0000
0010
1000
0001
0000
0010
0001
,  // measure 30
1001
0000
0110
0000
1001
0000
1000
0010
,  // measure 31
0100
0010
0001
0010
0100
0000
0002
0000
,  // measure 32
1003
0000
1001
0000
0001
0010
0100
0000
,  // measure 33
1000
0100
0010
0000
0100
1000
0001
0000
,  // measure 34
1001
0000
0110
0000
1001
1000
0001
0000
,  // measure 35
1000
0100
0010
0001
0100
0010
1000
1000
,  // measure 36
1010
0002
0003
0002
0003
0002
0003
0002
,  // measure 37
1003
0200
0300
0200
0300
0200
0310
0001
,  // measure 38
1000
0020
0030
0020
0030
0020
0030
0020
,  // measure 39
0130
0002
0003
0002
0003
0002
2003
0100
,  // measure 40
3100
0020
0030
0020
0030
0020
0030
0020
,  // measure 41
0031
2000
3000
2000
3000
2000
3010
1000
,  // measure 42
0001
0020
0030
0020
0030
0020
0030
0020
,  // measure 43
0130
1000
0001
1000
0010
0100
0001
1000
,  // measure 44
1002
0000
0000
0000
0000
0000
0000
0100
0000
0000
0000
0000
1000
0000
0000
0000
,  // measure 45
0000
0000
0010
0000
0000
0000
0000
0100
0000
0000
0000
0000
0010
0000
0000
0000
,  // measure 46
2003
0000
0100
0000
0000
0000
0000
0001
0000
0000
0000
0000
0010
0000
0000
0000
,  // measure 47
0000
0100
0100
0000
0000
0001
0001
0000
,  // measure 48
3001
1000
0100
1000
0020
0000
0230
0000
,  // measure 49
0301
0000
1000
0000
0001
1000
0001
0000
,  // measure 50
0010
0100
1000
0001
2000
0000
3020
0000
,  // measure 51
0130
0000
0001
0000
1000
0001
1000
0000
,  // measure 52
0010
0100
1000
0100
0020
0000
2030
0000
,  // measure 53
3001
0000
0010
0000
0001
1000
0001
0000
,  // measure 54
1000
0100
0001
0100
0010
0100
0001
0100
,  // measure 55
1000
0000
0000
0000
0010
0000
0100
0000
0001
0100
0001
0000
1000
0000
1000
0000
,  // measure 56
1001
0000
0110
0000
1001
0000
0110
0010
,  // measure 57
0101
0000
1010
0000
0101
0000
1010
1000
,  // measure 58
1001
0000
0001
0000
1000
0000
0001
0000
1000
0001
1000
0001
1000
0001
1000
0001
,  // measure 59
1000
0000
0000
0000
0100
1000
0100
1000
,  // measure 60
1100
0000
0001
0000
1000
0000
0000
0010
0000
0000
1000
0000
0010
0000
1000
0000
,  // measure 61
0001
0000
0010
0000
0100
0000
0000
1000
0000
0000
0001
1000
0001
0000
0100
0000
,  // measure 62
0010
0000
0100
0000
0001
0000
0000
1000
0000
0000
0010
0000
0100
0000
0010
0000
,  // measure 63
1000
0000
0100
0000
0010
0000
0000
0001
0000
0000
1000
0001
2000
0000
0000
0000
,  // measure 64
3010
1000
0001
1000
0010
1000
0001
1000
,  // measure 65
0100
0001
0100
1000
0100
0010
0100
1000
,  // measure 66
0001
0100
0010
0100
0001
0100
0010
0100
,  // measure 67
0001
0010
1000
0001
0100
1000
0001
1000
,  // measure 68
1001
0000
0001
0000
1000
0000
0100
1000
0000
0000
0001
0000
0100
0000
1000
0000
,  // measure 69
0100
0000
0010
0000
0100
0000
0001
0010
0000
0000
0001
0010
0001
0000
1000
0000
,  // measure 70
0010
0000
0100
0000
0010
0000
1000
0100
0000
0000
1000
0000
0001
0000
0010
0000
,  // measure 71
1000
0000
0010
0000
0001
0000
1000
0010
1000
0000
0010
0000
2000
0000
0000
0000
,  // measure 72
3001
0000
1000
0000
0010
0000
1000
0010
0000
0000
0100
0000
0010
0000
0001
0000
,  // measure 73
0010
0000
0100
0000
0001
0000
1000
0001
0000
0000
0010
0100
0010
0000
0001
0000
,  // measure 74
1000
0000
0100
0000
1000
0000
0010
0100
0000
0000
0001
0000
0010
0000
0100
0000
,  // measure 75
1100
0000
1001
0000
0101
0000
0110
0010
,  // measure 76
1010
0000
1000
0100
0020
0000
0031
0000
,  // measure 77
0100
0000
0001
0010
0200
0000
1300
0000
,  // measure 78
0001
0000
1000
0010
0200
0000
0301
0000
,  // measure 79
0010
0000
0100
1000
0020
0000
1030
0000
,  // measure 80
0100
0000
1000
0001
0020
0000
0130
0000
,  // measure 81
1000
0000
0001
0010
0200
0000
1300
0000
,  // measure 82
0001
0000
1000
0010
0200
0000
0301
0000
,  // measure 83
1000
0000
0100
0010
0002
0000
0103
0001
;

//---------------dance-single - ----------------
#NOTEDATA:;
#CHARTNAME:X-Scale 7;
#STEPSTYPE:dance-single;
#DESCRIPTION:;
#CHARTSTYLE:;
#DIFFICULTY:Easy;
#METER:5;
#RADARVALUES:0.380151,0.561108,0.222994,0.185828,0.000000,358.000000,328.000000,30.000000,25.000000,0.000000,0.000000,0.000000,0.000000,0.000000,0.380151,0.561108,0.222994,0.185828,0.000000,358.000000,328.000000,30.000000,25.000000,0.000000,0.000000,0.000000,0.000000,0.000000;
#CREDIT:;
#NOTES:
// measure 0
0000
0000
0000
0000
,  // measure 1
0000
0000
0000
0000
,  // measure 2
0000
0000
0000
0000
,  // measure 3
0000
0000
0000
0000
,  // measure 4
1000
0000
0001
0000
,  // measure 5
1000
0000
0001
0000
,  // measure 6
0010
0000
0100
0000
,  // measure 7
0010
0000
0100
0000
,  // measure 8
1001
0000
0000
2000
0000
0000
3001
0000
,  // measure 9
0001
0000
0000
0020
0000
0000
0130
0000
,  // measure 10
0100
0000
0000
2000
0000
0000
3010
0000
,  // measure 11
0010
0000
0000
0200
0000
0000
0301
0100
,  // measure 12
0001
0000
0000
2000
0000
0000
3010
0000
,  // measure 13
0010
0000
0000
0200
0000
0000
0301
0000
,  // measure 14
0001
0000
0000
0020
0000
0000
0130
0000
,  // measure 15
0100
0000
0000
2000
0000
0000
3001
0000
,  // measure 16
1001
0000
1000
0100
,  // measure 17
2000
0000
3001
1000
,  // measure 18
0001
0000
1000
0001
,  // measure 19
1000
0000
0001
0100
,  // measure 20
0001
0000
1000
0100
,  // measure 21
2000
0000
3001
1000
,  // measure 22
0001
0000
1000
0001
,  // measure 23
1000
0000
0001
0100
,  // measure 24
0101
0001
0001
0001
,  // measure 25
1000
1000
1000
1000
,  // measure 26
0001
0010
0200
0010
,  // measure 27
1300
0000
0001
0000
,  // measure 28
1001
0110
1001
0110
,  // measure 29
1001
0110
1001
0110
,  // measure 30
1100
0011
1100
0011
,  // measure 31
1010
0101
1010
0102
,  // measure 32
1003
0001
1000
0000
0001
1000
0001
0000
,  // measure 33
0100
0010
0100
0000
0010
0100
0010
0000
,  // measure 34
1000
0100
1000
0000
0001
0100
0001
0000
,  // measure 35
1000
0100
0010
0001
0100
0010
1000
0000
,  // measure 36
1010
0000
0001
0000
1000
0100
0010
0000
,  // measure 37
0100
0010
0001
0000
1000
0001
0100
0000
,  // measure 38
0001
0000
1000
0000
0001
0100
0010
0000
,  // measure 39
0100
0010
1000
0000
0100
0010
0002
0000
,  // measure 40
1003
0000
0001
0000
1000
0100
0010
0000
,  // measure 41
0100
0010
0001
0000
1000
0001
0100
0000
,  // measure 42
0001
0000
1000
0000
0001
0100
0010
0000
,  // measure 43
0110
1001
0110
1001
,  // measure 44
0210
0000
0000
0000
,  // measure 45
1000
0000
0000
0000
,  // measure 46
0010
0000
0000
0001
,  // measure 47
0000
0000
0010
0000
0000
0000
0001
0300
,  // measure 48
0101
0001
1000
0100
,  // measure 49
0020
0000
0001
0000
0030
0010
0001
0000
,  // measure 50
1000
0010
0100
0001
,  // measure 51
1000
0000
0010
0000
0000
0100
0010
0000
,  // measure 52
1000
0001
0010
0100
,  // measure 53
2000
0000
0100
0000
3000
1000
0100
0000
,  // measure 54
1000
0000
0001
0000
0100
0000
0010
0100
,  // measure 55
0001
0000
1000
0001
0010
0100
0010
0100
,  // measure 56
0110
0000
0100
0000
0100
0000
0100
1000
,  // measure 57
0001
0000
0001
0000
0001
0000
0001
0010
,  // measure 58
0100
0010
0001
1000
0001
0100
0010
0100
,  // measure 59
0001
0000
1000
0000
,  // measure 60
1001
0000
1000
0000
0001
0000
1000
0001
,  // measure 61
1000
0000
0100
0000
0010
0000
0100
0010
,  // measure 62
0100
0000
1000
0000
0001
0000
1000
0001
,  // measure 63
1000
0000
0010
0000
0100
0000
0010
0100
,  // measure 64
0010
0000
1000
0000
0001
0000
1000
0001
,  // measure 65
1000
0000
0100
0000
0010
0000
0100
0010
,  // measure 66
0100
0000
1000
0000
0001
0000
1000
0001
,  // measure 67
1000
0000
0010
0000
0100
0000
0010
0100
,  // measure 68
0010
0000
1000
0000
0001
0000
0010
0100
,  // measure 69
1000
0000
0001
0000
1000
0000
0010
0100
,  // measure 70
0001
0000
1000
0000
0001
0000
0010
0100
,  // measure 71
1000
0001
0100
0002
,  // measure 72
1003
0000
0100
0000
0010
0000
0100
0010
,  // measure 73
0001
0000
0100
0000
0010
0000
0100
0010
,  // measure 74
1000
0000
0001
0000
0100
0000
0001
0010
,  // measure 75
0011
0001
1000
0001
,  // measure 76
1100
0000
1000
0200
0000
0000
0310
0000
,  // measure 77
0100
0000
1000
0002
0000
0000
0013
0000
,  // measure 78
0100
0000
0010
0002
0000
0000
1003
0000
,  // measure 79
0010
0000
0100
0020
0000
0000
1030
0010
,  // measure 80
1000
0000
0100
0020
0000
0000
0031
0000
,  // measure 81
1000
0000
0010
2000
0000
0000
3001
0000
,  // measure 82
1000
0000
0100
0020
0000
0000
0031
0000
,  // measure 83
0100
0000
0001
2000
0000
0000
3100
1000
;

//---------------dance-single - ----------------
#NOTEDATA:;
#CHARTNAME:X-Scale 3;
#STEPSTYPE:dance-single;
#DESCRIPTION:;
#CHARTSTYLE:;
#DIFFICULTY:Beginner;
#METER:2;
#RADARVALUES:0.169900,0.248266,0.029732,0.000000,0.000000,160.000000,156.000000,4.000000,0.000000,0.000000,0.000000,0.000000,0.000000,0.000000,0.169900,0.248266,0.029732,0.000000,0.000000,160.000000,156.000000,4.000000,0.000000,0.000000,0.000000,0.000000,0.000000,0.000000;
#CREDIT:;
#NOTES:
// measure 0
0000
0000
0000
0000
,  // measure 1
0000
0000
0000
0000
,  // measure 2
0000
0000
0000
0000
,  // measure 3
0000
0000
0000
0000
,  // measure 4
1000
0000
0000
0000
,  // measure 5
0100
0000
0000
0000
,  // measure 6
0010
0000
0000
0000
,  // measure 7
0001
0000
0000
0000
,  // measure 8
1000
0000
0000
0000
,  // measure 9
0010
0000
0000
0000
,  // measure 10
0100
0000
0000
0000
,  // measure 11
0001
0000
1000
0000
,  // measure 12
0001
0000
0000
0000
,  // measure 13
1000
0000
0000
0000
,  // measure 14
0010
0000
0000
0000
,  // measure 15
0100
0000
0001
0000
,  // measure 16
0100
0000
0010
0000
,  // measure 17
0100
0000
0010
0000
,  // measure 18
1000
0000
0001
0000
,  // measure 19
1000
0000
0001
0000
,  // measure 20
0010
0000
0100
0000
,  // measure 21
0010
0000
0100
0000
,  // measure 22
1000
0000
0001
0000
,  // measure 23
1000
0000
0001
0000
,  // measure 24
0100
0000
0000
0000
,  // measure 25
0100
0000
0000
0000
,  // measure 26
0100
0000
0010
0000
,  // measure 27
1000
0000
0000
0000
,  // measure 28
1001
0000
1000
0000
,  // measure 29
1000
0000
0001
0000
,  // measure 30
0001
0000
0100
0000
,  // measure 31
0100
0000
0010
0000
,  // measure 32
0010
0000
0100
0000
,  // measure 33
0001
0000
1000
0000
,  // measure 34
0010
0000
0100
0000
,  // measure 35
0001
0000
1000
0000
,  // measure 36
1001
0000
1000
0000
,  // measure 37
0100
0000
0010
0000
,  // measure 38
0100
0000
0010
0000
,  // measure 39
0001
0000
0100
0001
,  // measure 40
0100
0000
0010
0000
,  // measure 41
0100
0000
0001
0000
,  // measure 42
0010
0000
0100
0000
,  // measure 43
1000
0000
0000
0000
,  // measure 44
0001
0000
0000
0000
,  // measure 45
0000
0000
0000
0000
,  // measure 46
1000
0000
0000
0000
,  // measure 47
0000
0000
0000
0000
,  // measure 48
1001
0000
0001
0000
,  // measure 49
1000
0000
0100
0000
,  // measure 50
1000
0000
0001
0000
,  // measure 51
1000
0000
0100
0000
,  // measure 52
1000
0000
0100
0000
,  // measure 53
0010
0000
0100
0000
,  // measure 54
1000
0000
0100
0000
,  // measure 55
0010
0000
0100
0000
,  // measure 56
1000
0000
1000
0000
,  // measure 57
0001
0000
0001
0000
,  // measure 58
0100
0010
0100
0010
,  // measure 59
0100
0000
0000
0000
,  // measure 60
1001
0000
1000
0001
,  // measure 61
1000
0000
0010
0100
,  // measure 62
0010
0000
1000
0001
,  // measure 63
1000
0000
0010
0100
,  // measure 64
0010
0000
1000
0001
,  // measure 65
1000
0000
0100
0010
,  // measure 66
0100
0000
1000
0001
,  // measure 67
1000
0000
0010
0000
,  // measure 68
1000
0000
0100
1000
,  // measure 69
0100
0000
0010
0001
,  // measure 70
0010
0000
0001
0100
,  // measure 71
0001
0000
1000
0010
,  // measure 72
1000
0000
0100
0010
,  // measure 73
0100
0000
1000
0001
,  // measure 74
1000
0000
0001
0100
,  // measure 75
0001
0000
1000
0000
,  // measure 76
0001
0000
0010
0000
,  // measure 77
0001
0000
0010
0000
,  // measure 78
0100
0000
0010
0000
,  // measure 79
0100
0000
0010
0000
,  // measure 80
0001
0000
1000
0000
,  // measure 81
0001
0000
1000
0000
,  // measure 82
0010
0000
1000
0000
,  // measure 83
0010
0000
1000
0000
;
