#TITLE:Dream in Color;
#SUBTITLE:;
#ARTIST:HALIENE;
#TITLETRANSLIT:;
#SUBTITLETRANSLIT:;
#ARTISTTRANSLIT:;
#GENRE:Melodic Dubstep;
#CREDIT:;
#BANNER:Dream in Color-bn.png;
#BACKGROUND:Dream in Color-bg.png;
#LYRICSPATH:;
#CDTITLE:cdtitle.png;
#MUSIC:Dream in Color.ogg;
#OFFSET:-0.004000;
#SAMPLESTART:76.367996;
#SAMPLELENGTH:14.500000;
#SELECTABLE:YES;
#BPMS:0.000000=66.000000
,68.000000=132.000000
,96.000000=66.000000
,98.000000=132.000000
,130.000000=66.000000
,134.000000=132.000000
,158.000000=66.000000
;
#STOPS:
;
#BGCHANGES:4.000=Dream in Color.avi=1.000=1=0=0=StretchNoLoop==CrossFade==,
99999=-nosongbg-=1.000=0=0=0 // don't automatically add -songbackground-
;
#KEYSOUNDS:;
#ATTACKS:;

//---------------dance-single - ----------------
#NOTES:
     dance-single:
     X-Scale 11:
     Hard:
     8:
     0.461349,0.521014,0.062105,0.310523,0.412552,364.000000,357.000000,7.000000,35.000000,0.000000,0.000000,0.461349,0.521014,0.062105,0.310523,0.412552,364.000000,357.000000,7.000000,35.000000,0.000000,0.000000:
// measure 0
0000
0000
0000
0000
,  // measure 1
1000
0000
0010
0000
0100
0000
0010
0000
1000
0000
0000
0000
0000
0000
0000
0000
0001
0000
0200
0000
0000
0300
0002
0000
0000
0003
2000
0000
0000
3000
0010
0000
,  // measure 2
0100
0000
1000
0000
0100
0000
0010
0000
1000
0000
0000
0000
0001
0000
0000
0000
2000
0000
0000
3000
0100
0000
0002
0000
0000
0000
0203
0000
0000
0000
0310
0000
,  // measure 3
0001
0100
0001
0010
0100
0000
0010
0001
1000
0000
0001
0010
0200
0320
0032
2003
,  // measure 4
3010
1000
0001
0010
0100
0000
0001
0000
0100
0000
1000
0000
0100
0000
0010
0001
,  // measure 5
0011
1000
0001
0010
0100
0000
1000
0000
0100
0010
0100
0000
1000
0010
0100
1000
,  // measure 6
0100
0001
0010
0100
1000
0000
0100
0010
0100
1000
0001
0000
1000
0010
0100
0001
,  // measure 7
0010
1000
0010
0001
0010
0000
0100
0000
0010
0001
0100
0000
0001
1000
0100
1000
,  // measure 8
0001
0000
0010
0000
1000
0000
0010
0000
0001
0000
0000
0000
0100
0000
0000
0000
0001
0000
1000
0000
0010
0000
2000
0000
0000
3000
0200
0000
0000
0300
0020
0000
,  // measure 9
0100
0000
0000
0000
0031
0010
0001
2000
0000
0000
3000
0020
0000
0000
0230
0000
,  // measure 10
0001
0000
0000
0000
0310
0000
0000
0100
0002
0000
1003
0002
0000
0000
0013
0002
,  // measure 11
0010
0000
0003
2000
0000
0000
3200
2000
0000
0300
3200
0000
2000
0300
3100
0010
,  // measure 12
0002
0000
0000
0000
1003
0000
0001
0000
0010
0000
0001
0100
0000
0000
0100
0010
,  // measure 13
0110
0000
1000
0100
1000
0000
0001
0100
0001
0010
0100
1000
0010
0000
0100
0001
,  // measure 14
0010
0000
0100
1000
0001
0100
1000
0100
0001
0000
1000
0010
0001
0000
1000
0100
,  // measure 15
0001
0000
1000
0010
0100
0000
0001
0100
0010
0100
1000
0100
0010
0100
0001
1000
,  // measure 16
0100
0000
0100
0010
0001
0000
0010
0100
2000
0000
3010
0200
0000
0300
0001
0010
,  // measure 17
0011
0000
0001
0100
1000
0100
0010
0100
,  // measure 18
0001
0010
1000
0010
0100
0010
0001
0010
,  // measure 19
0100
0000
1000
0010
0100
1000
0100
0001
,  // measure 20
0010
0100
1000
0001
1000
0000
0010
0000
,  // measure 21
1000
0100
0010
0001
0100
0010
1000
0100
,  // measure 22
0010
0001
0100
0010
1000
0100
0010
0001
,  // measure 23
1000
0000
0000
0010
0100
0000
0001
0000
1000
0000
0000
0100
0010
0000
0001
0000
,  // measure 24
0012
0000
0000
0000
1003
0001
0010
0001
,  // measure 25
0100
0000
0010
0100
1000
0100
0010
0100
,  // measure 26
0002
0000
0000
1000
1003
0001
0010
0100
,  // measure 27
0010
0000
0000
0001
1000
0000
0100
0000
1000
0000
0100
0010
0100
0000
1000
0000
,  // measure 28
0010
0000
0000
0010
0001
0000
0100
0000
0001
0000
0010
0000
1000
0000
0010
0000
,  // measure 29
0001
0000
1000
0100
0001
0100
0010
0100
,  // measure 30
1000
0001
0010
0100
1000
0001
1000
0010
,  // measure 31
1000
0000
0020
0000
0130
0000
0001
1000
,  // measure 32
0001
1000
0001
1000
0001
0010
0100
0010
0100
0100
0100
0100
0100
0000
1000
1000
,  // measure 33
1000
1000
1000
0000
1100
0000
0000
0001
0101
0000
1000
0000
0100
0000
0010
0000
,  // measure 34
0001
0000
0000
1000
0010
0000
1000
0000
0100
0000
0000
0100
0001
0000
1000
0000
,  // measure 35
0100
0000
0000
0100
0001
0000
1000
0000
0100
0000
0001
0000
1000
0000
0010
0000
,  // measure 36
0001
0000
1000
0100
0001
0100
0010
0100
,  // measure 37
1000
0010
0100
0001
1000
0010
0100
0010
,  // measure 38
1000
0000
0001
0010
0011
0000
1000
0002
,  // measure 39
0000
0000
0003
0010
0200
0000
0010
0000
1300
0000
0000
0000
1000
0020
0000
0000
,  // measure 40
0031
0020
0000
0000
0230
0000
0000
0000
0300
0000
0000
0000
0000
0000
0000
0000
;

//---------------dance-single - ----------------
#NOTES:
     dance-single:
     X-Scale 10:
     Medium:
     7:
     0.357419,0.431184,0.035488,0.363756,0.243983,282.000000,278.000000,4.000000,41.000000,0.000000,0.000000,0.357419,0.431184,0.035488,0.363756,0.243983,282.000000,278.000000,4.000000,41.000000,0.000000,0.000000:
0000
0000
0000
0000
,
0001
0000
0010
0000
0001
0000
0000
0000
1000
0100
0000
1000
0000
0010
0000
1000
,
0100
0000
0010
0000
0001
0000
0100
0000
0001
0000
0010
0100
0000
0010
0000
0100
,
1000
0000
0001
0010
0001
0000
1000
0001
1000
0000
0001
0000
1000
0010
0001
0010
,
1000
0000
0100
0010
0100
0000
0000
0000
0010
0000
0000
0000
0001
0000
1000
0100
,
0001
0000
0001
0100
1000
0000
0010
0000
1000
0010
0001
0010
0000
0100
0000
0010
,
1000
0000
0010
1000
0001
0000
0100
0000
0010
0100
1000
0000
0100
0010
0100
0002
,
0010
0000
1000
0000
0100
0000
1000
0000
0010
0000
1000
0003
0100
0010
0001
1000
,
0001
0000
0000
0000
1000
0000
0010
0000
0100
0000
0000
0000
0001
0000
0000
0000
1000
0000
0100
0000
1000
0000
0002
0000
0000
0000
0203
0000
0000
0300
0020
0000
,
0100
0000
0000
0000
0030
1000
0100
0020
0000
0000
0030
0200
0000
0000
0320
0000
,
0001
0000
0000
0000
0030
0000
0000
0100
2000
0000
3001
0020
0000
0030
0100
2000
,
0000
0000
3000
0200
0000
0000
2300
0000
0000
0000
3000
0000
0002
0000
1003
0001
,
0020
0000
1030
0010
0002
0000
0000
0100
,
0103
0000
0001
0100
1000
0000
0001
0010
2000
0000
0000
0000
3200
0000
2300
0000
,
0010
0000
0000
0000
3100
0000
1000
0000
0001
0000
0100
0010
1000
0000
0001
0000
,
0100
0000
0001
0010
0100
0000
1000
0010
2000
0000
0000
0000
3002
0000
2003
0000
,
0001
0000
0000
0001
3000
0000
1000
0000
0100
0000
1000
0001
0000
0000
0001
0010
,
0011
0000
0001
0010
0100
0000
0010
0100
,
2000
0000
0001
3000
2000
0000
3200
0000
,
0310
0000
0001
0010
1000
0000
1000
0010
,
0002
0000
1003
0020
0000
0030
1000
0100
,
0020
0000
1000
0000
0031
0000
0010
0100
,
1000
0001
1000
0000
0010
0100
0001
0100
,
0010
0000
0000
1000
0000
0000
0001
0000
0010
0000
0000
0100
0000
0000
1000
0000
,
1200
0000
0000
0000
1300
0100
1000
0100
,
1000
0000
0010
1000
0001
1000
0010
0100
,
0200
0000
0000
0000
0301
0100
0010
0100
,
0001
0000
1000
0100
0010
0100
1000
0010
,
0100
0000
0000
0010
0100
0000
0001
0000
1000
0000
0100
0000
1000
0000
0100
0000
,
1000
0000
0010
0100
1000
0100
0010
0100
,
0002
0000
0000
0000
1003
0001
1000
0001
,
1000
0000
0020
0000
0230
0000
0301
0020
,
0000
0000
0000
0000
0230
0000
0000
0000
1300
0100
0010
0100
1000
0000
1000
0100
,
0010
0100
1000
0000
1100
0000
0000
0000
1001
0000
1000
0000
0001
0000
1000
0000
,
0001
0000
0000
0000
0010
0000
0100
0000
1000
0000
0000
0010
0100
0000
1000
0000
,
0100
0000
0000
0001
0100
0000
0001
0000
1000
0000
0100
0000
1000
0000
0100
0000
,
1000
0000
0001
0100
1000
0100
0010
0100
,
0002
0000
0000
0000
0103
0001
0100
0001
,
0100
0000
0020
0000
2030
0000
3100
0020
,
0000
0000
0030
0000
0002
0000
0000
0000
0003
0000
0000
0000
1000
0200
0000
0000
,
0020
0000
0330
0000
;

//---------------dance-single - ----------------
#NOTES:
     dance-single:
     X-Scale 6:
     Easy:
     4:
     0.212930,0.269490,0.070977,0.168570,0.017744,168.000000,160.000000,8.000000,19.000000,0.000000,0.000000,0.212930,0.269490,0.070977,0.168570,0.017744,168.000000,160.000000,8.000000,19.000000,0.000000,0.000000:
0000
0000
0000
0000
,
1000
0100
1000
0000
0001
0000
0100
0000
,
0001
1000
0001
0000
0010
0000
0100
0000
,
1000
0100
1000
0000
0001
0000
0100
0000
,
0010
1000
0010
0000
0100
0000
0001
0000
,
1000
0100
0010
0001
0100
0010
1000
0000
,
0001
0010
0100
1000
0010
0100
0001
0000
,
1000
0100
0010
0001
0100
0010
1000
0000
,
0001
0010
0100
1000
0010
0100
0001
0000
,
2000
0000
0000
0000
0000
0000
0000
0020
3000
0000
0030
2000
0000
0000
3002
0000
,
0020
0000
0000
0000
0003
0000
0000
0000
0000
0000
0000
0000
0000
0000
0000
0200
,
0030
0000
0300
2000
0000
0000
3002
0000
0000
0000
0003
0000
0000
0000
0000
0000
,
0200
0000
0302
0000
,
0013
0100
1000
0001
,
0010
0000
0100
0000
1000
0000
0001
1000
,
0001
0010
0100
0010
,
0001
0000
1000
0000
0010
0000
1000
0001
,
1000
0100
0010
0001
,
0200
1000
0320
2030
,
0001
0100
3010
1000
,
0100
0000
0010
0000
0001
0000
0100
0010
,
0200
1000
0001
1000
,
0310
0100
0001
0010
,
0011
0000
1001
0000
,
1010
0000
1100
1000
,
0001
0000
0010
0000
0001
0000
1000
0100
,
1000
0000
0001
0100
,
0010
0000
0100
0000
0001
0000
1000
0100
,
1000
0000
0001
0100
0001
0000
0010
0000
,
0100
0000
0010
0000
0001
0000
1000
0100
,
1000
0000
0001
0100
,
0010
0100
0002
0000
,
2000
0000
0000
0003
3001
0000
0000
1000
,
0000
1001
1100
0100
,
0010
0001
1000
0000
,
1010
0000
0010
0100
,
0001
0000
1000
0000
0100
0000
0010
0100
,
1000
0000
0001
0100
,
0010
1000
1002
0000
,
0000
0000
0023
0000
,
0200
0000
0330
0000
;

//---------------dance-single - ----------------
#NOTES:
     dance-single:
     X-Scale 1:
     Beginner:
     1:
     0.083651,0.087612,0.000000,0.000000,0.000000,66.000000,66.000000,0.000000,0.000000,0.000000,0.000000,0.083651,0.087612,0.000000,0.000000,0.000000,66.000000,66.000000,0.000000,0.000000,0.000000,0.000000:
0000
0000
0000
0000
,
0001
0000
0000
0000
,
0010
0000
0000
0000
,
0100
0000
0000
0000
,
1000
0000
0000
0000
,
0001
0000
0100
0000
,
0010
0000
1000
0000
,
0001
0000
0100
0000
,
0010
0000
1000
0000
,
0001
0000
0000
0000
,
0010
0000
0000
0000
,
0100
0000
0000
0000
,
1000
0000
0001
0000
,
1000
0000
0000
0000
,
0100
0000
0000
0000
,
0010
0000
0000
0000
,
0001
0000
0000
0000
,
1000
0000
0010
0000
,
1000
0000
0010
0000
,
0100
0000
0001
0000
,
0100
0000
0001
0000
,
1000
0000
0100
0000
,
1000
0000
0100
0000
,
0010
0000
0001
0000
,
0010
0000
0001
0000
,
1000
0000
0010
0000
,
1000
0000
0001
0000
,
0010
0000
0001
0000
,
0100
0000
0010
0000
,
1000
0000
0001
0000
,
1000
0000
0100
0000
,
0010
0000
0001
0000
,
1000
0000
0001
0000
,
0000
0001
0001
0000
,
0010
0000
0100
0000
,
1000
0000
0001
0000
,
0100
0000
0010
0000
,
1000
0000
0100
0000
,
0010
0000
0001
0000
,
0000
0000
1000
0000
;
