#TITLE:Drakaina;
#SUBTITLE:;
#ARTIST:NWYR;
#TITLETRANSLIT:;
#SUBTITLETRANSLIT:;
#ARTISTTRANSLIT:;
#GENRE:Big Room Trance;
#CREDIT:;
#BANNER:Drakaina-bn.png;
#BACKGROUND:Drakaina-bg.png;
#LYRICSPATH:;
#CDTITLE:cdtitle.png;
#MUSIC:Drakaina.ogg;
#OFFSET:0.031000;
#SAMPLESTART:60.865002;
#SAMPLELENGTH:14.328000;
#SELECTABLE:YES;
#BPMS:0.000000=67.000000
,27.500000=134.000000
,60.000000=67.000000
,76.000000=134.000000
,88.000000=67.000000
,90.000000=134.000000
,168.000000=67.000000
;
#STOPS:27.500000=0.224000
;
#BGCHANGES:4.000=Drakaina.avi=1.000=1=0=0=StretchNoLoop==CrossFade==,
99999=-nosongbg-=1.000=0=0=0 // don't automatically add -songbackground-
;
#KEYSOUNDS:;
#ATTACKS:;

//---------------dance-single - ----------------
#NOTES:
     dance-single:
     X-Scale 5:
     Easy:
     3:
     0.219362,0.294892,0.079768,0.119652,0.000000,154.000000,146.000000,8.000000,12.000000,0.000000,0.000000,0.219362,0.294892,0.079768,0.119652,0.000000,154.000000,146.000000,8.000000,12.000000,0.000000,0.000000:
// measure 0
0000
0000
0000
0000
,  // measure 1
0001
0000
1000
0000
,  // measure 2
0001
0000
0010
0000
,  // measure 3
0100
0000
1000
0000
,  // measure 4
0010
0000
1000
0000
,  // measure 5
2002
0000
0000
0000
0000
0000
0000
3003
,  // measure 6
0000
0000
0000
0000
,  // measure 7
0110
0000
0100
0000
,  // measure 8
0010
0000
0000
2000
0000
3000
0000
0000
,  // measure 9
0001
0000
0000
1000
0000
0000
0010
0000
,  // measure 10
1000
0000
0200
0310
,  // measure 11
0101
0000
0000
0001
0100
0000
0001
0000
,  // measure 12
1000
0000
0000
0200
0000
0300
0010
0000
,  // measure 13
0100
0000
0000
2000
0000
3000
0001
0000
,  // measure 14
1000
0000
0000
0200
0000
0300
0010
0100
,  // measure 15
0110
0000
0100
0000
,  // measure 16
1000
0000
0001
0000
,  // measure 17
0100
0001
1000
0000
0010
1000
0001
0000
,  // measure 18
0010
0100
1000
0000
0100
0010
0001
0000
,  // measure 19
1001
0010
1000
0001
,  // measure 20
0010
0100
0010
0001
,  // measure 21
2000
0100
0010
0100
,  // measure 22
3010
0000
1001
0001
,  // measure 23
1000
0100
0010
0100
,  // measure 24
1000
0001
0100
0001
,  // measure 25
1000
0010
1000
0001
,  // measure 26
0010
0200
1300
0001
,  // measure 27
1000
0010
1000
0001
,  // measure 28
0010
0100
0010
0001
,  // measure 29
1000
0001
0010
0100
,  // measure 30
0000
1000
1000
0000
1001
0000
0001
0100
,  // measure 31
0001
0000
0010
0000
0100
1000
0001
1000
,  // measure 32
0100
0000
0010
0000
0001
0000
0100
0010
,  // measure 33
0100
0000
0001
0000
1000
0000
0010
1000
,  // measure 34
0001
0000
0020
0000
0130
0000
0010
0001
,  // measure 35
1000
0000
0010
1000
0001
0000
0010
0001
,  // measure 36
1000
0000
0010
1000
0001
0000
0000
0000
,  // measure 37
1000
0000
0010
0020
,  // measure 38
0000
0000
0000
0030
0110
0000
0100
0000
,  // measure 39
0001
1000
0100
1000
,  // measure 40
0001
0010
0001
1000
,  // measure 41
0010
1000
0100
0010
,  // measure 42
0002
0003
0000
0000
;

//---------------dance-single - ----------------
#NOTES:
     dance-single:
     X-Scale 9:
     Medium:
     6:
     0.363229,0.442338,0.219362,0.069797,0.244289,255.000000,233.000000,22.000000,7.000000,0.000000,0.000000,0.363229,0.442338,0.219362,0.069797,0.244289,255.000000,233.000000,22.000000,7.000000,0.000000,0.000000:
// measure 0
0000
0000
0000
0000
,  // measure 1
1000
0000
0000
0100
1000
0000
0001
0000
,  // measure 2
0010
0000
0001
0100
,  // measure 3
0001
0000
0000
0010
0100
0000
1000
0000
,  // measure 4
0001
0000
0010
0001
,  // measure 5
2002
0000
0000
0000
0000
0000
0000
3003
,  // measure 6
0000
0000
0000
0000
,  // measure 7
1001
0000
0000
0001
0000
1000
0100
0000
1000
0000
0000
0000
0001
0000
0000
0000
,  // measure 8
0010
0000
0000
0100
0000
0010
0100
0000
0000
0000
0000
0000
1000
0000
0001
0000
,  // measure 9
1000
0000
0000
0100
0000
1000
0001
0000
0000
0000
0010
0000
0001
0000
1000
0000
,  // measure 10
0001
0000
0000
0010
0000
0100
1000
0000
0010
0000
0000
0000
1000
0000
0000
0000
,  // measure 11
0001
0000
0000
0100
0000
0010
0100
0000
0001
0000
0000
0000
1000
0000
0100
0000
,  // measure 12
0010
0000
0000
0001
0000
0100
0001
0000
0000
0000
0000
0000
1000
0000
1000
0000
,  // measure 13
1000
0000
0000
0100
0000
1000
0001
0000
0000
0000
0010
0000
0100
0000
0010
0000
,  // measure 14
0001
0000
0000
0100
0000
0010
0100
0000
0000
0000
0000
0000
0001
0000
0000
0000
,  // measure 15
1001
0000
0000
1000
0000
0000
0010
0000
0000
1000
0000
0000
0000
0000
0000
0000
0100
0000
0000
0010
0000
0000
0001
0000
0000
1000
0000
0000
0002
0000
0000
0000
,  // measure 16
0023
0000
0000
0000
0000
0000
0030
0000
0000
0000
0100
0000
0010
0000
0100
0000
0010
0000
0000
0001
0000
0000
1000
0000
0000
0000
0000
0000
0001
0000
1000
0000
,  // measure 17
1001
1000
0001
0000
0010
0100
1000
0000
,  // measure 18
0001
0000
1000
0000
0010
0000
0000
0000
0100
0000
0010
1000
0001
0000
0100
0000
,  // measure 19
0001
0000
0000
0010
0000
0000
0001
0000
1000
0000
0000
0010
0000
0000
1000
0000
,  // measure 20
0100
0000
0000
0010
0000
0000
0100
0000
1000
0000
0000
0010
0000
0000
1000
0000
,  // measure 21
0001
0010
0100
1000
0001
0010
0100
1000
,  // measure 22
0001
1000
0001
1000
0000
0100
0100
0000
0110
0000
0000
0000
1001
0000
0000
0000
,  // measure 23
0110
0000
0100
0000
0001
1000
0001
0010
,  // measure 24
0100
1000
1100
1001
,  // measure 25
0101
0000
0000
0000
0100
0000
0010
0000
0100
0000
0001
0000
0010
0000
0001
1000
,  // measure 26
0000
0100
0110
1001
,  // measure 27
0101
0000
0001
0000
1000
0010
0001
0010
,  // measure 28
1000
0100
1100
1001
,  // measure 29
0011
0000
0000
0000
0010
0000
0100
0000
1000
0000
0001
0000
1000
0000
0100
0010
,  // measure 30
0000
0001
0001
0000
0011
0000
1000
0100
,  // measure 31
1000
0000
0001
0000
0100
0001
1000
0001
,  // measure 32
0100
0000
0010
0100
0001
0000
0010
0000
,  // measure 33
0100
0000
0000
0000
0010
0000
0001
0000
1000
0000
0001
0000
0010
0000
0100
1000
,  // measure 34
0000
0000
0000
0001
1000
0000
0001
0000
1001
0000
0000
1000
0000
0000
0100
0000
,  // measure 35
1000
0000
0000
0001
0000
0000
0100
0000
0001
0000
0000
0010
0000
0000
0100
0000
,  // measure 36
0010
0000
0000
0001
0000
0000
1000
0000
1001
0000
0000
0001
0000
0000
0010
0000
,  // measure 37
0110
0000
0000
0100
0000
0000
1000
0000
2010
0000
0000
0000
0020
0000
0000
0000
,  // measure 38
0000
0000
0000
0000
3030
0000
0000
0000
1001
0000
0000
0000
1000
0000
0000
0010
,  // measure 39
0000
0000
1000
0000
0001
0000
1000
0000
0100
0000
0000
0000
0010
0000
0000
0001
,  // measure 40
0000
0000
0010
0000
0100
0000
0010
0000
0100
0000
0000
0000
1000
0000
0000
0001
,  // measure 41
0000
0000
0100
0000
0001
0000
1000
0000
0010
0000
0000
0000
1000
0000
0000
1000
,  // measure 42
0002
0003
0000
0000
;

//---------------dance-single - ----------------
#NOTES:
     dance-single:
     X-Scale 14:
     Hard:
     9:
     0.539858,0.674039,0.289159,0.169507,0.628172,379.000000,350.000000,29.000000,17.000000,0.000000,0.000000,0.539858,0.674039,0.289159,0.169507,0.628172,379.000000,350.000000,29.000000,17.000000,0.000000,0.000000:
// measure 0
0000
0000
0000
0000
,  // measure 1
1000
0100
0010
0000
0100
0010
0001
0000
0000
0000
0000
0000
0100
0000
0000
0000
0001
0100
0010
0000
1000
0010
0100
0000
0000
0000
0000
0000
0000
0000
0000
0000
,  // measure 2
0001
0010
1000
0000
0001
0100
1000
0000
0000
0000
0000
0000
0000
0000
0000
0000
1000
0100
0001
0000
0100
0010
0001
0000
0010
0100
1000
0000
0001
0100
0004
0000
,  // measure 3
1003
0100
1000
0000
0040
0000
0030
0000
0000
0000
0400
0000
0301
0000
0000
0000
0100
0001
1000
0000
0010
0100
0001
0000
0000
0000
0000
0000
0000
0000
0000
0000
,  // measure 4
1000
0001
0100
0000
1000
0100
0001
0000
0000
0000
0000
0000
0000
0000
0000
0000
0001
0010
1000
0000
0010
0100
1000
0000
0001
0100
0010
0000
1000
0100
0010
0000
,  // measure 5
0004
4000
0000
0000
0000
0000
0000
0000
0000
0000
0000
0000
0000
0000
0000
0000
0000
0000
0000
0000
0000
0000
0000
0000
0000
0000
0000
0000
3003
0000
0000
0000
,  // measure 6
0000
2000
0000
0000
0002
0000
0000
3003
,  // measure 7
1000
0001
0000
0010
0000
0010
1000
0000
0001
0000
0000
0000
0100
0000
0100
0000
,  // measure 8
0001
1000
0000
0010
0000
1000
0002
0000
0000
0000
0000
0000
0103
0000
0100
0000
,  // measure 9
1000
0010
0000
1000
0000
0001
0010
0000
0000
0000
0010
0000
0100
0000
1000
0000
,  // measure 10
0010
1000
0000
0001
0000
0010
0001
0000
0200
0000
0000
0000
0302
0000
0000
0000
,  // measure 11
1003
0001
0000
0010
0000
0010
1000
0000
0001
0000
0000
0000
0010
0000
0010
0000
,  // measure 12
0001
0100
0000
0010
0000
1000
0200
0000
0000
0000
0300
0000
0010
0000
0010
0000
,  // measure 13
0001
0100
0000
0001
0000
1000
0010
0000
0000
0000
0010
0000
0001
0000
1000
0000
,  // measure 14
1000
0001
0000
0010
0000
0100
2000
0000
0000
0000
3000
0000
0001
0000
1000
0000
,  // measure 15
1001
0000
0000
0001
0000
0000
0100
0000
0000
0001
0000
0000
1000
0000
0000
0000
0100
0000
0000
0010
0000
0000
0001
0000
0000
1000
0000
0000
0010
0000
1000
0000
,  // measure 16
0001
0010
0000
0010
0000
0010
0100
0000
0000
0000
0100
0000
0010
0000
0001
0000
1000
0100
0000
1000
0000
0001
0200
0000
0020
0000
0300
0000
0031
0000
0010
0000
,  // measure 17
0110
0100
0001
0000
1000
0001
1000
0100
,  // measure 18
0001
0000
0000
0000
0010
0000
0000
0000
1000
0000
0000
0000
0001
0000
0000
0000
1000
0000
0001
0000
0100
0000
0001
0000
1000
0000
0000
1000
0000
0000
1000
0000
,  // measure 19
0010
1000
0001
0010
1000
0001
0100
0010
,  // measure 20
0001
1000
0010
1000
0100
0010
0001
1000
,  // measure 21
0001
1000
0001
1000
0001
1000
0001
1000
0100
0010
0100
0010
0100
0010
0100
0010
,  // measure 22
0001
0000
0001
0000
1000
0000
0010
1000
0000
0000
0100
0000
0100
0000
0000
0000
1100
0000
0000
0000
0000
0000
0000
0000
1001
0000
0000
0000
0000
0000
0000
0000
,  // measure 23
0101
0000
0200
0000
1300
0100
0010
0100
,  // measure 24
0001
0100
1001
0110
,  // measure 25
1001
0000
0000
0000
1000
0000
0100
0000
0001
0000
0100
0000
1000
0000
0001
2000
,  // measure 26
0000
0000
0000
0000
3100
1000
0100
0000
1100
0000
0000
0000
0110
0000
0000
0000
,  // measure 27
0101
0000
0200
0000
1300
0100
0010
0100
,  // measure 28
0001
0000
0011
0000
1000
0001
1001
0000
,  // measure 29
0001
0000
0000
0000
0011
0000
0010
0000
0100
0000
0001
0000
0100
0000
1000
0200
,  // measure 30
0000
0000
0010
0000
0310
0000
0000
0000
1001
0000
0000
0010
1000
0000
0001
0000
,  // measure 31
1000
0000
0010
1000
0010
0000
1000
0000
0001
0000
0010
0000
1000
0000
0010
0000
,  // measure 32
0001
0000
0100
0001
1000
0000
0001
0000
1001
0000
0000
1000
0010
0000
0100
0000
,  // measure 33
0101
0000
0001
1000
0001
0000
0010
0000
0100
0000
0010
0000
0001
0000
0100
0002
,  // measure 34
0000
0000
0000
0000
1003
0010
1000
0000
1010
0000
0000
0001
1000
0000
0010
0000
,  // measure 35
1001
0000
0000
0010
0001
0000
1000
0000
1100
0000
0000
1000
0001
0000
0100
0000
,  // measure 36
0101
0000
0000
0001
0010
0000
0100
0000
0110
0000
0000
1001
0000
0000
1010
0000
,  // measure 37
1010
0000
0000
0110
0000
0000
0101
0000
0104
0000
0000
0000
2000
0000
0003
0000
,  // measure 38
0000
0000
0000
0000
3000
0100
1000
0000
1100
0000
0000
1000
0100
0000
0100
0001
,  // measure 39
1000
0000
0000
0001
0010
0000
0010
0000
0100
0000
0000
1000
0100
0000
1000
0000
,  // measure 40
0001
0000
0100
0000
0001
1000
0001
1000
0001
0000
0000
0001
0100
0000
0001
0000
,  // measure 41
1000
0000
0000
0100
0010
0000
0100
0000
1000
0000
0000
0001
0100
0000
0001
0000
,  // measure 42
2000
0000
0000
0000
0000
0010
0020
0000
3030
0000
0000
0000
0000
0000
0000
0000
0000
0000
0000
0000
0000
0000
0000
0000
0000
0000
0000
0000
0000
0000
0000
0000
;

//---------------dance-single - DANCERUSH Special----------------
#NOTES:
     dance-single:
     X-Scale 13:
     Challenge:
     9:
     0.383171,0.505529,0.269217,0.348984,0.254260,269.000000,242.000000,27.000000,35.000000,40.000000,0.000000,0.383171,0.505529,0.269217,0.348984,0.254260,269.000000,242.000000,27.000000,35.000000,40.000000,0.000000:
0000
0000
0000
0000
,
0002
0000
0000
0000
0003
0000
000L
0000
2000
0000
0000
0020
0000
0000
3000
0000
,
0230
0000
0302
0023
,
0230
0000
0300
0L00
2000
0000
0002
3000
,
0023
0000
0000
0000
0230
0000
2000
3300
,
LL00
0000
0000
0000
,
0000
0000
2002
0000
0000
0000
0000
3003
,
L00L
0000
0000
1000
0000
0000
0100
0000
1000
0000
0000
0000
0001
0000
0000
0000
,
0100
0000
0000
0001
0000
0010
0200
0000
0000
0000
0300
0000
1L00
0000
0100
0000
,
1000
0000
0000
0001
0000
0000
0100
0000
0000
0000
0100
0000
0001
0000
1000
0000
,
0010
0000
0000
1000
0000
0000
0200
0000
0020
0000
0330
0000
0LL0
0000
0000
0000
,
0001
0000
0000
1000
0000
0000
0010
0000
1000
0000
0000
0000
0001
0000
0100
0000
,
0001
0000
0000
0010
0000
0100
2000
0000
0000
0000
3000
0000
L001
0000
1000
0000
,
0001
0000
0000
0010
0000
0000
0100
0000
0000
0000
0100
0000
1000
0000
0001
0000
,
0100
0000
0000
0001
0000
2000
0020
0000
0000
0000
3030
0000
L0L0
0000
0000
0000
,
2001
0000
0000
0010
0000
0000
0001
0000
0000
0010
0000
0000
0001
0000
0000
0000
3010
0000
0000
0100
0000
0000
0010
0000
0000
0100
0000
0000
0010
0000
0000
0000
,
1000
0000
0000
0001
0000
0000
0100
0000
0000
0000
0100
0000
0010
0000
1000
0000
0001
0000
0000
0020
0000
0000
0200
0000
0000
0000
0330
0000
0LL0
0000
0000
0000
,
1001
1000
0010
1000
0100
0001
0100
0010
,
0001
0000
0100
0000
0001
0000
0010
0000
0100
1000
0001
0100
0010
0000
1000
0000
,
0001
0000
0000
0010
0000
0000
0100
0000
1000
0000
0000
0001
0000
0000
0100
0000
,
0010
0000
0000
1000
0000
0000
0001
0000
0010
0000
0000
0100
0000
0000
1000
0000
,
0001
0010
0100
1000
0010
0100
0001
1000
,
0100
0000
0100
0000
0100
0000
2000
0002
0000
0000
3003
0000
L00L
0000
0000
0000
0001
0000
0000
0000
MMMM
0000
0000
0000
0001
0000
0000
0000
MMMM
0000
0000
0000
,
0001
0000
0100
0000
1000
0100
0010
0100
,
0002
0003
MMMM
0000
1000
MMMM
1000
MMMM
,
1000
0000
0000
0000
0010
0000
1000
0000
0001
0000
0100
0000
0001
0000
0010
0200
,
0000
0000
0300
0000
1000
MMMM
1000
MMMM
,
1000
0000
0010
0000
0001
0010
0100
0010
,
2000
3000
MMMM
0000
0001
MMMM
0001
MMMM
,
0001
0000
0000
0000
1000
0000
0010
0000
1000
0000
0001
0000
0010
0000
0100
2000
,
0000
0001
3001
0000
1001
0000
1000
0100
,
0010
0000
0000
0010
0001
0000
1000
0000
0001
0000
0000
0000
0100
0000
0001
0000
,
1000
0000
0000
1000
0010
0000
0100
0000
0010
0000
0000
0000
1000
0000
0001
0000
,
0010
0000
0000
0010
0100
0000
1000
0000
0001
0000
1000
0000
0100
0000
0200
0020
,
0000
0000
0330
0000
0LL0
0000
0000
0000
0101
0000
0000
0001
0000
0000
1000
0000
,
1100
0000
0000
0001
0000
0000
0100
0000
0101
0000
0000
1000
0000
0000
0100
0000
,
1100
0000
0000
0001
0000
0000
1000
0000
1010
0000
0000
0110
0000
0000
0011
0000
,
0011
0000
0000
0110
0000
0000
1001
0000
2001
0000
0000
0000
0020
0000
0000
0000
,
0000
0000
3030
0000
L0L0
0000
0000
0000
0011
0000
0000
0000
0001
0000
0000
0001
,
1000
0000
0010
0000
1000
0000
0100
0000
0010
0000
0000
0010
0001
0000
1000
0000
,
0001
0000
0100
0000
0000
0000
0100
0010
0100
0000
0000
0001
1000
0000
0010
0000
,
1000
0000
0000
1000
0001
0000
0100
0000
0001
0000
0000
0001
0010
0000
0200
0000
,
2000
0000
0000
3300
LL00
0000
0000
0000
0000
0000
0000
0000
0000
0000
0000
0000
;
