#VERSION:0.83;
#TITLE:Don't Start Now;
#SUBTITLE:;
#ARTIST:Dua Lipa;
#TITLETRANSLIT:;
#SUBTITLETRANSLIT:;
#ARTISTTRANSLIT:;
#GENRE:Nu Disco;
#ORIGIN:;
#CREDIT:;
#BANNER:Don't Start Now-bn.png;
#BACKGROUND:Don't Start Now-bg.png;
#PREVIEWVID:;
#JACKET:Don't Start Now-jacket.png;
#CDIMAGE:;
#DISCIMAGE:;
#LYRICSPATH:;
#CDTITLE:cdtitle.png;
#MUSIC:Don't Start Now.ogg;
#OFFSET:-0.124000;
#SAMPLESTART:39.578999;
#SAMPLELENGTH:15.484000;
#SELECTABLE:YES;
#BPMS:0.000=124.000;
#STOPS:;
#DELAYS:;
#WARPS:;
#TIMESIGNATURES:0.000=4=4;
#TICKCOUNTS:0.000=4;
#COMBOS:0.000=1;
#SPEEDS:0.000=1.000=0.000=0;
#SCROLLS:0.000=1.000;
#FAKES:;
#LABELS:0.000=Song Start;
#BGCHANGES:3.000=Don't Start Now.avi=1.000=0=0=1=====,
99999=-nosongbg-=1.000=0=0=0 // don't automatically add -songbackground-
;
#KEYSOUNDS:;
#ATTACKS:
;

//---------------dance-single - ----------------
#NOTEDATA:;
#CHARTNAME:X-Scale 12;
#STEPSTYPE:dance-single;
#DESCRIPTION:;
#CHARTSTYLE:;
#DIFFICULTY:Hard;
#METER:8;
#RADARVALUES:0.555112,0.558425,0.125348,0.183843,0.434539,465.000000,450.000000,15.000000,22.000000,11.000000,0.000000,0.000000,0.000000,0.000000,0.555112,0.558425,0.125348,0.183843,0.434539,465.000000,450.000000,15.000000,22.000000,11.000000,0.000000,0.000000,0.000000,0.000000;
#CREDIT:;
#NOTES:
// measure 0
0000
0000
0000
0000
0000
0000
0000
0000
0000
0000
0000
0000
1100
0000
0000
1000
,  // measure 1
0100
0000
1000
0000
0000
0000
0001
0000
1000
0000
0010
1000
0001
0000
0000
0100
,  // measure 2
0010
0000
0100
0000
0000
0000
0001
0000
1000
0000
0010
1000
0001
0000
0000
0010
,  // measure 3
0100
0000
0010
0000
0000
0000
0001
0000
1000
0000
0100
0010
0001
0000
0000
1000
,  // measure 4
0010
0000
1000
0100
1000
0000
0001
0000
0010
0000
0001
0000
0101
0000
0000
0100
,  // measure 5
0010
0000
0100
0000
0001
0000
1000
0000
0001
0000
0010
0100
1000
0000
0000
0100
,  // measure 6
0010
0000
0100
0000
1000
0001
0000
0100
0001
0000
0010
0100
0010
0000
0000
0001
,  // measure 7
0010
0000
0001
0000
1000
0000
0001
0000
0100
0000
0010
0100
0001
0000
0000
1000
,  // measure 8
0010
0000
1000
0100
1000
0000
0001
0000
0100
0010
0100
0000
1010
0000
0000
1000
,  // measure 9
0001
0000
1000
0000
0100
0000
0001
0000
0100
0000
1000
0100
1000
0000
0000
0001
,  // measure 10
0100
0000
0001
0000
0010
0000
1000
0000
0010
0000
0001
0010
0001
0000
0000
0100
,  // measure 11
0010
0000
0100
0000
1000
0000
0100
0000
0001
0000
0010
0100
0010
0000
0000
0001
,  // measure 12
1000
0000
0100
1000
0001
0000
1000
0000
0010
0100
0010
0000
1000
0000
0000
0000
,  // measure 13
1001
0001
0100
0000
1010
1000
0002
0000
,  // measure 14
0023
0000
0000
0000
1030
0000
0010
0000
0100
0000
1000
0000
0001
0000
0000
0020
,  // measure 15
0000
0000
0000
0000
0000
0000
0100
0000
0000
0100
0000
0000
0031
0000
0000
0002
,  // measure 16
0000
0000
0000
1000
0000
0000
0100
0000
0000
0100
0000
0000
0013
0000
0000
0000
,  // measure 17
1010
1000
0001
0000
0011
0010
0200
0000
,  // measure 18
2300
0000
0000
0000
3001
0000
0100
0000
1000
0000
0100
0000
0001
0000
0000
0020
,  // measure 19
0000
0000
0000
0000
0000
0000
0100
0000
0000
0100
0000
0000
0031
0000
0010
0000
,  // measure 20
1000
0000
0010
0000
0001
0000
0000
0000
0000
0000
0000
0000
1001
0000
0000
1000
,  // measure 21
0100
0000
1000
0000
0001
0000
0010
0000
0000
0100
0000
0000
1000
0000
0000
0001
,  // measure 22
1000
0000
0100
0000
0010
0000
0100
0000
0000
1000
0000
0000
0001
0000
0000
0100
,  // measure 23
0001
0000
0000
0000
0000
0000
1000
0000
0000
0000
0000
0000
0001
0000
0000
0000
0000
0000
0010
0000
0000
0000
0000
0000
0000
0000
0000
0100
0000
0000
0000
0000
0000
0000
0000
0000
0010
0000
0000
0000
0001
0000
0000
0000
1000
0000
0000
0000
,  // measure 24
0001
0000
0000
0000
0010
0000
0000
0000
0100
0000
0000
0000
1000
0000
0000
0000
0000
0000
0001
0000
0000
0000
0000
0000
1000
0000
0000
0000
0000
0000
0100
0000
0000
0000
0000
0000
1100
0000
0000
0000
0000
0000
0000
0000
0000
1000
0000
0000
,  // measure 25
0001
0000
1000
0000
0100
0000
1000
0000
0000
0001
0000
0000
0010
0000
0000
0100
,  // measure 26
0010
0000
0100
0000
1000
0000
0001
0000
0000
0100
0000
0000
0001
0000
0000
0010
,  // measure 27
0100
0000
0010
0000
0001
0000
1000
0000
0000
0010
0000
0000
1000
0000
0100
0000
,  // measure 28
0000
1000
0000
0001
0100
0000
0001
0000
0010
0000
0100
0010
0002
0000
0000
0000
,  // measure 29
1003
0000
0001
0000
0100
0000
00M0
0000
0100
0000
1000
0100
1000
0000
0001
0010
,  // measure 30
0000
0000
0001
0000
0010
0000
0M00
0000
0010
0000
1000
0001
1000
0000
0100
1000
,  // measure 31
0000
0000
0001
0000
0100
0000
00M0
0000
0100
0000
1000
0001
1000
0000
0100
0000
,  // measure 32
1000
0000
0001
0100
0001
0000
0010
0000
0100
0000
0010
0100
1000
0000
0000
0001
,  // measure 33
0010
0000
0001
0000
0100
0000
00M0
0000
0100
0000
1000
0000
0001
0000
0010
0001
,  // measure 34
0000
0000
1000
0000
0010
0000
0M00
0000
0010
0000
0001
0000
1000
0000
0000
0100
,  // measure 35
0000
0000
0010
0000
0100
0000
1000
0000
0001
0000
0100
0010
0100
0000
0000
0001
,  // measure 36
0010
0000
0001
1000
0001
0000
0100
0000
0010
0100
0001
0000
1000
0000
0000
0000
,  // measure 37
1100
0100
0020
0000
1030
0010
0002
0000
,  // measure 38
2003
0000
3100
0010
0001
0010
0200
0000
,  // measure 39
2300
3000
1001
0000
,  // measure 40
0110
0000
1010
0000
,  // measure 41
0001
0010
0200
0000
0301
0100
2000
0000
,  // measure 42
3002
0000
0103
0001
0010
0100
2000
0000
,  // measure 43
3020
0000
0000
0000
0030
0000
0000
0000
1000
0010
0100
0010
1000
0000
0000
0002
,  // measure 44
0000
0000
0000
0000
1003
0000
0000
0100
0010
0000
0001
0000
0011
0000
0000
0001
,  // measure 45
1000
0000
0010
0000
1000
0000
0100
0000
0001
0000
0100
0000
1000
0000
0000
0010
,  // measure 46
1000
0000
0001
0000
0010
0000
1000
0000
0010
0000
0001
0000
1000
0000
0000
0100
,  // measure 47
0010
0000
0000
0100
0000
0000
1000
0000
0000
0001
0000
0000
0100
0000
0000
0001
0000
0000
1000
0000
0010
0000
0100
0000
,  // measure 48
0001
0000
0000
0000
0010
0000
0000
0000
0100
0000
0000
0000
0010
0000
0000
0000
0000
0000
0100
0000
0000
0000
0000
0000
0110
0000
0000
0000
0000
0000
0000
0000
0000
0010
0000
0000
0001
0000
0000
0000
0000
0000
1000
0000
0000
0000
0000
0000
,  // measure 49
0001
0000
0010
0000
0100
0000
0000
0010
0001
0000
1000
0000
0010
0000
0000
0100
,  // measure 50
0010
0000
0100
0000
0001
0000
0000
0010
0100
0000
0010
0000
0001
0000
0000
1000
,  // measure 51
0010
0000
1000
0000
0001
0000
0010
0000
0001
0010
0100
0010
0001
0000
1000
0000
,  // measure 52
0010
1000
0000
0100
0010
0100
1000
0001
0100
0000
0000
0001
2000
0000
0000
0000
,  // measure 53
3001
0000
0001
0000
0100
0000
00M0
0000
0100
0000
1000
0100
1000
0000
0001
0010
,  // measure 54
0000
0000
0001
0000
0010
0000
0M00
0000
0010
0000
1000
0001
1000
0000
0100
1000
,  // measure 55
0000
0000
0001
0000
0100
0000
00M0
0000
0100
0000
1000
0001
1000
0000
0100
0000
,  // measure 56
1000
0000
0001
0100
0001
0000
0010
0000
0100
0000
0010
0100
1000
0000
0000
0001
,  // measure 57
0010
0000
0001
0000
0100
0000
00M0
0000
0100
0000
1000
0000
0001
0000
0010
0001
,  // measure 58
0000
0000
1000
0000
0010
0000
0M00
0000
0010
0000
0001
0000
1000
0000
0100
1000
,  // measure 59
0000
0000
0001
0000
0100
0000
00M0
0000
0100
0000
1000
0001
0100
0000
0001
0010
,  // measure 60
0000
0000
0001
0000
1000
0100
0000
0000
2000
0000
0002
0000
3003
0000
0000
0000
;

//---------------dance-single - ----------------
#NOTEDATA:;
#CHARTNAME:X-Scale 10;
#STEPSTYPE:dance-single;
#DESCRIPTION:;
#CHARTSTYLE:;
#DIFFICULTY:Medium;
#METER:7;
#RADARVALUES:0.440508,0.456893,0.158774,0.259052,0.150417,369.000000,350.000000,19.000000,31.000000,0.000000,0.000000,0.000000,0.000000,0.000000,0.440508,0.456893,0.158774,0.259052,0.150417,369.000000,350.000000,19.000000,31.000000,0.000000,0.000000,0.000000,0.000000,0.000000;
#CREDIT:;
#NOTES:
// measure 0
0000
0000
0000
0101
,  // measure 1
0100
0001
1000
0000
0010
1000
0001
0000
,  // measure 2
0010
0100
1000
0000
0001
1000
0100
0001
,  // measure 3
0100
1000
0002
0000
0013
0100
2000
0000
,  // measure 4
3010
1000
0001
0000
1000
0000
1100
0000
,  // measure 5
0100
0010
0001
0000
1000
0001
0010
0000
,  // measure 6
0100
0010
0001
0000
0010
0100
1000
0001
,  // measure 7
0010
0001
2000
0000
3100
0010
0002
0000
,  // measure 8
0103
0000
0001
0000
1000
0000
0001
0000
0100
0000
0001
0000
1000
0000
0000
0100
,  // measure 9
0000
0000
0001
0000
0000
0100
0000
0000
1000
0000
0001
0000
0010
0000
0000
0001
,  // measure 10
0000
0000
1000
0000
0000
0001
0000
0000
0010
0000
0100
0000
1000
0000
0000
0010
,  // measure 11
0000
0001
0000
1000
0100
0001
1000
0000
,  // measure 12
0001
0100
0001
1000
0200
0000
0310
0000
,  // measure 13
1001
0001
0020
0000
1030
0010
0002
0000
,  // measure 14
2003
0000
3010
1000
0001
0010
0200
0000
,  // measure 15
2300
0000
0000
0000
3000
0000
0001
0000
0000
0001
0000
0000
0010
0000
0000
0010
,  // measure 16
0000
0000
0100
0000
0010
0000
0100
0000
0000
0100
0000
0000
1000
0000
0000
0000
,  // measure 17
0001
0010
0200
0000
0301
0100
2000
0000
,  // measure 18
3002
0000
0103
0001
1000
0001
0020
0000
,  // measure 19
0230
0000
0000
0000
0300
0000
1000
0000
0000
1000
0000
0000
0001
0000
0010
0000
,  // measure 20
0001
0000
0010
0000
0000
0000
0100
0000
0000
0010
0000
0000
0101
0000
0000
0001
,  // measure 21
1000
0000
0001
0000
0010
0000
0001
0000
1000
0000
0100
0000
0010
0000
0000
0100
,  // measure 22
1000
0000
0001
0000
0010
0000
1000
0000
0010
0000
0001
0000
1000
0000
0000
0100
,  // measure 23
0010
0000
0001
0000
1000
0000
0001
0000
0100
0000
0010
0000
1000
0000
0000
0010
,  // measure 24
0100
0000
0010
0000
0001
0000
0010
0000
1000
0000
0000
0000
1001
0000
0000
0100
,  // measure 25
1000
0000
0001
0000
0100
0000
0010
0000
0100
0000
0001
0000
1000
0000
0000
0100
,  // measure 26
0010
0000
0100
0000
1000
0000
0001
0000
0100
0000
0001
0000
1000
0000
0000
0100
,  // measure 27
0010
0001
1000
0001
0010
0100
1000
0001
,  // measure 28
0000
0100
0000
0000
0001
0000
0000
0010
0000
0000
0100
0000
2100
0000
0000
0000
,  // measure 29
3001
1000
0001
0000
0001
0000
1001
0000
,  // measure 30
1000
0100
1000
0000
1000
0000
1010
0000
,  // measure 31
0001
0100
0001
0000
0001
0000
0011
0000
,  // measure 32
0010
0000
0100
0010
0100
0000
1000
0000
1100
0000
0000
0000
1010
0000
0000
0000
,  // measure 33
1000
0001
1000
0000
1000
0000
1100
0000
,  // measure 34
0100
0000
0010
0000
0001
0000
0000
0000
0001
0000
0010
0000
0100
0000
0000
0010
,  // measure 35
0000
0001
0000
1000
0001
0200
1000
0000
,  // measure 36
0010
0000
0301
0100
0020
0000
0000
0030
,  // measure 37
0100
0001
0020
0000
0130
0010
0002
0000
,  // measure 38
2003
0000
3010
1000
0001
1000
0200
0000
,  // measure 39
0320
0030
0011
0000
,  // measure 40
1010
0000
1001
0000
,  // measure 41
1000
0001
0200
0000
1300
0100
0020
0000
,  // measure 42
2030
0000
3001
0100
0010
1000
0200
0000
,  // measure 43
2300
0000
0000
0000
3000
0000
0000
0000
0000
0000
0000
0000
0200
0000
0000
0002
,  // measure 44
0000
0000
0000
0000
0303
0000
1000
0000
0000
0001
0000
0000
1001
0000
0000
0000
,  // measure 45
1000
0100
1000
0000
0001
0100
0001
0000
,  // measure 46
0010
0000
0100
0000
0010
0000
0000
0000
0001
0000
0100
0000
0001
0000
0000
0010
,  // measure 47
0000
0000
0100
0000
0000
0000
0010
0000
0000
0100
0000
0000
1000
0000
0000
0000
,  // measure 48
0001
1000
0001
0010
0100
0000
0110
0000
,  // measure 49
0100
0010
0100
0000
1000
0010
1000
0000
,  // measure 50
0001
0000
0010
0000
0001
0000
0000
0000
0100
0000
0010
0000
0100
0000
0000
0001
,  // measure 51
0000
0000
1000
0000
0000
0000
0010
0000
0000
1000
0000
0000
0100
0000
1000
0000
,  // measure 52
0000
0001
0000
0000
1000
0000
0001
0000
0100
0000
0000
0000
0101
0000
0000
0000
,  // measure 53
0001
0000
1000
0000
0001
0000
0000
0000
0001
0000
0000
0000
0010
0000
0100
1000
,  // measure 54
0000
0000
0001
0000
1000
0000
0000
0000
1000
0000
0000
0000
1000
0000
0100
0010
,  // measure 55
0000
0000
0001
0000
0010
0000
0000
0000
0010
0000
0000
0000
0010
0000
0100
0010
,  // measure 56
0000
0000
0001
0000
1000
0001
0000
0000
0010
0000
0000
0000
0101
0000
0000
0000
,  // measure 57
0001
0000
0010
0000
0100
0000
0000
0000
0100
0000
0000
0000
0100
0000
1000
0010
,  // measure 58
0000
0000
1000
0000
0001
0000
0000
0000
0001
0000
0000
0000
0001
0000
0010
0100
,  // measure 59
0000
0000
1000
0000
0001
0000
0000
0000
0001
0000
0000
0000
0001
0000
0010
0100
,  // measure 60
0000
0000
0010
0000
0001
1000
0000
0000
0200
0000
0000
0000
0300
0000
0000
0000
;

//---------------dance-single - ----------------
#NOTEDATA:;
#CHARTNAME:X-Scale 14;
#STEPSTYPE:dance-single;
#DESCRIPTION:;
#CHARTSTYLE:;
#DIFFICULTY:Challenge;
#METER:9;
#RADARVALUES:0.403501,0.482276,0.300835,0.142061,0.200557,338.000000,302.000000,36.000000,17.000000,146.000000,0.000000,0.000000,12.000000,0.000000,0.403501,0.482276,0.300835,0.142061,0.200557,338.000000,302.000000,36.000000,17.000000,146.000000,0.000000,0.000000,12.000000,0.000000;
#CREDIT:;
#NOTES:
// measure 0
0000
0000
0000
1001
,  // measure 1
1000
MMMM
1000
MMMM
,  // measure 2
1000
MMMM
0100
MMMM
,  // measure 3
0001
MMMM
0001
MMMM
,  // measure 4
0001
0000
0100
0010
0100
0000
1001
0000
,  // measure 5
1000
MMMM
1000
MMMM
,  // measure 6
1000
MMMM
0010
MMMM
,  // measure 7
0001
MMMM
0001
MMMM
,  // measure 8
0001
0000
0000
0000
0100
0000
0010
0000
0100
0000
0000
0000
1010
0000
0000
1000
,  // measure 9
0000
0000
0001
0000
0000
0010
0000
0000
1000
0000
0010
0000
0001
0000
0000
0100
,  // measure 10
0000
0000
0010
0000
0000
0100
0000
0000
1000
0000
0100
0000
0001
0000
0000
1000
,  // measure 11
0000
0001
0000
0010
0100
2000
0010
0000
,  // measure 12
0001
0000
3100
1000
0002
0000
0013
0000
,  // measure 13
0011
0000
1010
0000
,  // measure 14
1100
0000
0000
0000
0000
0000
0000
0000
0101
0000
0000
0000
0001
0000
0000
0020
,  // measure 15
0001
0000
0000
0000
0000
0000
0000
0000
0100
0000
0000
0000
0130
0000
0000
2000
,  // measure 16
0100
0000
0001
3000
,  // measure 17
1000
0100
LL00
0000
0001
0100
0L0L
0000
,  // measure 18
0110
0000
1000
0010
0100
0001
0020
0000
,  // measure 19
0230
0000
0300
0000
0000
0010
MMMM
0010
,  // measure 20
MMMM
0010
0000
0000
0000
0000
1001
0000
,  // measure 21
1000
0001
0100
0000
0001
0000
0011
0000
,  // measure 22
0010
0100
1000
0001
1000
0000
1001
0000
,  // measure 23
0100
0000
0000
1000
0000
0000
0001
0000
0000
0000
0000
0000
0101
0000
0000
0000
0000
0000
0100
0000
0001
0000
1000
0000
,  // measure 24
0010
0000
0001
0000
0010
0000
1000
0000
0000
0001
0000
0000
0100
0000
0000
0001
0000
0000
1001
0000
0000
0000
0000
0000
,  // measure 25
1000
0100
1000
0000
0001
0000
1001
0000
,  // measure 26
0001
0010
1000
0010
0001
0000
0011
0000
,  // measure 27
0001
1000
0100
0000
1100
0000
1000
0100
,  // measure 28
1000
0010
0000
0010
0001
0000
1000
0000
0001
0000
1000
0000
1001
0000
0000
0000
,  // measure 29
1000
0000
0100
0000
0010
0000
MMMM
0000
0010
0000
MMMM
0000
0010
0000
0001
0010
,  // measure 30
0000
0000
0001
0000
0100
0000
MMMM
0000
0100
0000
MMMM
0000
0100
0000
0010
1000
,  // measure 31
0000
0001
0010
MMMM
0010
MMMM
0010
0001
,  // measure 32
0000
1000
0000
0000
0010
0000
1000
0000
2020
0000
0000
3030
L0L0
0000
0000
0000
,  // measure 33
1000
0000
0001
0000
0010
0000
MMMM
0000
0010
0000
MMMM
0000
0010
0000
0001
1000
,  // measure 34
0000
0000
0001
0000
0100
0000
MMMM
0000
0100
0000
MMMM
0000
0100
0000
0000
0001
,  // measure 35
0000
1000
0000
0100
0010
0002
0100
0000
,  // measure 36
1000
0000
0013
0001
2000
0000
3000
0000
,  // measure 37
1100
0000
0101
0000
,  // measure 38
0011
0000
1010
0000
,  // measure 39
1001
0000
0110
0000
,  // measure 40
1010
0000
0011
0000
,  // measure 41
1000
0100
LL00
0000
0001
0100
0L0L
0000
,  // measure 42
0110
0000
1000
0010
0001
0010
2000
0000
,  // measure 43
3002
0000
0000
0000
0003
0000
0000
0000
1000
0001
0100
0001
2000
0000
0000
0200
,  // measure 44
0000
0000
0000
3300
LL00
0000
0000
0001
0100
0000
0001
0000
1001
0000
1000
0000
,  // measure 45
0000
0100
0000
0000
0010
0000
0001
0000
0000
0100
0000
0000
0001
0000
0010
0000
,  // measure 46
0000
0100
0000
0000
1000
0000
0001
0000
0000
0100
0000
0000
0001
0000
0000
0010
,  // measure 47
0000
0000
0000
0000
0000
0000
0100
0000
0000
0000
0000
0000
0000
0000
0000
0000
0000
0000
1000
0000
0000
0000
0000
0000
0000
0000
0000
0010
0000
0000
0000
0000
0000
0000
0000
0000
1000
0000
0000
0000
0010
0000
0000
0000
0100
0000
0000
0000
,  // measure 48
0001
0000
0010
0000
0100
0000
1000
0000
0000
0001
0000
0000
1000
0000
0000
0100
0000
0000
1100
0000
0000
1000
0000
0000
,  // measure 49
0000
0001
0000
0000
0010
0000
1000
0000
0000
0010
0000
0000
0001
0000
0100
0000
,  // measure 50
0000
0001
0000
0000
1000
0000
0100
0000
0000
1000
0000
0000
0001
0000
0000
0100
,  // measure 51
0000
0000
0001
0000
0000
0000
0010
0000
0000
0100
0000
0000
1000
0000
0001
0000
,  // measure 52
0000
0100
0000
0000
0010
0000
1000
0000
0001
0000
1000
0000
1001
0000
0000
0000
,  // measure 53
1000
0000
0100
0000
0010
0000
MMMM
0000
0010
0000
MMMM
0000
0010
0000
0001
0010
,  // measure 54
0000
0000
0001
0000
0100
0000
MMMM
0000
0100
0000
MMMM
0000
0100
0000
0001
1000
,  // measure 55
0000
0000
0100
0000
0010
0000
MMMM
0000
0010
0000
MMMM
0000
0010
0000
0001
1000
,  // measure 56
0000
0000
0010
0000
1000
0001
0000
0000
0020
0000
0000
0000
0130
0000
0000
0000
,  // measure 57
0010
0000
0001
0000
0100
0000
MMMM
0000
0100
0000
MMMM
0000
0100
0000
0001
1000
,  // measure 58
0000
0000
0100
0000
0010
0000
MMMM
0000
0010
0000
MMMM
0000
0010
0000
0001
0010
,  // measure 59
0000
0000
0001
0000
1000
0000
MMMM
0000
1000
0000
MMMM
0000
1000
0000
0100
0010
,  // measure 60
0000
0000
0000
0000
0100
0000
0000
0000
1000
0000
0001
0000
0000
0000
0010
0000
0200
0000
0000
0000
2000
0000
0000
3300
MM00
0000
0000
0000
0000
0000
0000
0000
;

//---------------dance-single - ----------------
#NOTEDATA:;
#CHARTNAME:X-Scale 6;
#STEPSTYPE:dance-single;
#DESCRIPTION:;
#CHARTSTYLE:;
#DIFFICULTY:Easy;
#METER:4;
#RADARVALUES:0.339036,0.355361,0.192200,0.334261,0.000000,284.000000,261.000000,23.000000,40.000000,0.000000,0.000000,0.000000,0.000000,0.000000,0.339036,0.355361,0.192200,0.334261,0.000000,284.000000,261.000000,23.000000,40.000000,0.000000,0.000000,0.000000,0.000000,0.000000;
#CREDIT:;
#NOTES:
// measure 0
0000
0000
0000
1002
,  // measure 1
1003
0200
0001
0000
1300
0000
0200
0000
,  // measure 2
0310
0002
1000
0000
0013
0000
0100
0000
,  // measure 3
1000
0001
1000
0000
0100
0010
0001
0000
,  // measure 4
1000
0000
0001
0100
0001
0000
0201
0000
,  // measure 5
0310
2000
0001
3000
1000
0000
0100
0020
,  // measure 6
0001
0000
0230
0000
1300
0100
0010
0001
,  // measure 7
0100
0001
1000
0000
0010
1000
0001
0000
,  // measure 8
0010
0000
0100
0100
0100
0000
1100
0000
,  // measure 9
1000
0000
0001
0000
0100
0001
0010
0000
,  // measure 10
0100
0000
1000
0000
0001
1000
0010
0000
,  // measure 11
0100
0000
0001
0010
0100
0010
0001
0000
,  // measure 12
1000
0001
0200
0300
,  // measure 13
0101
0002
0013
0200
,  // measure 14
2300
3000
1100
0200
,  // measure 15
0320
0030
0011
0000
,  // measure 16
1010
0000
1100
0000
,  // measure 17
0101
0002
0013
0200
,  // measure 18
2300
3000
1100
0200
,  // measure 19
0320
0030
0011
0000
,  // measure 20
0101
0000
0000
1001
,  // measure 21
1000
0100
1000
0001
,  // measure 22
0100
0001
0010
0100
,  // measure 23
1000
0001
0100
0001
,  // measure 24
1000
0010
1000
0001
,  // measure 25
0100
0001
1000
0100
,  // measure 26
1000
0001
0100
0001
,  // measure 27
1000
0100
1000
0020
,  // measure 28
0100
1000
0100
2030
,  // measure 29
3001
1000
0100
0000
0100
0000
0010
0000
,  // measure 30
0001
0010
0100
0000
0100
0000
2000
0000
,  // measure 31
3001
1000
0010
0000
0010
0000
0100
0000
,  // measure 32
0001
0010
0100
0010
0001
0000
0021
0000
,  // measure 33
0130
0010
0001
0000
0001
0000
1000
0000
,  // measure 34
0010
1000
0100
0000
0100
0000
0010
0000
,  // measure 35
0001
0100
0000
0010
1000
0002
0100
0000
,  // measure 36
1000
0000
0103
0001
0020
0000
0130
0000
,  // measure 37
1010
1000
1001
0002
,  // measure 38
0203
0000
0310
0100
0001
0010
0200
0000
,  // measure 39
2300
3000
1100
0000
,  // measure 40
0201
0000
0010
0320
,  // measure 41
0000
0100
0000
2030
,  // measure 42
0000
0001
0000
3200
,  // measure 43
0320
0030
0001
2000
,  // measure 44
0000
0000
0020
0000
0000
3030
1010
0000
,  // measure 45
1000
0000
0001
0100
0001
0000
0010
0000
,  // measure 46
0100
0000
1000
0100
1000
0000
0001
0000
,  // measure 47
0100
0000
0001
1000
0001
0000
0010
0000
,  // measure 48
0100
0000
1000
0100
1000
0000
0010
0000
,  // measure 49
0100
0000
0001
0100
0001
0000
0010
0000
,  // measure 50
0100
0000
1000
0100
1000
0000
0001
0000
,  // measure 51
1000
0000
0100
0010
0100
0000
1000
0000
,  // measure 52
0001
0000
0010
0100
2000
0000
3001
0000
,  // measure 53
1000
0100
0010
0000
0010
0000
0001
0000
,  // measure 54
0100
0001
1000
0000
1000
0000
0010
0000
,  // measure 55
1000
0001
0010
0000
0010
0000
0100
0000
,  // measure 56
1100
1000
1002
0103
,  // measure 57
0001
1000
0100
0000
0100
0000
0010
0000
,  // measure 58
0100
1000
0001
0000
0001
0000
0100
0000
,  // measure 59
0001
1000
0010
0000
0010
0000
0100
0000
,  // measure 60
0110
0001
2002
3003
;
