#VERSION:0.83;
#TITLE:Don't Matter;
#SUBTITLE:;
#ARTIST:Akon;
#TITLETRANSLIT:;
#SUBTITLETRANSLIT:;
#ARTISTTRANSLIT:;
#GENRE:R&B;
#ORIGIN:;
#CREDIT:;
#BANNER:dm-bn.png;
#BACKGROUND:dm-bg.png;
#PREVIEWVID:;
#JACKET:dm-jacket.png;
#CDIMAGE:;
#DISCIMAGE:;
#LYRICSPATH:;
#CDTITLE:cdtitle.png;
#MUSIC:don't matter.ogg;
#OFFSET:-0.958436;
#SAMPLESTART:16.302999;
#SAMPLELENGTH:14.000000;
#SELECTABLE:YES;
#BPMS:0.000=62.602;
#STOPS:;
#DELAYS:;
#WARPS:;
#TIMESIGNATURES:0.000=4=4;
#TICKCOUNTS:0.000=4;
#COMBOS:0.000=1;
#SPEEDS:0.000=1.000=0.000=0;
#SCROLLS:0.000=1.000;
#FAKES:;
#LABELS:0.000=Song Start;
#BGCHANGES:;
#KEYSOUNDS:;
#ATTACKS:
;

//---------------dance-single - ----------------
#NOTEDATA:;
#CHARTNAME:;
#STEPSTYPE:dance-single;
#DESCRIPTION:;
#CHARTSTYLE:;
#DIFFICULTY:Medium;
#METER:5;
#RADARVALUES:0.198202,0.204281,0.042559,0.017023,0.080861,163.000000,158.000000,5.000000,2.000000,0.000000,0.000000,0.000000,0.000000,0.000000,0.198202,0.204281,0.042559,0.017023,0.080861,163.000000,158.000000,5.000000,2.000000,0.000000,0.000000,0.000000,0.000000,0.000000;
#CREDIT:;
#NOTES:
0000
0000
0000
0000
,
0000
0000
0000
0000
,
2000
0000
3000
0000
0001
1000
0010
0100
,
0002
0003
0101
1000
,
1001
0000
0000
0000
0100
0000
0000
0000
0001
0000
0000
1000
0001
0000
0001
0000
,
0001
0000
0000
0000
1000
0000
0000
0001
1000
0000
0000
0000
0100
0000
0000
0000
,
1000
0000
0000
0001
1000
0000
0000
0000
0100
0000
0000
0000
0010
0000
0010
0000
,
0010
0000
0000
0000
0001
0000
0000
0001
0100
0000
0000
0000
0001
0000
0000
0000
,
1000
0000
0001
0010
0001
0000
1000
0100
,
1000
0000
0000
0000
0000
0000
0000
0000
1000
0000
0000
1000
0000
0000
1000
0000
0001
0000
0000
0000
0100
0000
0001
0000
0000
0000
0000
0000
0100
0000
0000
0000
,
0101
0000
0000
0000
0010
0000
0000
0001
1000
0000
0000
0000
0100
0000
0010
0000
,
0100
0000
0000
0000
0100
0000
0000
0001
1000
0000
0000
0000
0001
0000
0000
0000
,
0010
0000
0100
0000
1000
0000
0001
0100
,
0001
0000
0000
0000
0010
0000
0000
0001
0100
0000
0000
0000
0001
0000
0000
0000
,
0101
0000
0000
0000
0001
0000
0000
0010
0001
0000
0000
0000
0100
0000
0010
0000
,
1000
0000
0000
0000
0001
0000
0000
0100
0001
0000
0000
0000
0010
0000
0000
0000
,
1000
1000
1000
0000
0001
0001
0001
0000
,
0100
0000
0000
0010
0100
0000
0000
0000
0001
0010
0100
0000
1000
0000
0100
0000
,
1000
1000
1000
0000
0001
0001
0001
0000
,
0100
0000
0000
0001
0100
0000
0000
0000
0010
0100
0001
0000
1000
0000
0000
0000
,
1100
0000
1000
0100
0010
0000
0100
0010
,
0001
0000
1000
0100
0010
0000
0001
0000
,
0010
0000
0100
0010
0100
0000
1000
0001
,
1000
0000
0010
0100
0001
0000
1000
0000
,
0010
0000
0000
0010
0100
0000
0000
0000
0001
0000
0000
0000
0100
0000
0010
0000
,
0100
0000
0000
0000
0001
0000
0000
1000
0001
0000
0000
0000
0010
0000
0000
0000
,
0100
0010
1000
0000
0010
0100
0001
0000
,
1000
0000
0000
0001
1000
0000
0000
0000
0010
0000
0000
0000
0100
0000
0000
0000
,
0010
0100
0000
0000
0001
1000
0001
1000
,
0001
0010
0100
0010
,
0100
0000
0000
0000
;

//---------------dance-single - ----------------
#NOTEDATA:;
#CHARTNAME:;
#STEPSTYPE:dance-single;
#DESCRIPTION:;
#CHARTSTYLE:;
#DIFFICULTY:Hard;
#METER:8;
#RADARVALUES:0.437746,0.460591,0.025535,0.000000,0.753288,360.000000,357.000000,3.000000,0.000000,0.000000,0.000000,0.000000,0.000000,0.000000,0.437746,0.460591,0.025535,0.000000,0.753288,360.000000,357.000000,3.000000,0.000000,0.000000,0.000000,0.000000,0.000000,0.000000;
#CREDIT:;
#NOTES:
0000
0000
0000
0000
,
0000
0000
0000
0000
,
1000
0000
1000
0001
1000
0000
0010
0100
0010
0000
1000
0000
0010
0000
0100
0000
,
0001
0000
0000
0000
0001
0000
1000
0000
0001
0000
0000
0000
0100
0000
0010
0000
0100
0000
0000
0000
0010
0000
1000
0000
0010
0000
0000
0100
0000
0000
0010
0000
,
0110
0000
0000
1000
0001
1000
0001
1000
0100
0010
0001
0100
0000
0000
0100
0000
,
0001
0000
0010
0000
0100
0000
1000
0000
0001
0000
0000
0000
1000
0000
0001
0000
1000
0000
0000
0000
0000
0000
1000
0000
0010
0000
0000
0010
0000
0000
0010
0000
,
1000
0010
0000
0100
0001
0100
0001
0100
0001
0010
0100
1000
0000
0000
1000
0000
,
1000
0000
0010
0000
0001
0000
0010
0000
1000
0000
0000
0000
1000
0000
0001
0000
0100
0000
0000
0000
0000
0000
0001
0000
0001
0000
0000
1000
0000
0000
0001
0000
,
0100
0001
0000
1000
0001
0010
0100
1000
0001
0000
0000
0001
1000
0100
0010
0001
,
1000
0000
0000
0000
0000
0000
1000
0000
0010
0000
0000
1000
0000
0000
0001
0000
0100
0000
0000
0000
0100
0000
0001
0000
0100
0000
0000
0000
0100
0000
0000
0000
,
0101
0000
0000
0001
1000
0100
1000
0010
0100
0001
0010
0001
0100
0000
0100
0000
,
0100
0000
1000
0000
0100
0000
0010
0000
0100
0000
0000
0000
0001
0000
0100
0000
0001
0000
0000
0000
0000
0000
0010
0000
0001
0000
0000
0010
0000
0000
0001
0000
,
0001
0100
0001
1000
0001
0000
1000
0000
0010
0001
0010
0100
0010
0000
1000
0001
,
1000
0000
0000
0000
0000
0000
0010
0000
1000
0000
0000
0000
0000
0000
0001
0000
0100
0000
0010
0000
0001
0000
0010
0000
0100
0000
0000
0001
0000
0000
0100
0000
,
0010
0100
1000
0100
0010
0000
0000
0100
0001
0010
0100
0010
0001
0000
0001
1000
,
0100
1000
0100
1000
0100
0000
1000
0001
0000
0100
0001
0000
0100
0010
0100
0000
0100
0000
0001
0000
0010
0000
0001
0000
1000
0000
0000
1000
0000
0000
0010
0000
,
1000
0000
0000
0000
0001
0000
0100
0000
0001
0000
0100
0001
0100
0000
0010
0000
0010
0000
0000
0000
1000
0000
0010
0000
1000
0000
0100
1000
0100
0000
1000
0000
,
0001
0000
0100
0001
0000
0000
0100
0000
0010
0000
1000
0000
0001
0000
1000
0000
0001
0000
0100
0000
0010
0000
0000
0000
1000
0000
0100
1000
0100
0000
1000
0000
,
0001
0000
0000
0000
0100
0000
0010
0000
0100
0000
0001
0010
0001
0000
0100
0000
0010
0000
1000
0000
0100
0000
1000
0000
0010
0000
0100
0010
0100
0000
0001
0000
,
0010
0000
0001
0100
0000
0001
0100
0000
0001
0000
0010
0000
1000
0000
0010
0000
0001
0000
0010
0000
0100
0000
0010
0000
0001
0000
0000
0001
0000
0000
0001
0000
,
0011
0010
0000
0010
0001
0000
1000
0100
1000
0000
0000
0010
0100
0000
0010
0100
,
0001
0000
0000
0000
0000
0000
0001
0000
1000
0000
0000
0000
1000
0000
0100
0000
0010
0000
0000
0000
0000
0000
0010
0000
0100
0000
0000
0010
0000
0000
0001
0000
,
0010
0000
0001
0000
0000
0000
0001
0000
1000
0000
0000
0000
0010
0000
0100
0000
0010
0000
0000
0000
0000
0000
1000
0010
1000
0000
0000
0001
0000
0000
0010
0000
,
0001
0000
0000
0000
0000
0000
0001
0010
0001
0000
0000
1000
0000
0000
0100
0000
1000
0000
0000
0000
0000
0000
1000
0000
0001
0000
0000
0100
0000
0000
0001
0000
,
0100
0010
0000
0010
1000
0100
0001
0100
1000
0010
0100
0010
0100
0000
0010
0000
,
1000
0000
0001
0000
0010
0000
0100
0000
1000
0000
0000
0000
0100
0000
1000
0000
0010
0000
0000
0000
0000
0000
0100
0000
0010
0000
0000
0100
0000
0000
0001
0000
,
1000
0001
0000
0100
0010
0001
0010
0100
0010
1000
0100
0010
0001
0000
0001
0000
,
1000
0000
0001
0000
0100
0000
0001
0000
1000
0000
0000
0000
0000
0000
1000
0000
0010
0000
0000
0000
0000
0000
0010
0100
0010
0000
0000
1000
0000
0000
0001
0000
,
1000
0000
0100
1000
0010
0000
0100
0010
0001
0000
0001
0010
0100
0000
0001
0010
,
0001
0000
0000
0000
1000
0000
0100
0000
0010
0000
0000
0000
0010
0000
0100
0000
1000
0000
0000
0000
0001
0000
0100
0000
0010
0000
0000
0100
0000
0000
0010
0000
,
0100
0010
0000
0000
0000
0000
0000
0000
0000
0000
0000
0000
0000
0000
0000
0000
;

//---------------dance-single - ----------------
#NOTEDATA:;
#CHARTNAME:;
#STEPSTYPE:dance-single;
#DESCRIPTION:;
#CHARTSTYLE:;
#DIFFICULTY:Easy;
#METER:3;
#RADARVALUES:0.154427,0.153211,0.017023,0.144699,0.000000,127.000000,125.000000,2.000000,17.000000,0.000000,0.000000,0.000000,0.000000,0.000000,0.154427,0.153211,0.017023,0.144699,0.000000,127.000000,125.000000,2.000000,17.000000,0.000000,0.000000,0.000000,0.000000,0.000000;
#CREDIT:;
#NOTES:
0000
0000
0000
0000
,
0000
0000
0000
0000
,
0020
0000
0030
0000
0010
0000
0010
0100
,
0020
0030
1000
0000
,
1100
0000
1000
0000
0001
0000
0100
0010
,
0100
0001
1000
0200
,
0310
0000
0100
0000
1000
0000
0001
0010
,
0001
0001
1000
0020
,
0130
0001
1000
0010
,
0100
0000
0001
0000
0010
0100
0010
0000
,
0120
1000
2030
0001
,
3002
0100
0023
0001
,
0031
0100
0001
1000
,
0010
0100
0001
0200
,
0301
0010
0100
0010
,
0001
1000
0001
0020
,
0031
0010
0001
0000
0001
0010
0001
0000
,
1000
0100
0001
0100
,
1000
0100
1000
0000
1000
0100
1000
0000
,
0002
0000
0203
0320
2030
0000
0010
0000
,
3100
0000
1000
0001
1000
0000
1000
0100
,
0010
0100
1000
0001
,
0010
0000
0001
0010
0001
0000
0001
0010
,
0100
0010
0001
2000
,
3010
0000
1000
0000
0001
0000
1000
0010
,
1000
0001
0100
0020
,
0130
0000
0001
0000
1000
0000
0100
0010
,
0100
1000
0001
0200
,
0310
1000
0100
0010
,
0001
0010
0100
1000
,
0001
0000
0000
0000
;

//---------------dance-single - ----------------
#NOTEDATA:;
#CHARTNAME:;
#STEPSTYPE:dance-single;
#DESCRIPTION:;
#CHARTSTYLE:;
#DIFFICULTY:Beginner;
#METER:1;
#RADARVALUES:0.072958,0.101290,0.008512,0.102141,0.000000,60.000000,59.000000,1.000000,12.000000,0.000000,0.000000,0.000000,0.000000,0.000000,0.072958,0.101290,0.008512,0.102141,0.000000,60.000000,59.000000,1.000000,12.000000,0.000000,0.000000,0.000000,0.000000,0.000000;
#CREDIT:;
#NOTES:
// measure 0
0000
0000
0000
0000
,  // measure 1
0000
0000
0000
0000
,  // measure 2
0002
0003
2000
3000
,  // measure 3
0020
0030
0200
0300
,  // measure 4
0110
0000
0001
0000
,  // measure 5
1000
0000
0010
0000
,  // measure 6
1000
0000
0001
0000
,  // measure 7
0100
0000
0010
0000
,  // measure 8
0100
0000
0001
0000
,  // measure 9
0100
0000
0010
0000
,  // measure 10
1000
0000
0100
0000
,  // measure 11
0010
0000
0001
0000
,  // measure 12
1000
0000
0010
0000
,  // measure 13
0100
0000
0001
0000
,  // measure 14
1000
0000
0100
0000
,  // measure 15
1000
0000
0001
0000
,  // measure 16
0100
0020
2030
3200
,  // measure 17
2300
3001
0010
0000
,  // measure 18
0001
0000
1000
0000
,  // measure 19
0010
0000
0100
0000
,  // measure 20
0100
0000
0010
0000
,  // measure 21
1000
0000
0010
0000
,  // measure 22
0100
0000
0001
0000
,  // measure 23
0010
0000
0100
0000
,  // measure 24
1000
0000
0010
0000
,  // measure 25
0100
0000
0010
0000
,  // measure 26
1000
0000
0001
0000
,  // measure 27
0100
0000
0010
0000
,  // measure 28
2000
3000
0002
0003
,  // measure 29
0020
0030
0200
0300
;
