#TITLE:Don't Give Up;
#SUBTITLE:;
#ARTIST:Chicane feat. Bryan Adams;
#TITLETRANSLIT:;
#SUBTITLETRANSLIT:;
#ARTISTTRANSLIT:;
#GENRE:Trance;
#CREDIT:;
#BANNER:Don't Give Up-bn.png;
#BACKGROUND:Don't Give Up-bg.png;
#LYRICSPATH:;
#CDTITLE:cdtitle.png;
#MUSIC:Don't Give Up.ogg;
#OFFSET:0.112000;
#SAMPLESTART:73.978996;
#SAMPLELENGTH:29.091000;
#SELECTABLE:YES;
#BPMS:0.000000=132.000000
;
#STOPS:
;
#BGCHANGES:3.000=Don't Give Up.avi=1.000=1=0=0=StretchNoLoop==CrossFade==,
99999=-nosongbg-=1.000=0=0=0 // don't automatically add -songbackground-
;
#KEYSOUNDS:;
#ATTACKS:;

//---------------dance-single - ----------------
#NOTES:
     dance-single:
     X-Scale 2:
     Beginner:
     1:
     0.100179,0.160256,0.008250,0.000000,0.000000,85.000000,84.000000,1.000000,0.000000,0.000000,0.000000,0.100179,0.160256,0.008250,0.000000,0.000000,85.000000,84.000000,1.000000,0.000000,0.000000,0.000000:
// measure 0
0000
0000
0000
0000
,  // measure 1
0000
0000
0000
0000
,  // measure 2
0000
0000
0000
0000
,  // measure 3
0000
0000
0000
0000
,  // measure 4
0000
0000
0000
0001
,  // measure 5
0000
0000
0000
1000
,  // measure 6
0000
0000
0000
0001
,  // measure 7
0000
0000
0000
1000
,  // measure 8
0000
0000
0000
0100
,  // measure 9
0000
0000
0000
0010
,  // measure 10
0000
0000
0000
0100
,  // measure 11
0000
0000
0000
0010
,  // measure 12
0000
0000
0000
0001
,  // measure 13
0000
0000
0000
1000
,  // measure 14
0000
0000
0000
0001
,  // measure 15
0000
0000
0000
1000
,  // measure 16
0000
0000
0000
0010
,  // measure 17
0000
0000
0000
1000
,  // measure 18
0000
0000
0000
0001
,  // measure 19
0000
0000
0000
1000
,  // measure 20
0000
0000
0000
0010
,  // measure 21
0000
0000
0000
1000
,  // measure 22
0000
0000
0000
0100
,  // measure 23
0000
0000
0000
0010
,  // measure 24
0000
0000
0000
0001
,  // measure 25
0000
0000
0000
0000
,  // measure 26
0000
0000
0000
0000
,  // measure 27
0000
0000
0000
0000
,  // measure 28
0000
0000
0000
1000
,  // measure 29
0000
0000
0000
0010
,  // measure 30
0000
0000
0000
1000
,  // measure 31
0000
0000
0000
0010
,  // measure 32
0000
0000
0000
1000
,  // measure 33
0000
0001
0000
0100
,  // measure 34
0000
0000
0000
0001
,  // measure 35
0000
0000
0000
1000
,  // measure 36
0000
0100
0000
0010
,  // measure 37
0000
0000
0000
0001
,  // measure 38
0000
0000
0000
1000
,  // measure 39
0000
0000
0000
0001
,  // measure 40
0000
0000
0000
1001
,  // measure 41
0000
1000
0000
0001
,  // measure 42
0000
0100
0000
0001
,  // measure 43
0000
1000
0000
0100
,  // measure 44
0000
0010
0000
0100
,  // measure 45
0000
1000
0000
0001
,  // measure 46
0000
0100
0000
0001
,  // measure 47
0000
1000
0000
0001
,  // measure 48
0000
0010
0000
0100
,  // measure 49
0000
0010
0000
0001
,  // measure 50
0000
1000
0000
0010
,  // measure 51
0000
1000
0000
0001
,  // measure 52
0000
0010
0000
0001
,  // measure 53
0000
1000
0000
0100
,  // measure 54
0000
1000
0000
0001
,  // measure 55
0000
1000
0000
0100
,  // measure 56
0000
1000
0000
0001
,  // measure 57
0000
0100
0000
0001
,  // measure 58
0000
1000
0000
0001
,  // measure 59
0000
0100
0000
0001
,  // measure 60
0000
1000
0000
0100
,  // measure 61
0000
0010
0000
0001
,  // measure 62
0000
1000
0000
0001
,  // measure 63
0000
0010
0000
0100
,  // measure 64
0000
1000
0000
0001
;

//---------------dance-single - ----------------
#NOTES:
     dance-single:
     X-Scale 6:
     Easy:
     4:
     0.265179,0.320513,0.057750,0.264000,0.000000,225.000000,218.000000,7.000000,32.000000,0.000000,0.000000,0.265179,0.320513,0.057750,0.264000,0.000000,225.000000,218.000000,7.000000,32.000000,0.000000,0.000000:
// measure 0
0000
0000
0000
0000
,  // measure 1
0000
0000
0000
0000
,  // measure 2
0000
0000
0000
0000
,  // measure 3
0000
0000
0000
0000
,  // measure 4
0000
0000
0000
1000
,  // measure 5
0000
0000
0000
0001
,  // measure 6
0000
0000
0000
0100
,  // measure 7
0000
0000
0000
0010
,  // measure 8
0000
0000
0000
1001
,  // measure 9
0000
1000
0000
0001
,  // measure 10
0000
0100
0001
1000
,  // measure 11
0000
0100
0010
0001
,  // measure 12
0000
1000
0000
0001
,  // measure 13
0000
0100
0000
0001
,  // measure 14
0000
0010
0100
1000
,  // measure 15
0000
0000
0100
0000
0000
0010
0000
0001
,  // measure 16
0000
1000
0000
0001
0000
0000
1001
0000
,  // measure 17
1000
0000
0001
1000
0001
0000
0100
0000
,  // measure 18
0001
0000
1000
0100
1000
0000
0001
0000
,  // measure 19
0010
0000
0100
1000
0100
0000
0010
0000
,  // measure 20
0001
0000
1000
0001
1000
0000
0100
0000
,  // measure 21
0010
0000
0001
0010
0001
0000
1000
0000
,  // measure 22
0001
0000
0100
0001
0100
0000
0010
0000
,  // measure 23
0100
0000
0001
1000
0001
0000
0010
0000
,  // measure 24
0100
0000
1000
0100
1000
0000
1100
0000
,  // measure 25
0000
0000
0000
0001
,  // measure 26
0000
0000
0000
1000
,  // measure 27
0000
0000
0000
0100
,  // measure 28
0000
0000
0000
0010
,  // measure 29
0000
0000
0000
0001
0010
0000
0000
0001
,  // measure 30
1000
0000
0000
0001
0010
0000
0000
0001
,  // measure 31
1000
0000
0000
0001
0010
0000
0000
0001
,  // measure 32
1000
0000
0000
0001
0010
0000
0022
0000
,  // measure 33
0000
0033
2000
0000
0000
3001
0000
0000
,  // measure 34
0000
2000
0000
3200
0000
0320
0000
0000
,  // measure 35
0030
0000
0000
0001
0010
0002
0000
2003
,  // measure 36
0000
3020
0000
0130
0010
0200
0000
0000
,  // measure 37
0000
0300
0000
0001
1000
0000
0000
0100
,  // measure 38
0010
0000
0000
0100
1000
0000
0000
0100
,  // measure 39
0010
0000
0000
0001
0100
0000
0000
0001
,  // measure 40
1000
0000
0000
0100
0010
0000
1002
0000
,  // measure 41
0100
0000
2003
0000
3100
0010
0001
0000
,  // measure 42
0100
0002
0000
2003
0000
3200
0000
0000
,  // measure 43
1300
0000
0001
0100
0010
2000
0000
3200
,  // measure 44
0000
0320
0000
0130
0010
0002
0000
0000
,  // measure 45
1003
0001
0100
0010
,  // measure 46
1000
0100
0010
0001
,  // measure 47
1000
0001
0100
0010
,  // measure 48
0100
0001
1000
2001
,  // measure 49
0100
0000
3002
0000
0103
0001
1000
0000
,  // measure 50
0001
0200
0000
0320
0000
2030
0000
0000
,  // measure 51
3001
0000
1000
0100
0010
0200
0000
2300
,  // measure 52
0000
3002
0000
0103
0001
0020
0000
0000
,  // measure 53
0130
1000
0001
0100
,  // measure 54
0001
1000
0100
0010
,  // measure 55
0100
1000
0001
0100
,  // measure 56
0001
1000
0001
0012
,  // measure 57
1000
0000
1000
0000
,  // measure 58
1003
2000
0100
3002
,  // measure 59
0100
0000
1003
0000
0001
0000
0100
0001
,  // measure 60
1000
0000
0010
0000
0100
0000
0010
1000
,  // measure 61
0001
0000
0010
0000
0100
0000
0010
0001
,  // measure 62
1000
0000
0100
0000
0010
0000
0100
0010
,  // measure 63
0001
0000
1000
0000
0001
0000
0010
0100
,  // measure 64
1000
0002
0100
1003
;

//---------------dance-single - ----------------
#NOTES:
     dance-single:
     X-Scale 10:
     Medium:
     7:
     0.390108,0.400254,0.082500,0.445500,0.330000,331.000000,321.000000,10.000000,54.000000,0.000000,0.000000,0.390108,0.400254,0.082500,0.445500,0.330000,331.000000,321.000000,10.000000,54.000000,0.000000,0.000000:
// measure 0
0000
0000
0000
0000
,  // measure 1
0000
0000
0000
0000
,  // measure 2
0000
0000
0000
0000
,  // measure 3
0000
0000
0000
0000
,  // measure 4
0000
0000
0000
0002
,  // measure 5
0000
2003
0000
0000
3100
0000
2000
0000
,  // measure 6
0000
3002
0000
0000
0103
0000
0002
0000
,  // measure 7
0000
0023
0000
0000
0130
0000
2000
0000
,  // measure 8
0000
3002
0000
0000
0103
0000
0101
0000
,  // measure 9
0001
0000
0010
0200
0000
2300
0001
0000
,  // measure 10
3100
0000
0010
0000
0001
0200
1000
0000
,  // measure 11
0301
0000
0100
0010
1000
0200
0000
0320
,  // measure 12
0000
0030
0001
0010
0100
0000
1000
0000
,  // measure 13
0001
0000
0100
0002
0000
2003
0001
0000
,  // measure 14
3100
0000
1000
0000
0001
0020
1000
0000
,  // measure 15
0031
0000
1000
0100
0010
0002
0000
2003
,  // measure 16
0000
3020
0000
0230
0000
0300
0110
0000
,  // measure 17
0010
0000
1000
0010
1000
0000
0100
0000
,  // measure 18
0010
0000
0001
0010
0001
0000
0100
0000
,  // measure 19
0010
0000
1000
0010
1000
0000
0001
0000
,  // measure 20
0010
0000
0100
1000
0100
0001
0100
0010
,  // measure 21
0002
0000
1003
0001
0100
0000
0001
0000
,  // measure 22
0010
0000
0100
1000
0001
0100
1000
0100
,  // measure 23
0002
0000
1003
0001
0100
0000
0010
0000
,  // measure 24
0100
0000
0000
0000
0001
0100
0000
0000
0100
0000
0000
0000
1001
0000
0000
0000
,  // measure 25
0000
0000
1000
0000
0100
0000
0000
1000
0000
0001
0000
1000
0000
0000
0000
0000
,  // measure 26
0000
0000
0001
0000
0100
0000
0000
0010
0000
0100
0000
0010
0000
0000
0000
0000
,  // measure 27
0000
0000
0100
0000
0001
0000
0000
1000
0000
0100
0000
1000
0000
0000
0000
0000
,  // measure 28
0000
0000
0001
0000
0010
0100
0000
0001
0000
0100
0000
1000
0000
1000
0001
0000
,  // measure 29
0000
0000
0100
0000
0001
0000
0000
1000
0000
0100
0000
0010
0000
0000
0000
0000
,  // measure 30
0011
0000
0000
0000
0001
0000
0000
1000
0000
0001
0000
1000
0000
0000
0000
0000
,  // measure 31
1010
0000
0000
0000
0010
0000
0000
0100
0000
0010
0000
0100
0000
0000
0000
0000
,  // measure 32
1001
0000
0000
0000
1000
0000
0000
0100
0000
0010
0000
0100
2000
0000
0000
0000
,  // measure 33
0010
0000
3002
0000
0100
0203
0300
0000
,  // measure 34
0101
0002
0000
0023
0000
0230
0000
0000
,  // measure 35
1300
0000
0001
1000
0100
0020
0000
2030
,  // measure 36
0000
3002
0000
0103
0010
0002
1000
0000
,  // measure 37
0013
0000
0100
0000
1000
0000
0000
0100
0000
1000
0000
0100
0000
0000
0000
0000
,  // measure 38
1100
0000
0000
0000
0001
0000
0000
1000
0000
0001
0000
1000
0000
0000
0000
0000
,  // measure 39
0110
0000
0000
0000
0010
0000
0000
1000
0000
0010
0000
1000
0000
0000
0000
0000
,  // measure 40
2010
0001
0010
3002
,  // measure 41
0010
0000
0203
0000
0000
0320
1030
0100
,  // measure 42
0010
0002
0000
2003
0000
3020
0000
0000
,  // measure 43
0130
0000
0001
0010
0100
0002
0000
2003
,  // measure 44
0000
3020
0000
0130
1000
0002
0100
0000
,  // measure 45
1003
0000
0100
0000
0010
0000
0000
0100
0000
1000
0000
0100
0000
0000
0000
0000
,  // measure 46
1000
0000
0001
0000
0100
0000
0000
0001
0000
0010
0000
0001
0000
0000
0000
0000
,  // measure 47
0100
0000
0010
0000
1000
0000
0000
0100
0000
0010
0000
0100
0000
0000
0000
0000
,  // measure 48
1000
0000
0001
0000
0100
0000
0000
0010
0000
0100
0000
0010
2000
0000
0000
0000
,  // measure 49
0010
0000
3002
0000
0000
0103
0000
0010
,  // measure 50
0100
0002
0000
0023
0000
0230
0000
0000
,  // measure 51
1300
0100
1000
0010
0100
0002
0000
0023
,  // measure 52
0000
2030
0000
3001
0100
2000
0000
0000
,  // measure 53
3010
0000
1000
0000
0001
0000
0000
0010
0000
0100
0000
1000
0000
0000
0001
0000
,  // measure 54
0100
0000
0001
0000
0010
0000
0000
1000
0000
0010
0000
0001
0000
0000
1000
0000
,  // measure 55
0100
0000
1000
0000
0001
0000
0000
0100
0000
0010
0000
1000
0000
0000
0001
0000
,  // measure 56
0010
0000
0001
0000
1000
0000
0000
0100
0000
0010
0000
0001
1000
0000
0000
0000
,  // measure 57
0001
0100
0010
0000
1000
0000
0001
0010
,  // measure 58
0100
0000
0000
0000
2000
0000
0000
0000
3000
0000
0001
0200
0000
0000
0000
0000
,  // measure 59
1000
0000
0000
0000
0301
0000
0000
1000
0000
0100
0000
0010
0000
0000
0100
0000
,  // measure 60
1000
0000
0001
0000
0100
0000
0000
0001
0000
0010
0000
0001
0000
0001
1000
0000
,  // measure 61
0000
0000
0100
0000
1000
0000
0000
0001
0000
0100
0000
0001
0000
0000
0010
0000
,  // measure 62
0100
0000
0010
0000
0001
0000
0000
1000
0000
0010
0000
1000
0000
0000
0001
0000
,  // measure 63
0100
0000
0001
0000
1000
0000
0000
0100
0000
0010
0000
0100
0000
0000
1000
0000
,  // measure 64
0001
0000
0010
0000
0100
0000
0000
1000
0000
0100
0000
1000
0000
0000
0000
0000
;

//---------------dance-single - ----------------
#NOTES:
     dance-single:
     X-Scale 12:
     Hard:
     8:
     0.484393,0.560356,0.033000,0.288750,0.511501,411.000000,407.000000,4.000000,35.000000,0.000000,0.000000,0.484393,0.560356,0.033000,0.288750,0.511501,411.000000,407.000000,4.000000,35.000000,0.000000,0.000000:
// measure 0
0000
0000
0000
0000
,  // measure 1
0000
0000
0000
0000
,  // measure 2
0000
0000
0000
0000
,  // measure 3
0000
0000
0000
0000
,  // measure 4
0000
0000
0000
1000
,  // measure 5
0100
0000
0010
0100
1000
0000
0001
0000
,  // measure 6
0010
0000
0100
0010
0001
0000
1000
0000
,  // measure 7
0001
0000
0100
0001
1000
0000
0001
0000
,  // measure 8
0100
0000
0000
0010
0100
0010
0000
0000
0010
0000
0000
0000
1001
0000
0000
0000
,  // measure 9
1000
0000
0010
0200
0000
0320
1000
0000
,  // measure 10
0031
0010
0100
0001
1000
0200
0001
0000
,  // measure 11
0310
0100
1000
0001
0100
0020
0000
2030
,  // measure 12
3100
0000
1000
0001
0100
0000
0001
0000
,  // measure 13
0010
0000
0100
0020
0000
0032
0010
0000
,  // measure 14
1003
0000
0001
0010
0100
2000
0010
0000
,  // measure 15
3001
0000
1000
0001
0100
2000
0000
3020
,  // measure 16
0000
0032
0000
0203
0000
0300
0101
0001
,  // measure 17
1000
0000
0000
0100
0000
0100
1000
0000
0001
0000
0000
0000
0100
0000
0001
0000
,  // measure 18
1000
0000
0000
0010
0000
0010
0100
0000
0010
0000
0000
0000
1000
0000
0100
0000
,  // measure 19
0010
0000
0000
0001
0000
0001
1000
0000
0010
0000
0000
0000
1000
0000
0001
0000
,  // measure 20
0100
0000
0000
0010
0000
0010
0100
0000
0001
0000
0010
0000
1000
0000
0010
0000
,  // measure 21
0002
0000
0000
0100
0003
0100
0001
0000
1000
0000
0000
0000
0001
0000
0010
0000
,  // measure 22
0100
0000
0000
1000
0000
1000
0001
0000
1000
0000
0100
0000
0001
0000
0100
0000
,  // measure 23
2000
0000
0000
0010
3000
0010
1000
0000
0001
0000
0000
0000
0010
0000
0000
0000
,  // measure 24
0100
0000
0000
1000
0100
1000
0000
0000
1000
0000
0000
0000
1001
0000
0000
0000
,  // measure 25
0000
0000
0001
0000
0100
0000
0000
1000
0000
0100
0000
0001
0000
0000
0000
0000
,  // measure 26
0000
0000
1000
0000
0100
0000
0000
0001
0000
0100
0000
1000
0000
0000
0000
0000
,  // measure 27
0000
0000
0001
0000
0100
0000
0000
1000
0000
0100
0000
0001
0000
0000
0000
0000
,  // measure 28
0000
0000
1000
0000
0001
1000
0000
0100
0000
0001
0000
0100
0000
0010
0001
0000
,  // measure 29
0000
0000
1000
0000
0100
0000
0000
0001
0000
0100
0000
1000
0000
0000
0000
0000
,  // measure 30
0000
0000
0001
0000
0100
0000
0000
1000
0000
0100
0000
0001
0000
0000
0000
0000
,  // measure 31
0000
0000
1000
0000
0100
0000
0000
0001
0000
0100
0000
1000
0000
0000
0000
0000
,  // measure 32
0000
0000
0001
0000
1000
0000
0000
0100
0000
1000
0000
0001
2000
0000
0000
0000
,  // measure 33
0010
0000
3002
0000
0013
0100
0000
0100
,  // measure 34
1000
0002
0000
2003
0000
3200
0000
0000
,  // measure 35
0300
0000
0010
0100
1000
0002
0000
0203
,  // measure 36
0000
2300
0000
3001
0010
2000
0001
0000
,  // measure 37
3010
0000
1000
0000
0001
0000
0000
0010
0000
0100
0000
1000
0000
0000
0000
0000
,  // measure 38
0010
0000
1000
0000
0001
0000
0000
1000
0000
0001
0000
0100
0000
0000
0000
0000
,  // measure 39
0001
0000
1000
0000
0100
0000
0000
0010
0000
0100
0000
1000
0000
0000
0001
0000
,  // measure 40
0100
0000
0010
0000
1000
0010
1000
0010
0100
0001
0100
0001
2000
0000
0000
0000
,  // measure 41
0100
0000
3002
0000
0103
0001
1000
0001
,  // measure 42
0010
0000
0100
0000
1000
0001
1000
0001
0000
0010
0000
0100
0010
0000
0001
0000
,  // measure 43
1000
0000
0001
0000
0100
0010
0100
0000
0100
0000
0002
0000
0103
0000
2000
0000
,  // measure 44
3100
0002
1003
0001
0010
0200
1000
0000
,  // measure 45
0310
0000
0100
0000
1000
0001
1000
0001
0000
0100
0000
0010
0100
0000
0010
0000
,  // measure 46
0001
0000
0010
0000
1000
0001
1000
0001
0000
0100
0000
0001
0010
0000
1000
0000
,  // measure 47
0010
0000
0100
0000
1000
0100
1000
0100
0000
0010
0000
0001
1000
0000
0001
0000
,  // measure 48
0100
0000
0001
0000
0010
0100
0010
0100
0000
1000
0000
0001
2000
0000
0000
0000
,  // measure 49
0100
0000
3002
0000
0103
0001
0010
0100
,  // measure 50
1000
0000
0001
0000
1000
0010
1000
0010
0000
1000
0000
0100
0010
0000
0001
0000
,  // measure 51
1000
0000
0001
0000
0100
0001
0100
0000
0010
0000
2000
0000
3010
0000
0002
0000
,  // measure 52
0013
2000
3001
0010
0100
2000
0010
0000
,  // measure 53
3001
0000
1000
0000
0001
0100
0001
0100
0000
0001
0000
1000
0100
0000
1000
0000
,  // measure 54
0001
0000
0100
0000
1000
0100
1000
0100
0000
0001
0000
1000
0001
0000
0100
0000
,  // measure 55
0001
0000
0010
0000
0100
0010
0100
0010
0000
0001
0000
1000
0010
0000
1000
0000
,  // measure 56
0001
0000
0010
0000
0100
1000
0100
1000
0000
0001
0000
0100
0001
0000
0000
0000
,  // measure 57
1001
0000
0000
0000
1000
0000
0000
0001
0000
1000
0000
1000
0000
0000
0010
0000
,  // measure 58
1000
0000
0000
0000
0100
0000
0000
0010
0000
0001
0000
0001
0000
0000
0100
0000
,  // measure 59
0001
0000
0000
0000
0010
0000
0000
0100
0000
1000
0000
1000
0000
0000
0001
0000
,  // measure 60
1000
0000
0000
0000
1000
0000
0000
0100
0000
0010
0000
0100
0000
0100
1000
0000
,  // measure 61
0001
0000
1000
0000
0010
0000
0000
1000
0000
0001
0000
0010
0000
0000
0000
0000
,  // measure 62
0100
0000
0010
0000
0001
0000
0000
1000
0000
0001
0000
0100
0000
0000
0000
0000
,  // measure 63
0001
0000
0010
0000
0100
0000
0000
1000
0000
0001
0000
0100
0000
0000
0000
0000
,  // measure 64
0001
0000
0010
0000
0100
0000
0000
1000
0000
0100
0000
1000
0000
0000
0000
0000
;
