#TITLE:Doi;
#SUBTITLE:;
#ARTIST:Suboi;
#TITLETRANSLIT:;
#SUBTITLETRANSLIT:;
#ARTISTTRANSLIT:;
#GENRE:Trap;
#CREDIT:;
#BANNER:Doi-bn.png;
#BACKGROUND:Doi-bg.png;
#LYRICSPATH:;
#CDTITLE:cdtitle.png;
#MUSIC:Doi.ogg;
#OFFSET:0.000000;
#SAMPLESTART:78.065002;
#SAMPLELENGTH:20.500000;
#SELECTABLE:YES;
#BPMS:0.000000=93.000000
;
#STOPS:
;
#BGCHANGES:8.875=Doi.mp4=1.000=1=0=1===CrossFade==,
99999=-nosongbg-=1.000=0=0=0 // don't automatically add -songbackground-
;
#KEYSOUNDS:;
#ATTACKS:;

//---------------dance-single - ----------------
#NOTES:
     dance-single:
     :
     Challenge:
     9:
     0.499417,0.499401,0.044029,0.017612,0.528350,397.000000,392.000000,5.000000,2.000000,0.000000,0.000000,0.499417,0.499401,0.044029,0.017612,0.528350,397.000000,392.000000,5.000000,2.000000,0.000000,0.000000:
// measure 0
0000
0000
0000
0000
,  // measure 1
0000
0000
0000
0000
,  // measure 2
0000
0000
0000
0000
,  // measure 3
0000
0000
0000
0000
,  // measure 4
0000
0000
0000
0000
1000
0000
0000
1000
0000
1000
0001
0000
0010
0000
0100
0000
,  // measure 5
0010
0100
0010
0001
1000
0001
0100
0010
,  // measure 6
0100
0000
0001
0000
0010
0000
0000
0010
0000
0010
0100
0000
1000
0000
0001
0000
,  // measure 7
1000
0010
0100
0010
0001
0010
0100
0010
,  // measure 8
1000
0000
1010
0000
0100
0100
0000
1000
,  // measure 9
0001
1000
0010
0000
0010
0010
0100
0001
,  // measure 10
0400
0000
0310
0000
0110
0100
0010
0100
0001
0000
1000
0001
1000
0000
0010
0000
,  // measure 11
0100
0000
0010
0000
0100
0001
0100
0001
0100
0000
0010
1000
0001
1000
0010
0010
,  // measure 12
0100
0000
0000
0000
0001
0000
0010
0000
0100
0000
0010
0100
1000
0000
0001
1000
,  // measure 13
0001
0000
0010
0000
0001
0000
0000
0001
1000
0100
0010
0100
1000
0000
0001
1000
,  // measure 14
0000
0010
0100
0000
0010
0100
0010
0100
0010
0000
1000
0001
1000
0000
1000
0000
,  // measure 15
0010
0010
0010
0000
0100
0000
0001
0000
1000
0100
0010
0000
0001
0010
0100
0010
,  // measure 16
0001
0000
1000
0000
0001
0010
0100
1000
0001
0000
1000
0100
0010
0001
1000
0000
,  // measure 17
0010
1000
0010
0000
0100
0000
0000
0000
0010
0100
0010
0100
0010
0000
1000
0010
,  // measure 18
0000
0100
0001
0100
0101
0000
0000
0001
0000
0001
4000
0000
3010
0000
1000
0010
,  // measure 19
0000
0000
0000
0100
0000
0000
0010
0000
0000
0000
0000
0000
0010
0000
0000
0100
0000
0000
0001
0000
0000
0000
0000
0000
1000
0000
0000
0000
0000
0000
1000
0000
0000
0010
0000
0000
1000
0000
0000
0000
0100
0000
0000
0000
1000
0000
0000
0000
,  // measure 20
0010
0000
0000
0000
0100
0000
0000
0000
0001
0000
0000
0000
0100
0000
0000
0000
0000
0000
0000
0000
0000
0010
0000
0000
0000
0000
0000
0010
0000
0000
0400
0000
0000
0000
0000
0000
0310
0000
0000
0100
0000
0000
0000
0000
0000
0100
0000
0000
,  // measure 21
0001
0000
0000
0000
0000
0000
1000
0000
0000
0000
0000
0000
0001
0000
0000
0000
0000
0000
0100
0000
0000
0000
0000
0000
0001
0000
0000
1000
0000
0000
0001
0000
0000
1000
0000
0000
0004
0000
0000
0003
0100
0000
0000
0000
0001
0000
0000
0000
,  // measure 22
1000
0000
0000
0000
0100
0000
0000
0000
0010
0000
0000
0000
0001
0000
0000
0000
0000
0000
0001
0000
0000
1000
0000
0000
0100
0000
0000
1000
0000
0000
0040
0000
0000
0000
0000
0000
0130
0000
0000
0000
0000
0000
0010
0000
0000
0100
0000
0000
,  // measure 23
0010
0100
0010
0100
0010
0000
1000
0000
0001
0001
0000
0000
0100
0010
0001
0010
,  // measure 24
0100
0000
0010
1000
0010
0000
0100
0010
1000
0010
4000
0000
3001
0000
0001
0010
,  // measure 25
0100
0000
0100
0000
1000
0001
0000
1000
0010
0100
0010
1000
0020
0000
0000
0000
,  // measure 26
0100
0000
1000
0030
0010
0000
1000
0000
0001
0000
4000
0000
3100
0000
0010
0000
,  // measure 27
0001
0000
0000
0000
0000
0000
0010
0000
0000
0001
0000
0000
0100
0000
0000
0000
0000
0000
0010
0000
0000
0000
0000
0000
0001
0000
0000
0000
0000
0000
0010
0000
0000
0000
0000
0000
1000
0000
0000
0000
0100
0000
0000
0000
1000
0000
0000
0000
,  // measure 28
0100
0000
0000
0000
0010
0000
0000
0000
0100
0000
0000
0000
0010
0000
0000
0000
0000
0000
0100
0000
0000
0010
0000
0000
0100
0000
0000
0000
0000
0000
4000
0000
0000
0000
0000
0000
3001
0000
0000
0001
0000
0000
0010
0000
0000
0100
0000
0000
,  // measure 29
1000
0100
0010
0000
0010
0000
0001
0000
0010
0001
0100
0001
1000
0010
1000
0000
,  // measure 30
0000
0000
1000
0100
1100
0000
1000
0000
0001
0000
4000
0000
3010
0000
0010
0000
,  // measure 31
0010
0000
0010
0000
0100
0000
0001
1000
0001
0000
0010
0000
0100
0010
0001
0000
,  // measure 32
1000
0000
0000
0000
0001
0000
0000
0000
1000
0000
0000
0000
0001
0000
0000
0000
0000
0000
0001
0000
0000
0100
0000
0000
0001
0000
0000
0000
0000
0000
0040
0000
0000
0000
0000
0000
0130
0000
0000
0000
0000
0000
0100
0000
0000
0000
0000
0000
,  // measure 33
0100
0000
0000
0000
0000
0000
0100
0000
0000
0000
0000
0000
1000
0000
0000
0000
0000
0000
0001
0000
0000
0000
0000
0000
1000
0000
0000
0010
0000
0000
1000
0000
0000
0010
0000
0000
1000
0000
0000
0000
0010
0000
0000
0000
0100
0000
0000
0000
,  // measure 34
0001
0000
1000
0000
0001
0000
0100
0000
0000
0010
0000
0000
0100
0000
0000
0004
0000
0000
1003
0000
0000
1000
0000
0000
,  // measure 35
1000
0000
1000
0000
0001
0000
0100
0010
0100
0000
0001
0000
1000
0010
1000
0000
,  // measure 36
0001
0000
0000
0000
0100
0000
0000
0000
0001
0000
0000
0000
1000
0000
0000
0000
0000
0000
1000
0000
0000
0001
0000
0000
1000
0000
0000
0000
0000
0000
0400
0000
0000
0000
0000
0000
0301
0000
0000
0000
0000
0000
0001
0000
0000
0000
0000
0000
,  // measure 37
0001
0000
0000
0000
0000
0000
0001
0000
0000
0000
0000
0000
0100
0000
0000
0000
0000
0000
1000
0000
0000
0000
0000
0000
0010
0000
0000
1000
0000
0000
0010
0000
0000
0100
0000
0000
0010
0000
0000
0000
0100
0000
0000
0000
0001
0000
0000
0000
,  // measure 38
1000
0000
0000
0000
0010
0000
0000
0000
0100
0000
0000
0000
0101
0000
0000
0000
0000
0000
0000
0000
0000
0001
0000
0000
0000
0000
0000
0001
0000
0000
1000
0000
0000
0000
0000
0000
0010
0000
0000
0000
0000
0000
1000
0000
0000
0000
0000
0000
,  // measure 39
0100
0000
0010
0000
0001
0000
1000
0001
1000
0010
0100
0010
0000
0010
1000
0000
,  // measure 40
0001
0000
0100
0000
0001
0000
0000
1000
0000
1000
0010
0000
1000
0000
0001
0000
,  // measure 41
0010
0000
0100
0000
1000
0000
0100
0000
0010
0000
0001
1000
0000
1000
0010
0000
,  // measure 42
0100
0000
0010
0000
0200
0000
0000
0010
0000
0010
0010
0000
0310
0000
0000
0000
,  // measure 43
0010
0100
0004
0000
0103
0000
0001
0000
0010
0000
0100
0000
0000
0000
0000
0000
;

//---------------dance-single - ----------------
#NOTES:
     dance-single:
     :
     Hard:
     8:
     0.418906,0.422570,0.070447,0.070447,0.242161,333.000000,325.000000,8.000000,8.000000,0.000000,0.000000,0.418906,0.422570,0.070447,0.070447,0.242161,333.000000,325.000000,8.000000,8.000000,0.000000,0.000000:
// measure 0
0000
0000
0000
0000
,  // measure 1
0000
0000
0000
0000
,  // measure 2
0000
0000
0000
0000
,  // measure 3
0000
0000
0000
0000
,  // measure 4
0000
0000
0000
0000
0001
0000
0000
1000
0000
1000
0001
0000
0010
0000
0100
0000
,  // measure 5
0010
0010
0001
1000
0000
0001
0100
0000
,  // measure 6
0100
0000
0001
0000
0010
0000
0000
0100
0000
0100
0010
0000
0001
0000
1000
0000
,  // measure 7
0001
0010
0100
0010
0000
0010
0001
0000
,  // measure 8
2000
0000
0000
3000
1001
0000
0000
0000
0100
0000
0001
0000
0000
0000
0001
0000
,  // measure 9
0100
0010
2000
0000
3020
2030
3001
0100
,  // measure 10
0040
0000
0130
0000
0110
0000
0010
0000
1000
0000
1000
0001
1000
0000
0010
0000
,  // measure 11
0100
0000
0010
0000
1000
0000
0100
0000
0010
0000
0001
1000
0001
0000
0010
0000
,  // measure 12
0100
0000
0000
0000
0100
0000
0010
0000
0100
0000
0010
0100
0001
0000
0100
1000
,  // measure 13
0100
0000
0010
0000
0001
0000
0000
0000
1000
0100
1000
0100
1000
0000
0001
0001
,  // measure 14
0000
1000
1000
0000
0010
0000
0100
0000
0010
0000
1000
0001
1000
0000
1000
0000
,  // measure 15
0010
0010
1000
0000
0001
0000
0010
0000
0001
1000
0001
0000
1000
0000
0100
0000
,  // measure 16
0001
0100
1000
0010
0100
0001
0010
1000
,  // measure 17
0010
0001
0010
0000
0100
0000
0000
0000
0010
0001
0010
0001
0010
0000
0001
1000
,  // measure 18
0000
0100
0000
0000
1100
0000
0000
0001
0000
0001
4000
0000
3010
0000
0010
0100
,  // measure 19
0000
0010
0000
0000
1000
0000
0001
0000
1000
0000
0010
0000
1000
0000
0100
0000
,  // measure 20
0010
0000
0100
0000
0010
0000
0000
0001
0000
0001
0400
0000
0310
0000
0000
0000
,  // measure 21
0001
0000
1000
0000
0001
0000
0100
0000
0010
0100
0010
0100
0010
0000
0100
0000
,  // measure 22
1000
0000
0100
0000
0010
0000
0000
0100
0000
0100
0040
0000
0130
0000
0010
0000
,  // measure 23
1000
0000
0001
0000
0010
0000
0100
0000
0010
0010
0000
0000
0001
0000
0010
0000
,  // measure 24
0100
0000
1000
1000
0010
0000
0000
0100
0000
0100
0004
0000
0103
0000
0001
0000
,  // measure 25
0100
0000
0010
0000
1000
0000
0001
0000
0100
0010
0100
0001
0200
0000
0000
0000
,  // measure 26
0001
0000
0310
0100
0001
0010
0100
0010
,  // measure 27
0001
0000
0010
0001
1000
0000
0010
0000
0001
0000
0010
0000
1000
0000
0100
0000
,  // measure 28
1000
0001
0010
0100
0010
0001
1000
0001
,  // measure 29
1000
0010
0100
0001
0010
0100
1000
0200
,  // measure 30
0300
0000
0010
0100
0110
0000
0010
0000
0001
0000
4000
0000
3001
0000
0001
0000
,  // measure 31
0001
0000
0001
0000
0100
0000
0001
1000
0001
0000
0010
0000
0100
0010
0100
0000
,  // measure 32
1000
0000
0001
0000
1001
0000
0001
0100
0001
0000
4000
0000
3010
0000
0010
0000
,  // measure 33
0010
0000
0010
0000
1000
0000
0001
0000
1000
0100
1000
0100
1000
0000
0010
0000
,  // measure 34
1000
0100
1100
0010
1000
0004
1003
1000
,  // measure 35
1000
0000
1000
0000
0001
0000
0100
0010
0100
0000
0001
0000
0010
0100
0010
0000
,  // measure 36
0001
0000
1000
0000
1001
0000
1000
0001
1000
0000
0004
0000
0103
0000
0100
0000
,  // measure 37
0100
0000
0100
0000
0001
0000
1000
0000
0010
1000
0010
1000
0010
0000
1000
0000
,  // measure 38
0200
0000
0000
0300
1100
0000
0000
0001
0000
0001
1000
0000
0010
0000
1000
0000
,  // measure 39
0100
0000
1000
0000
0001
0000
0001
0000
1000
0000
1000
0010
0000
0010
1000
0000
,  // measure 40
0001
0000
0100
0000
0001
0000
0000
1000
0000
1000
0010
0000
1000
0000
0001
0000
,  // measure 41
0010
0000
0010
0100
1000
0001
0010
0000
,  // measure 42
0001
0000
0010
0000
0002
0000
0000
0010
0000
0000
0100
0000
0103
0000
0000
0000
,  // measure 43
0000
0000
1000
0001
0100
0001
0000
0000
;

//---------------dance-single - ----------------
#NOTES:
     dance-single:
     :
     Medium:
     6:
     0.347202,0.364947,0.070447,0.070447,0.070447,276.000000,268.000000,8.000000,8.000000,0.000000,0.000000,0.347202,0.364947,0.070447,0.070447,0.070447,276.000000,268.000000,8.000000,8.000000,0.000000,0.000000:
0000
0000
0000
0000
,
0000
0000
0000
0000
,
0000
0000
0000
0000
,
0000
0000
0000
0000
,
0000
0000
0001
0010
0100
1000
0010
0100
,
0010
0000
1000
0001
0000
0001
0100
0000
,
0010
0100
1000
0100
0010
0100
0001
1000
,
0001
0100
0010
0100
0000
0100
0001
0000
,
0002
0000
0000
0003
0101
0000
0000
0000
0100
0000
0001
0000
0000
0000
1000
0000
,
0100
0010
0002
0000
0023
0032
0013
0100
,
1000
1000
1100
0000
1000
0100
0010
0100
,
0010
0100
1000
1000
0001
1000
0001
0010
,
0100
0000
0010
0000
0010
0100
1000
0001
,
1000
0010
0100
0000
0001
0010
0001
0000
,
0100
0000
0101
0000
0010
1000
0100
1000
,
0010
1000
0010
0000
0100
0000
0010
0000
0100
0000
0001
0000
0010
0000
0100
0000
,
1000
0000
1000
0000
0100
0010
0001
1000
,
0001
0000
0010
0000
0100
0000
0000
0000
0010
0001
0010
0001
0010
0000
0001
0000
,
0010
0100
0110
0000
0010
1000
0010
0000
,
0010
0001
1000
0001
0010
0100
1000
0000
,
1000
0100
1000
0000
0010
0100
0001
0000
,
0001
0000
1000
0000
0001
0000
0100
0000
0001
0100
0001
0100
0001
0000
0000
0000
,
0010
0000
0100
0000
1000
0000
0000
0100
0000
0100
1000
0000
0100
0000
1000
0000
,
0100
0000
0010
0000
0001
0000
0000
0000
0010
0001
0000
0000
0001
0000
0010
0000
,
0100
0000
1000
0000
0010
0000
0000
0100
0000
0100
0010
0000
0100
0000
0010
0000
,
1000
0000
0100
0000
0010
0000
0001
0000
0010
0001
0010
0001
0020
0000
0000
0000
,
0000
0000
0031
0000
0010
0100
1000
0100
,
0010
0100
1000
0000
0001
1000
0010
0100
,
1000
0100
0010
0000
0010
0001
0010
0100
,
0010
0001
1000
0000
0010
0100
1000
0200
,
0300
0000
1100
0000
0010
1000
0100
0010
,
0100
0000
1000
0000
0001
0000
0000
0000
0001
0000
0010
0000
0001
0100
0001
0000
,
1000
0000
0011
0000
0100
0001
0010
0100
,
0010
0000
0001
0000
1000
0000
0000
0000
0010
0100
0010
0100
0010
0000
1000
0000
,
0001
0000
1001
0000
0100
0010
0100
1000
,
0100
0000
0010
0000
0100
0000
0000
0000
0100
0000
0010
0000
1000
0010
1000
0000
,
0001
0000
1010
0000
1000
0100
0010
0100
,
1000
0100
0010
0000
0001
0010
0001
1000
,
0002
0000
1003
0000
0001
1000
0001
0010
,
0100
1000
0100
0000
1000
0010
0100
0001
,
0010
0100
1000
0000
0001
0010
1000
0010
,
0001
0000
1000
0100
0000
0100
0010
0000
,
0001
0010
0200
0000
0000
0000
0310
0000
,
0000
0000
1000
0001
1000
0001
0000
0000
;

//---------------dance-single - ----------------
#NOTES:
     dance-single:
     :
     Easy:
     4:
     0.270465,0.288116,0.070447,0.061641,0.000000,215.000000,207.000000,8.000000,7.000000,0.000000,0.000000,0.270465,0.288116,0.070447,0.061641,0.000000,215.000000,207.000000,8.000000,7.000000,0.000000,0.000000:
0000
0000
0000
0000
,
0000
0000
0000
0000
,
0000
0000
0000
0000
,
0000
0000
0000
0000
,
0000
0000
0001
0000
0000
0010
0001
0000
,
1000
0000
0000
0100
0000
0100
1000
0000
,
0010
0100
0001
0000
0000
0100
0001
0000
,
0010
0000
0100
1000
0000
1000
0001
0000
,
0200
0000
0320
0000
0000
0100
0030
0010
,
0100
0001
2000
0000
0001
0000
0010
0000
,
3100
1000
1100
0000
0100
0010
0001
0000
,
0010
0001
0000
0001
1000
0000
0100
0010
,
0100
0000
0010
0000
0010
0100
1000
0000
,
1000
0010
0000
0000
0010
0100
0010
0000
,
0000
0000
0110
0000
0010
1000
0001
0000
,
0100
0100
0000
0000
0001
1000
0001
0000
,
1000
0000
0010
0000
0100
0100
0001
1000
,
0001
0010
0100
0000
0010
0001
0010
0000
,
0000
0000
0011
0000
0001
0010
0100
0000
,
0000
0010
0000
0010
0001
1000
0001
0000
,
1000
0100
1000
0000
0010
0100
0001
0000
,
0000
1000
0000
1000
0001
0100
0001
0000
,
0010
0100
1000
0000
0000
0000
1010
0000
,
1000
0010
0100
0001
0010
0000
0001
0010
,
0100
0010
0001
1000
0000
0000
1000
0010
,
1000
0100
0000
0000
1000
0010
2000
0000
,
0000
0000
3001
0000
1000
0010
0000
0100
,
0010
0100
0001
0000
0001
1000
0010
0100
,
1000
0100
0010
0000
0100
0001
0000
0001
,
0010
0100
1000
0000
0010
0100
0010
0200
,
0300
0000
0110
0000
0000
0000
0100
0010
,
0100
0010
0100
0000
0001
0010
0001
0000
,
1000
0000
1001
0000
0000
0000
0001
1000
,
0001
1000
0010
0000
0010
0100
0010
1000
,
0001
0000
1001
0000
0000
0000
1000
0100
,
0010
0001
1000
0000
0100
0010
1000
1000
,
0001
0000
1010
0000
0000
0000
0001
0010
,
0100
1000
0001
0000
0001
0010
0001
1000
,
0002
0000
1003
0000
0001
1000
0001
0000
,
0100
1000
0100
0000
1000
0010
0100
0001
,
0010
0100
1000
0000
0001
0010
1000
0010
,
0001
0000
1000
0100
0000
0100
0010
0000
,
0001
0010
0200
0000
0000
0000
0300
0000
,
0000
0000
1000
0000
0001
0100
0000
0000
;

//---------------dance-single - ----------------
#NOTES:
     dance-single:
     :
     Beginner:
     2:
     0.159763,0.207047,0.035223,0.088058,0.000000,127.000000,123.000000,4.000000,10.000000,0.000000,0.000000,0.159763,0.207047,0.035223,0.088058,0.000000,127.000000,123.000000,4.000000,10.000000,0.000000,0.000000:
0000
0000
0000
0000
,
0000
0000
0000
0000
,
0000
0000
0000
0000
,
0000
0000
0000
0000
,
0000
0000
1000
0000
0000
0010
0000
0000
,
1000
0000
0100
0000
0000
0010
0000
0000
,
0001
0000
0001
0000
0000
0100
0000
0000
,
0010
0000
1000
0000
0000
1000
0000
0000
,
0200
0000
2300
0000
0000
0100
0000
0000
,
0001
0000
3002
0000
0000
0100
0000
0000
,
0000
1000
1003
0000
0000
0000
0001
0000
,
0000
0001
0000
0010
0100
0000
0000
0000
,
0100
0010
0000
0001
,
0000
0001
0000
0000
1000
0000
0010
0000
,
0000
0100
0000
0100
,
0000
0001
0000
0000
0002
0000
0000
0000
,
1000
1003
0000
0001
,
0000
0010
0000
0000
0100
0000
0010
0000
,
0000
0110
0000
0100
,
0000
0010
0000
0010
1000
0000
0000
0000
,
0100
1000
0000
0100
,
0000
1000
0000
1000
0001
0000
0200
0000
,
0320
0130
0000
0101
,
0000
0001
0000
0000
0001
0000
1000
0000
,
0100
1000
0000
0100
,
0000
0010
0000
0000
0001
0000
0020
0000
,
0000
0000
0031
0000
0000
0001
0000
0000
,
1000
0100
1000
0000
0000
1000
0000
0000
,
0001
0100
0010
0000
0000
0010
0000
0000
,
0010
0100
0001
0000
0000
1000
0000
2000
,
3000
1001
0000
0100
,
0000
0100
0000
0001
0100
0000
0010
0000
,
0000
0100
0000
0001
,
0000
0000
1000
0000
0000
0000
0010
1000
,
0010
1010
0000
0100
,
0000
0010
0000
0010
1000
0000
0001
0010
,
0001
0100
0000
0001
,
0000
1000
0000
0000
0001
0010
0100
0000
,
2000
0000
3100
0000
0000
1000
1000
0000
,
0100
0010
0100
0000
0010
0001
0000
0000
,
0001
0000
1000
0000
0000
0001
0001
0000
,
0100
0000
0000
0010
0000
0010
1000
0000
,
0100
0020
0000
0030
;
