#VERSION:0.83;
#TITLE:Discovery;
#SUBTITLE:;
#ARTIST:Syn Cole & Victor Crone;
#TITLETRANSLIT:;
#SUBTITLETRANSLIT:;
#ARTISTTRANSLIT:;
#GENRE:Commercial House;
#ORIGIN:;
#CREDIT:;
#BANNER:Discovery-bn.png;
#BACKGROUND:Discovery-bg.png;
#PREVIEWVID:;
#JACKET:Discovery-jacket.png;
#CDIMAGE:;
#DISCIMAGE:;
#LYRICSPATH:;
#CDTITLE:cdtitle.png;
#MUSIC:Discovery.ogg;
#OFFSET:-0.002000;
#SAMPLESTART:75.001999;
#SAMPLELENGTH:15.000000;
#SELECTABLE:YES;
#BPMS:0.000=128.000;
#STOPS:;
#DELAYS:;
#WARPS:;
#TIMESIGNATURES:0.000=4=4;
#TICKCOUNTS:0.000=4;
#COMBOS:0.000=1;
#SPEEDS:0.000=1.000=0.000=0;
#SCROLLS:0.000=1.000;
#FAKES:;
#LABELS:0.000=Song Start;
#BGCHANGES:
;
#KEYSOUNDS:;
#ATTACKS:
;

//---------------dance-single - ----------------
#NOTEDATA:;
#CHARTNAME:X-Scale 11;
#STEPSTYPE:dance-single;
#DESCRIPTION:;
#CHARTSTYLE:;
#DIFFICULTY:Hard;
#METER:8;
#RADARVALUES:0.441481,0.566567,0.082778,0.423086,0.211543,336.000000,327.000000,9.000000,46.000000,0.000000,0.000000,0.000000,0.000000,0.000000,0.441481,0.566567,0.082778,0.423086,0.211543,336.000000,327.000000,9.000000,46.000000,0.000000,0.000000,0.000000,0.000000,0.000000;
#CREDIT:;
#NOTES:
// measure 0
0000
0000
0000
0000
,  // measure 1
0000
0000
0000
0000
,  // measure 2
0000
0000
0000
0000
,  // measure 3
0000
0000
0000
0000
,  // measure 4
0002
0000
0000
0000
0000
0000
0000
0000
2003
0000
3000
0020
0000
0030
2000
0000
,  // measure 5
3002
0000
0000
0023
0000
0000
0000
0000
,  // measure 6
2030
0000
0000
3020
0000
0000
0000
0000
,  // measure 7
0032
0000
0000
0000
,  // measure 8
1003
0000
0000
0001
0100
0010
0100
0002
,  // measure 9
0003
0020
0030
0200
0000
0000
0000
0000
,  // measure 10
1300
0000
0001
0100
1000
0001
0010
2000
,  // measure 11
3002
1000
0100
1000
,  // measure 12
0013
0001
1000
0001
0100
0010
1000
0200
,  // measure 13
0300
0020
0030
0001
0000
1000
0001
1000
,  // measure 14
0000
0010
1000
0002
0003
0020
0030
0002
,  // measure 15
1000
0003
1000
0100
0010
0001
0100
0010
,  // measure 16
1001
0000
2000
0000
3100
0010
0001
2000
,  // measure 17
3000
0200
0300
2000
0000
0000
3002
0000
,  // measure 18
0203
0000
0310
0100
1000
0100
0001
0020
,  // measure 19
0100
0031
1000
0001
,  // measure 20
0100
0000
0010
0100
2000
0000
3100
0002
,  // measure 21
0003
2000
3000
0200
0000
0310
0100
1000
,  // measure 22
0001
1000
0100
0020
0030
0002
0003
2000
,  // measure 23
0010
3000
1000
0000
0001
0100
0010
0100
,  // measure 24
0110
0000
0000
0000
0010
1000
0010
0000
1000
0000
0100
0000
0010
0000
0002
0000
,  // measure 25
0003
2000
3000
0100
1000
0001
0010
0100
,  // measure 26
1000
0001
1000
0000
0010
0020
0100
0030
,  // measure 27
1000
0100
0010
0000
0001
0002
0100
0003
,  // measure 28
0001
0010
0200
0000
1300
0100
0001
0200
,  // measure 29
0300
2000
3000
0002
0000
0103
0001
1000
,  // measure 30
0001
0010
0200
0000
1300
2000
0001
3000
,  // measure 31
1000
0010
0100
0000
0001
0002
1000
1003
,  // measure 32
1001
0000
0000
0000
1000
0000
0000
0000
0010
0000
0000
0100
0010
0000
0100
0000
,  // measure 33
0001
0000
0000
1000
0001
0000
1000
0000
0100
0000
0000
0000
0010
0000
0100
0000
,  // measure 34
1000
0000
0000
0001
1000
0000
0001
0000
0100
0000
0000
0000
0010
0000
0100
0000
,  // measure 35
0001
0000
0100
0000
0010
0000
1000
0001
,  // measure 36
1000
0000
0000
0000
0100
0000
0000
0000
0010
0000
0000
0001
0010
0000
0001
0000
,  // measure 37
1000
0000
0100
1000
0001
0000
0100
0010
,  // measure 38
1000
0000
0001
0010
0001
0000
1000
0100
,  // measure 39
0010
0000
0000
0000
0000
0000
0000
0000
0001
0000
0010
0001
0010
0000
0001
0000
,  // measure 40
0011
0000
0000
0010
0001
0000
0010
0000
0100
1000
0000
0000
0001
0000
1000
0000
,  // measure 41
0100
0000
0000
0010
0001
0000
1000
0000
0001
0000
0000
0000
0200
0000
0000
0000
,  // measure 42
0310
0000
0000
0100
0010
0000
1000
0000
0001
1000
0000
0000
0100
0000
0000
0000
,  // measure 43
0001
0000
0100
0000
1000
0000
0100
0000
1000
0010
0000
0000
1010
0000
0000
0000
,  // measure 44
0011
0000
0000
0010
0001
0000
1000
0000
0001
0010
0000
0000
0100
0000
1000
0000
,  // measure 45
0001
0000
0000
0100
0010
0000
1000
0000
0001
1000
0000
0000
0200
0000
0000
0000
,  // measure 46
0310
0000
0000
0001
0010
0000
0001
0000
1000
0000
0000
0000
0100
0000
0000
0000
,  // measure 47
0001
0000
0100
0000
1000
0000
0100
0000
0000
1000
0000
0000
0001
0000
0001
0000
,  // measure 48
1001
0000
0000
1000
0100
0000
1000
0000
0001
1000
0000
0000
0010
0100
0010
0100
,  // measure 49
0010
0000
0000
1000
0100
0000
1000
0000
0001
0100
0000
0000
0001
0100
0001
0100
,  // measure 50
0001
0000
0000
1000
0100
0000
1000
0000
0010
0100
0000
0000
0001
1000
0001
1000
,  // measure 51
0001
0000
0010
0000
0100
0000
1000
0000
0001
1000
0000
0000
1001
0000
1000
0000
,  // measure 52
1100
0000
0000
0100
0010
0000
0001
0000
1000
0010
0000
0000
0100
0010
0100
0010
,  // measure 53
0100
0000
0000
0001
0010
0000
0100
0000
1000
0001
0000
0000
1000
0010
1000
0010
,  // measure 54
1000
0000
0000
0001
0010
0000
0001
0000
1000
0010
0000
0000
0100
0010
0100
0010
,  // measure 55
0100
0000
0000
0001
0000
0000
1000
0000
0000
0001
0000
0000
0010
0000
0100
0000
,  // measure 56
0010
0000
0000
0000
;

//---------------dance-single - ----------------
#NOTEDATA:;
#CHARTNAME:X-Scale 8;
#STEPSTYPE:dance-single;
#DESCRIPTION:;
#CHARTSTYLE:;
#DIFFICULTY:Medium;
#METER:6;
#RADARVALUES:0.369215,0.437802,0.045988,0.312716,0.137963,281.000000,276.000000,5.000000,34.000000,0.000000,0.000000,0.000000,0.000000,0.000000,0.369215,0.437802,0.045988,0.312716,0.137963,281.000000,276.000000,5.000000,34.000000,0.000000,0.000000,0.000000,0.000000,0.000000;
#CREDIT:;
#NOTES:
0000
0000
0000
0000
,
0000
0000
0000
0000
,
0000
0000
0000
0000
,
0000
0000
0000
0000
,
2000
0000
0000
0000
0000
0000
0000
0000
3100
0000
0000
1000
0000
0000
0100
0000
,
0020
0000
0030
0002
0000
0003
0000
0000
,
2000
0000
3000
0002
0000
0003
0000
0000
,
0200
0000
0000
0000
,
0320
0000
0000
0000
0000
0000
0000
0000
1030
0000
0000
0010
0000
0000
1000
0000
,
0002
0000
0003
0020
0000
0030
0000
0000
,
0100
0000
1000
0100
0010
0001
0100
0010
,
2000
0000
0000
0000
,
3002
0000
0000
0000
0000
0000
0000
0000
0103
0000
0000
0010
0000
0000
0100
0000
,
0002
0000
0003
2000
0000
3000
0010
0200
,
0300
0002
0003
2000
3000
0002
0003
0020
,
0030
0200
0300
2000
3000
0002
0003
2000
,
3001
0000
0000
0000
1000
0000
0000
0000
0001
0000
0000
0010
0000
0000
0001
0000
,
0100
0000
0010
0100
0001
0000
1000
0000
,
0010
0000
0100
0001
1000
0100
0001
0100
,
1000
0000
0010
0100
0001
0000
1000
0000
,
0001
0000
0000
0000
0010
0000
0100
0000
1000
0000
0000
0001
0000
0000
1000
0000
,
0010
0000
0000
0100
0000
0000
0010
0000
0000
0000
1000
0000
0100
0000
0010
0000
,
0001
0200
0300
0002
0003
2000
3000
0002
,
0013
0100
0010
0100
,
1100
0000
1000
0100
0010
0001
0100
0010
,
1000
0000
0001
0010
0001
0000
1000
0000
,
0010
0100
0001
0000
1000
0000
0010
0100
,
0001
1000
0100
0000
0010
0001
1000
0000
,
0010
0000
0100
0000
0001
0010
0100
1000
,
0001
0000
1000
0100
0010
0000
0100
0000
,
1000
0010
0100
0001
1000
0000
0010
0000
,
0100
0010
1000
0000
0001
0100
0010
0000
,
0110
0000
0000
0000
1000
0000
0000
0000
0001
0000
0000
0010
0000
0000
0001
0000
,
1000
0000
0100
0010
0001
0000
1000
0000
,
0001
0000
0100
0010
1000
0000
0100
0000
,
0010
0001
0000
1000
0000
0001
0000
1000
,
0010
0000
0000
0000
1000
0000
0000
0000
0001
0000
0000
0010
0000
0000
0001
0000
,
0100
0000
0010
1000
0001
0000
1000
0100
,
0010
0000
0100
1000
0001
0000
0010
0100
,
1000
0000
0000
0000
0001
0000
0001
0010
,
0011
0000
0000
0010
0000
0000
0100
0000
2000
0000
0000
0000
3001
0000
1000
0000
,
0100
0000
0000
0010
0000
0000
0100
0000
2000
0000
0000
0000
3002
0000
0000
0000
,
0103
0000
0000
0010
0000
0000
0100
0000
0000
0001
0000
0000
1000
0000
0000
0000
,
0001
0010
1000
0100
0001
0000
0101
0000
,
1000
0000
0000
0100
0000
0000
0010
0000
0000
0010
0000
0000
0001
0000
0100
0000
,
0010
0000
0000
1000
0000
0000
0001
0000
0000
0001
0000
0000
0200
0000
0000
0000
,
0310
0000
0000
0100
0000
0000
0001
0000
0000
0001
0000
0000
1000
0000
0000
0000
,
0001
0000
0010
0000
1000
0000
0100
0000
0001
0100
0000
0000
0001
0000
0001
0000
,
1001
0000
0000
1000
0100
0000
1000
0000
0002
0000
0000
0000
0013
0000
0100
0000
,
1000
0000
0000
0010
1000
0000
0001
0000
0020
0000
0000
0000
1030
0000
0010
0000
,
0001
0000
0000
1000
0001
0000
0010
0000
0100
0010
0000
0000
0010
0000
0000
0000
,
0001
0000
0010
0000
1000
0000
0100
0000
0001
0100
0000
0000
0001
0000
1000
0000
,
0100
0000
0000
1000
0100
0000
0010
0000
0002
0000
0000
0000
0103
0000
0001
0000
,
1000
0000
0000
0100
1000
0000
0001
0000
0100
0001
0000
0000
1000
0000
0100
0000
,
0010
0000
0000
0100
0010
0000
0001
0000
2000
0000
0000
0000
3100
0000
1000
0000
,
0001
0000
0000
0010
0001
0000
1000
0000
0010
1000
0000
0000
0001
0000
0001
0000
,
0001
0000
0000
0000
;

//---------------dance-single - ----------------
#NOTEDATA:;
#CHARTNAME:X-Scale 4;
#STEPSTYPE:dance-single;
#DESCRIPTION:;
#CHARTSTYLE:;
#DIFFICULTY:Easy;
#METER:3;
#RADARVALUES:0.252275,0.307657,0.027593,0.331111,0.000000,192.000000,189.000000,3.000000,36.000000,0.000000,0.000000,0.000000,0.000000,0.000000,0.252275,0.307657,0.027593,0.331111,0.000000,192.000000,189.000000,3.000000,36.000000,0.000000,0.000000,0.000000,0.000000,0.000000;
#CREDIT:;
#NOTES:
0000
0000
0000
0000
,
0000
0000
0000
0000
,
0000
0000
0000
0000
,
0000
0000
0000
0000
,
1000
0000
0100
0000
,
1000
0000
0000
0001
0000
0000
0000
0000
,
0010
0000
0000
0100
0000
0000
0000
0000
,
1000
0000
0000
0000
,
1100
0000
0001
0000
,
0010
0000
0000
0100
0000
0000
0000
0000
,
1000
0000
0000
0001
0000
0000
0000
0000
,
0100
0000
0001
0000
,
1000
0000
0010
0000
,
0100
0000
0000
0010
0000
0000
0000
2000
,
3000
0200
0300
0020
0030
0002
0003
2000
,
3000
0200
0300
0020
0030
0002
0003
1000
,
1001
1000
0001
0100
,
0010
0000
0100
0001
1000
0000
0100
0000
,
0010
0000
0100
0010
0001
0000
1000
0000
,
0010
0100
0010
1000
,
0001
0100
0010
1000
,
0100
0000
0010
0001
1000
0000
0001
0000
,
0010
0000
0100
1000
0001
0000
1000
0000
,
0200
0001
0010
1000
,
1300
0100
1000
0001
,
0100
0000
0010
0100
0001
0000
1000
0000
,
0100
0000
0010
0100
1000
0000
0001
0000
,
0010
0100
0010
0000
0001
0010
0001
0000
,
1000
0010
0100
0001
,
0010
0000
0100
0010
0001
0000
1000
0000
,
0001
0000
0100
0001
1000
0000
0100
0000
,
0010
0000
0001
0000
1000
0000
0001
0200
,
0000
0000
0000
0320
0000
0000
0130
0002
,
0000
0000
0003
0001
0000
0000
1000
0200
,
0000
0000
0000
0320
0000
0000
0031
2000
,
0000
0000
3000
0000
0000
0000
0010
0200
,
0000
0000
0000
0302
0000
0000
0013
0200
,
0000
0000
0300
0100
0000
0000
1000
0002
,
0000
0000
0000
2003
0000
0000
3100
0020
,
0000
0030
0000
0000
,
0011
0010
0001
0010
,
0100
1000
0100
2000
,
3001
1000
0001
1000
,
0100
0010
0001
2000
0000
0000
3001
0000
,
1000
0010
1000
0010
,
0100
0001
0100
0002
,
0013
0100
0010
0100
,
1000
0001
0000
0010
0000
0001
1000
0200
,
0000
0000
0000
0320
0000
0000
0031
2000
,
0010
0000
3000
1000
0100
0000
0010
0002
,
0000
0000
0000
0203
0000
0000
0310
2000
,
0001
0000
3100
1000
0001
0000
1000
0020
,
0000
0000
0000
0230
0000
0000
0301
0020
,
0000
0000
0130
0010
0001
0000
1000
0020
,
0000
0000
0000
2030
0000
0000
3100
0020
,
0001
0130
0000
0010
;

//---------------dance-single - ----------------
#NOTEDATA:;
#CHARTNAME:X-Scale 2;
#STEPSTYPE:dance-single;
#DESCRIPTION:;
#CHARTSTYLE:;
#DIFFICULTY:Beginner;
#METER:1;
#RADARVALUES:0.103801,0.154518,0.009198,0.000000,0.000000,79.000000,78.000000,1.000000,0.000000,0.000000,0.000000,0.000000,0.000000,0.000000,0.103801,0.154518,0.009198,0.000000,0.000000,79.000000,78.000000,1.000000,0.000000,0.000000,0.000000,0.000000,0.000000,0.000000;
#CREDIT:;
#NOTES:
0000
0000
0000
0000
,
0000
0000
0000
0000
,
0000
0000
0000
0000
,
0000
0000
0000
0000
,
1000
0000
0000
0000
,
0100
0000
0000
0000
,
0010
0000
0000
0000
,
0001
0000
0000
0000
,
1000
0000
0000
0000
,
0100
0000
0000
0000
,
0010
0000
0000
0000
,
0001
0000
0000
0000
,
1000
0000
0000
0000
,
0010
0000
0000
0000
,
0100
0000
0000
0000
,
0001
0000
0000
0000
,
1000
0000
0001
0000
,
1000
0000
0000
0000
,
0100
0000
0000
0000
,
0010
0000
0000
0000
,
0001
0000
0100
0000
,
0001
0000
0000
0000
,
0010
0000
0000
0000
,
0100
0000
0000
0000
,
1000
0000
0001
0000
,
1000
0000
0000
0000
,
0100
0000
0000
0000
,
1000
0000
0000
0000
,
0001
0000
0010
0000
,
0001
0000
0000
0000
,
1000
0000
0000
0000
,
0001
0000
0000
0000
,
0010
0000
0100
0000
,
0010
0000
0100
0000
,
1000
0000
0001
0000
,
1000
0000
0001
0000
,
0010
0000
0100
0000
,
0010
0000
0100
0000
,
1000
0000
0010
0000
,
1000
0000
0000
0000
,
1001
0000
1000
0000
,
0100
0000
1000
0000
,
0100
0000
0010
0000
,
0001
0000
0010
0000
,
0001
0000
1000
0000
,
0001
0000
1000
0000
,
0010
0000
0100
0000
,
0001
0000
0000
0000
,
1000
0000
0010
0000
,
1000
0000
0010
0000
,
0100
0000
0001
0000
,
0100
0000
0001
0000
,
0010
0000
0100
0000
,
0010
0000
0100
0000
,
1000
0000
0001
0000
,
1000
0000
0000
0000
,
1000
0000
0000
0000
;
