#TITLE:Ði Ðu Ðưa Ði;
#SUBTITLE:;
#ARTIST:Bích Phương;
#TITLETRANSLIT:Di Du Dua Di;
#SUBTITLETRANSLIT:;
#ARTISTTRANSLIT:Bich Phuong;
#GENRE:V-Pop;
#CREDIT:;
#BANNER:Di Du Dua Di-bn.png;
#BACKGROUND:Di Du Dua Di-bg.png;
#LYRICSPATH:;
#CDTITLE:cdtitle.png;
#MUSIC:Di Du Dua Di.ogg;
#OFFSET:-0.002000;
#SAMPLESTART:65.086998;
#SAMPLELENGTH:16.271000;
#SELECTABLE:YES;
#BPMS:0.000000=118.000000
;
#STOPS:
;
#BGCHANGES:0.000=Di Du Dua Di.avi=1.000=1=0=0=StretchNoLoop==CrossFade==,
99999=-nosongbg-=1.000=0=0=0 // don't automatically add -songbackground-
;
#KEYSOUNDS:;
#ATTACKS:;

//---------------dance-single - ----------------
#NOTES:
     dance-single:
     X-Scale 3:
     Beginner:
     2:
     0.104341,0.141015,0.014463,0.000000,0.000000,101.000000,99.000000,2.000000,0.000000,0.000000,0.000000,0.104341,0.141015,0.014463,0.000000,0.000000,101.000000,99.000000,2.000000,0.000000,0.000000,0.000000:
0000
0000
0000
0000
,
0000
0000
0000
0000
,
0000
0000
0000
0000
,
0000
0000
0000
0000
,
0001
0000
0000
0000
,
0010
0000
0000
0000
,
0100
0000
0000
0000
,
1000
0000
0000
0000
,
0001
0000
0100
0000
,
0001
0000
1000
0000
,
0001
0000
0100
0000
,
0001
0000
1000
0000
,
0100
0000
1000
0000
,
0001
0000
1000
0000
,
0100
0000
1000
0000
,
0001
0000
0000
0000
,
1000
0000
0001
0000
,
0100
0000
0001
0000
,
1000
0000
0100
0000
,
0010
0000
0100
0000
,
1000
0000
0001
0000
,
0100
0000
0001
0000
,
0010
0000
0100
0000
,
0010
0000
0001
0000
,
1000
0000
0000
0000
,
0100
0000
0000
0000
,
0010
0000
0000
0000
,
0001
0000
0000
0000
,
0100
0000
0000
0000
,
0010
0000
0000
0000
,
1000
0000
0000
0000
,
0001
0000
0000
0000
,
1001
0000
0001
0000
,
0100
0000
0001
0000
,
1000
0000
0010
0000
,
1000
0000
0001
0000
,
0010
0000
0001
0000
,
1000
0000
0100
0000
,
0010
0000
0100
0000
,
1000
0000
0001
0000
,
0100
0000
0000
0000
,
0010
0000
0000
0000
,
1000
0000
0000
0000
,
0001
0000
0000
0000
,
0010
0000
0000
0000
,
0100
0000
0000
0000
,
1000
0000
0000
0000
,
0000
0000
0000
0000
,
0001
0000
0000
0000
,
1001
0000
0001
0000
,
0100
0000
0001
0000
,
1000
0000
0010
0000
,
1000
0000
0001
0000
,
0010
0000
0100
0000
,
0010
0000
0001
0000
,
1000
0000
0010
0000
,
1000
0000
0000
0000
,
0001
0000
0010
0000
,
0100
0000
1000
0000
,
0001
0000
1000
0000
,
0010
0000
0100
0000
,
0001
0000
1000
0000
,
0100
0000
1000
0000
,
0001
0000
0100
0000
,
0001
0000
0010
0000
,
0100
0000
0000
0000
;

//---------------dance-single - ----------------
#NOTES:
     dance-single:
     X-Scale 6:
     Easy:
     4:
     0.273766,0.305533,0.050621,0.274799,0.000000,265.000000,258.000000,7.000000,38.000000,0.000000,0.000000,0.273766,0.305533,0.050621,0.274799,0.000000,265.000000,258.000000,7.000000,38.000000,0.000000,0.000000:
0000
0000
0000
0000
,
0000
0000
0000
0000
,
0000
0000
0000
0000
,
0000
0000
0000
0000
,
1000
0010
0100
0001
,
1000
0001
0010
0100
,
1000
0010
0100
0001
,
1001
0000
0100
0000
,
0110
0000
0010
0000
1000
0100
0010
0000
,
0001
0000
0100
0000
0001
0010
0100
0000
,
1000
0000
0001
0100
0010
0000
1000
0200
,
0000
2300
0000
3002
0000
0003
0100
0000
,
0001
0000
0010
0000
0100
0010
0001
0000
,
1000
0000
0001
0000
0100
0001
1000
0000
,
0100
0000
0010
0100
1000
0000
0001
0020
,
0000
0230
0000
2300
0000
3000
0001
0000
,
0011
0000
1000
0000
0001
0000
0010
0200
,
1000
0000
1300
0100
0010
0000
0001
1000
,
0001
0000
0100
0000
0001
0000
1000
0020
,
0100
0000
0130
0010
1000
0000
0001
0010
,
0200
0000
0320
0000
0032
0000
1003
0001
,
0200
0000
0302
0000
0023
0000
0130
2000
,
0001
3001
1000
1000
,
0010
1000
0100
0010
,
0002
0000
0000
0000
0013
0000
0100
2000
,
0000
3000
0000
0001
0200
0000
0302
0000
,
2003
0000
3100
0000
0010
0100
1000
0002
,
0000
0003
0000
0100
0002
0000
2003
0000
,
3002
0000
0100
0000
2003
0000
3010
0200
,
0001
0301
0020
0230
,
1300
0000
0001
0000
0100
0001
1000
0200
,
0000
0300
0000
0000
0010
0000
0000
0000
,
1001
0001
0100
0010
,
1000
0001
1000
0100
,
0010
0001
1000
0010
,
1000
0001
0010
0100
,
1000
0010
1000
0100
,
0010
0001
1000
0001
,
0100
0001
0010
0100
,
0010
0001
1000
0001
,
0100
0000
0000
0001
0000
0010
0000
0100
,
0000
0000
0000
1000
0000
0001
0000
0100
,
0000
0000
0000
0010
0000
1000
0000
0100
,
0000
0000
0000
0010
0000
0001
0000
1000
,
0000
0000
0000
0001
0000
0010
0000
0100
,
0000
0000
0000
1000
0000
0001
0000
0200
,
0000
0000
0000
0020
,
0330
0000
0000
0000
,
0001
0001
1000
1000
,
1001
0000
0100
0000
0001
0000
0010
0100
,
1000
0000
0001
0000
0100
0000
0001
1000
,
0100
0000
0010
0000
0001
0000
1000
0001
,
0100
0000
0001
0000
0010
0000
0100
0010
,
0001
0000
1000
0000
0001
0000
0100
0001
,
1000
0000
0001
0000
0010
0000
0100
1000
,
0001
0000
1000
0000
0010
0000
1000
0100
,
0010
0011
0001
1000
,
1020
0000
0100
0000
1030
0000
0001
0020
,
0100
0130
1000
0001
,
0100
0000
0001
0010
0100
0000
0010
0002
,
1000
1003
0200
0320
,
0032
0000
0100
0000
1003
0000
0001
0020
,
0100
0130
1000
0001
,
0100
0000
0001
0000
1000
0000
0100
0010
,
0001
0000
1000
0000
0001
0000
0010
0100
,
1000
0000
0000
0000
;

//---------------dance-single - ----------------
#NOTES:
     dance-single:
     X-Scale 10:
     Medium:
     7:
     0.376040,0.423045,0.072315,0.354346,0.061468,364.000000,354.000000,10.000000,49.000000,0.000000,0.000000,0.376040,0.423045,0.072315,0.354346,0.061468,364.000000,354.000000,10.000000,49.000000,0.000000,0.000000:
0000
0000
0000
0000
,
0000
0000
0000
0000
,
0000
0000
0000
0000
,
0000
0000
0000
0000
,
0001
0000
0100
0000
0001
0010
0100
0000
,
1000
0000
0100
0000
0010
0100
1000
0000
,
0001
0000
1000
0000
0010
1000
0001
0000
,
1001
0000
0000
0000
0000
0000
0000
0000
0001
0100
0000
0001
0100
0000
0010
0000
,
0110
0000
1000
0000
0001
0010
0100
0000
,
1000
0000
0010
0000
1000
0100
0010
0000
,
0001
0100
0010
0100
0001
0000
0010
2000
,
0000
3200
0000
0302
0000
0103
0001
1000
,
0001
0000
0010
0000
1000
0010
0001
0000
,
1000
0000
0010
0000
0100
0010
0001
0000
,
0010
0100
0010
1000
0001
0000
0100
2000
,
0000
3020
0000
0032
0000
1003
0001
0100
,
0001
0000
0010
0000
0100
0010
0001
0000
,
0002
1000
0000
1003
0001
0100
0001
0000
,
1000
0000
0100
0000
0001
0100
1000
0000
,
0020
0000
0100
0000
0000
0000
0130
0000
0010
0000
0000
1000
0000
1000
0001
0100
,
0001
0000
0100
0000
0001
0010
0100
0000
,
1000
0000
0001
1000
0200
0000
0310
0200
,
0001
0000
1300
0100
0010
0000
0001
0000
,
1000
0000
0100
0000
0000
0100
0000
0000
0001
0000
0100
0000
0010
0000
0100
0000
,
2000
0000
0000
0000
3002
0000
0013
0200
,
1000
0000
1300
0100
0020
0000
2030
0000
,
3020
0000
0031
0001
0010
0100
1000
0002
,
0100
0000
0000
0000
0103
0000
0001
0000
0010
0000
0000
0100
0000
0100
1000
0001
,
1000
0000
0000
0000
0001
0000
0000
0010
0000
0000
1000
0000
0000
0010
0000
0000
,
0001
0000
0000
0000
0100
0000
0000
0010
0000
0000
0001
0000
0000
0010
0000
0000
,
0200
0000
0000
0000
1000
0000
0000
0010
0000
0000
0002
0000
0000
0000
0000
0000
,
0303
0001
0100
1000
0010
1000
0100
0001
,
0101
0000
0001
1000
0010
0000
1000
0100
,
0010
0000
0001
0010
0100
0000
1000
0001
,
0100
0000
0010
0100
0001
0000
1000
0100
,
0010
0001
1000
0001
0100
0010
1000
0001
,
1000
0000
1100
0100
0010
0000
0100
0010
,
0001
0000
1000
0001
0100
0000
0010
0100
,
0001
0000
1000
0001
0100
0000
0001
0010
,
0100
0000
0010
0100
1000
0100
0001
0100
,
1000
0000
0001
0200
0000
0302
0000
0023
,
0000
0030
0100
2000
0000
3002
0000
0203
,
0000
0300
0010
0200
0000
0302
0000
0023
,
0000
0030
0100
2000
0000
3002
0000
2003
,
0000
3000
0100
0020
0000
0032
0000
0023
,
0000
0030
0100
2000
0000
3002
0000
0203
,
0020
0000
0000
0000
0000
0030
0002
0000
,
0303
0001
0010
1000
0001
0100
0010
0001
,
0011
0000
0000
0000
0110
0000
0000
0000
1010
0000
0000
1000
0001
0000
0010
0000
,
0001
0000
0101
0001
1000
0000
0100
0010
,
0001
0000
1000
0001
0100
1000
0100
0001
,
1000
0000
0010
0100
0001
0000
0010
0100
,
1000
0000
0001
0010
1000
0001
0100
0010
,
0001
0000
1000
0001
0100
0000
0010
0100
,
0001
0000
0010
1000
0010
0001
0010
0100
,
1000
0000
0010
1000
0001
0000
0010
0100
,
1000
0000
0000
0000
0101
0000
0001
0000
0001
0010
0000
0010
0100
0000
1000
0000
,
2001
0000
3010
0100
0002
0000
0013
0200
,
0001
0000
1300
0100
0010
0001
0000
0001
,
0200
0000
1300
0100
0001
1000
0010
0200
,
1000
0000
0301
0100
0001
0010
1000
0010
,
0002
0000
1003
0001
0200
0000
0310
2000
,
0001
0000
3100
0010
0001
0100
0000
0100
,
0020
0000
0031
0010
1000
0001
1000
0200
,
0000
0301
0100
1000
0001
1000
0010
0100
,
0001
0000
0000
0000
;

//---------------dance-single - ----------------
#NOTES:
     dance-single:
     X-Scale 12:
     Hard:
     8:
     0.459720,0.493553,0.108473,0.267567,0.238641,445.000000,430.000000,15.000000,37.000000,0.000000,0.000000,0.459720,0.493553,0.108473,0.267567,0.238641,445.000000,430.000000,15.000000,37.000000,0.000000,0.000000:
// measure 0
0000
0000
0000
0000
,  // measure 1
0000
0000
0000
0000
,  // measure 2
0000
0000
0000
0000
,  // measure 3
0000
0000
0000
0000
,  // measure 4
1000
0000
0000
0100
0000
0100
0000
0100
0010
0000
0010
0000
0001
0000
0000
0000
,  // measure 5
0100
0000
0000
0010
0000
0010
0000
0010
1000
0000
1000
0000
0001
0000
0000
0000
,  // measure 6
0010
0000
0000
0100
0000
0100
0000
0100
1000
0000
1000
0000
0010
0000
0000
0000
,  // measure 7
1001
0000
0000
0000
0000
0000
0000
0000
1000
0100
0000
0100
0001
0000
0100
0000
,  // measure 8
1100
0000
1000
0001
0100
0010
1000
0000
,  // measure 9
0010
0000
1000
0100
0001
0100
1000
0000
,  // measure 10
0001
0100
0010
1000
0200
0000
1300
0002
,  // measure 11
0100
0203
0010
0320
1030
0010
1000
0100
,  // measure 12
0010
0000
0001
0010
1000
0010
0001
0000
,  // measure 13
1000
0000
0010
0100
0001
0010
0100
0000
,  // measure 14
1000
0001
0100
0001
0020
0000
0130
2000
,  // measure 15
0010
0000
3020
0000
0100
0000
0230
0000
0301
0000
0001
0010
0000
0010
1000
0010
,  // measure 16
0001
0000
0000
0000
1001
0000
0000
0000
1000
0010
1000
0000
0001
0000
0100
0000
,  // measure 17
0020
0000
0031
0010
1000
0100
0001
0100
,  // measure 18
0010
0000
0000
0000
1001
0000
0000
0000
1000
0010
1000
0000
0100
0000
0010
0000
,  // measure 19
0001
0000
0100
0000
1000
0000
0100
0000
0001
0000
1000
0100
0000
0100
0001
0100
,  // measure 20
1000
0000
0000
0000
1100
0000
0000
0000
0001
1000
0001
0000
0100
0000
0010
0000
,  // measure 21
0100
0000
1001
0000
0001
0010
0100
0010
,  // measure 22
0001
0000
0000
0000
1001
0000
0001
0000
0100
0010
1000
0000
0001
0000
1000
0000
,  // measure 23
0010
0000
0100
0000
0001
0010
0000
0010
0100
1000
0000
0001
0000
0001
0100
0010
,  // measure 24
2000
0000
0000
0000
3002
0000
0013
0200
,  // measure 25
1000
0000
1300
0100
0020
0000
0032
0000
,  // measure 26
0203
0000
1300
0100
0010
0100
0001
2000
,  // measure 27
0010
0000
3010
1000
0002
0000
0203
0000
,  // measure 28
0310
0000
0000
0000
1000
0000
0000
1000
0000
0000
1000
0000
0010
0000
0100
0000
,  // measure 29
0001
0000
0000
0000
0001
0000
0000
0001
0000
0000
0001
0000
0100
0000
0001
0000
,  // measure 30
1000
0000
0000
0000
0100
0000
0000
0100
0000
0000
0100
0000
0010
0000
0002
0000
,  // measure 31
0000
0000
0003
0000
0000
0000
0000
0000
0001
0010
0000
0010
1000
0000
0010
0000
,  // measure 32
0011
0000
1000
0001
0010
1000
0001
0100
,  // measure 33
1000
0000
0001
0100
1000
0001
0100
0010
,  // measure 34
0001
0000
0100
0010
0001
0010
1000
0001
,  // measure 35
1000
0000
0100
0000
0100
0010
0000
0001
1000
0010
0000
0010
0000
1000
0100
0010
,  // measure 36
0001
0000
0010
0000
1000
0000
0010
0000
0001
0010
0001
0000
1000
0000
0001
0000
,  // measure 37
0100
0000
0100
1000
0100
0001
1000
0001
,  // measure 38
0010
0000
0000
0000
0010
0000
0100
0000
1000
0100
0010
0000
0001
0000
1000
0000
,  // measure 39
0100
0000
1000
0000
0001
0100
0000
0001
1000
0001
0000
0010
0000
0010
0001
1000
,  // measure 40
0001
0000
0100
0010
0001
0020
0000
2030
,  // measure 41
0000
3000
0001
0020
0000
0230
0000
2300
,  // measure 42
0000
3000
0001
0200
0000
0320
0000
2030
,  // measure 43
0000
3000
0001
0200
0000
2300
0000
3200
,  // measure 44
0001
0300
1000
0002
0000
0023
0000
2030
,  // measure 45
0000
3000
0001
0200
0000
0320
0000
0032
,  // measure 46
0000
0010
0100
2000
,  // measure 47
3003
0001
0100
1000
0001
0010
1000
0001
,  // measure 48
1001
0000
0000
0000
1010
0000
0000
0000
1000
0010
0000
0010
0001
0000
0010
0000
,  // measure 49
1010
0000
1000
0100
0001
0100
1000
0100
,  // measure 50
0010
1000
0010
0001
0100
0001
0010
0100
,  // measure 51
1000
0000
1001
0100
0001
1000
0010
0100
,  // measure 52
1000
0000
0100
0000
0001
0010
0000
0010
0100
1000
0000
0001
0000
0100
0001
1000
,  // measure 53
0100
0000
1001
1000
0010
0100
0001
1000
,  // measure 54
0001
0010
0100
1000
0100
0001
0100
0010
,  // measure 55
0001
0000
0101
0001
1000
0010
0100
1000
,  // measure 56
0001
0000
0010
0000
0100
0000
0001
0000
1000
0100
0000
0100
0001
0000
0100
0000
,  // measure 57
1000
0000
0000
0000
1100
0000
1000
0000
0001
1000
0010
0000
1000
0000
0001
0000
,  // measure 58
0100
0000
0001
1000
0001
0100
0001
0100
,  // measure 59
0010
0000
0000
0000
0001
0000
0010
0000
1000
0001
1000
0000
0100
0000
1000
0000
,  // measure 60
0001
0000
0100
0010
1000
0100
0010
0100
,  // measure 61
0010
0000
0000
0000
0100
0000
1000
0000
0001
0010
0100
0000
0010
0000
0001
0000
,  // measure 62
1000
0000
0001
0100
0010
1000
0010
1000
,  // measure 63
0001
0000
0000
0000
0100
0000
0001
0000
1000
0001
0100
0000
0001
0000
0010
0000
,  // measure 64
0100
0000
0010
0000
0001
0010
0000
0010
0100
1000
0000
0001
0000
1000
0001
0100
,  // measure 65
0001
0000
0000
0000
;
