#TITLE:Desert Rain;
#SUBTITLE:;
#ARTIST:Edward Maya feat. Vika Jigulina;
#TITLETRANSLIT:;
#SUBTITLETRANSLIT:;
#ARTISTTRANSLIT:;
#GENRE:Progressive House;
#CREDIT:;
#BANNER:Desert Rain-bn.png;
#BACKGROUND:Desert Rain-bg.png;
#LYRICSPATH:;
#CDTITLE:cdtitle.png;
#MUSIC:desert rain.ogg;
#OFFSET:-0.184000;
#SAMPLESTART:75.160004;
#SAMPLELENGTH:15.000000;
#SELECTABLE:YES;
#BPMS:0.000000=128.000000
;
#STOPS:
;
#BGCHANGES:
;
#KEYSOUNDS:;
#ATTACKS:;

//---------------dance-single - ----------------
#NOTES:
     dance-single:
     X-Scale 12:
     Hard:
     8:
     0.505418,0.558811,0.018143,0.272148,0.254005,390.000000,388.000000,2.000000,30.000000,0.000000,0.000000,0.505418,0.558811,0.018143,0.272148,0.254005,390.000000,388.000000,2.000000,30.000000,0.000000,0.000000:
// measure 0
0000
0000
0000
0000
,  // measure 1
0000
0000
0000
0000
,  // measure 2
0000
0000
0000
0000
,  // measure 3
0000
0000
0000
0000
,  // measure 4
1000
0000
0100
0000
1000
0010
0001
0010
,  // measure 5
1000
0000
0001
0000
0100
0010
0001
0010
,  // measure 6
0100
0000
0001
0100
0000
0000
0001
0000
0010
0000
0100
0000
1000
0000
0020
0000
,  // measure 7
0000
2030
0000
3002
0000
1003
0100
0010
,  // measure 8
0001
0000
0000
1000
0100
0000
1000
0000
0001
0000
1000
0000
0001
0000
0000
0000
,  // measure 9
0100
0000
0000
0010
0100
0000
0010
0000
1000
0000
0100
0000
1000
0000
0000
0000
,  // measure 10
0001
0000
0000
0100
0001
0000
0100
0000
0010
0000
1000
0000
0001
0000
0000
0000
,  // measure 11
1000
0000
0000
0010
1000
0000
0001
0000
0010
0000
0100
0000
1000
0100
1000
0000
,  // measure 12
0001
0000
0000
0100
0001
0000
1000
0000
0001
0000
0010
0000
0100
0010
0100
0000
,  // measure 13
1000
0000
0000
0001
1000
0000
0100
0000
0010
0000
0001
0000
1000
0001
1000
0000
,  // measure 14
0100
0000
0000
1000
0010
0000
1000
0000
0001
0000
0100
0000
0020
0000
0000
0000
,  // measure 15
1030
0100
0010
0000
0001
0100
0010
0000
1000
0100
0010
0000
0001
0000
0010
0000
,  // measure 16
0011
0000
0010
0000
0100
0000
0010
0000
0000
0000
0001
0100
0000
0001
1000
0000
,  // measure 17
0001
0000
0100
0000
0010
0000
1000
0000
0000
0000
0010
0100
0000
0001
1000
0000
,  // measure 18
0100
0000
0010
0000
0001
0000
1000
0000
0000
0100
1000
0000
0000
0001
1000
0000
,  // measure 19
1000
0001
0010
0100
1000
0010
1000
0100
,  // measure 20
0010
0000
0001
0000
1000
0000
0010
0100
0000
0010
0100
0000
0001
0000
0100
0000
,  // measure 21
1000
0000
0100
0000
0001
0000
0010
0001
0000
1000
0001
0000
0010
0000
0100
0000
,  // measure 22
1000
0000
0100
0000
0001
0000
0100
0010
0000
0001
1000
0000
0010
0000
0100
0000
,  // measure 23
0001
0010
1000
0010
0001
0010
0200
0000
,  // measure 24
1300
0000
0100
0000
1000
0010
0100
0010
,  // measure 25
1000
0000
0001
0000
0100
0001
1000
0010
,  // measure 26
1000
0000
0001
1000
0001
2000
0000
3200
,  // measure 27
0000
0320
0000
0032
0000
1003
0010
1000
,  // measure 28
0001
0000
1000
0000
0001
0100
0010
0100
,  // measure 29
0001
0000
1000
0000
0001
0100
1000
0100
,  // measure 30
0010
0000
1000
0001
0010
0002
0000
0203
,  // measure 31
0000
0320
0000
2030
0000
3001
0010
0100
,  // measure 32
1000
0000
0010
0000
1000
0100
0010
0100
,  // measure 33
1000
0000
0001
0000
0100
0010
0001
0010
,  // measure 34
0100
0000
0000
0000
0001
0000
1000
0000
0100
0000
0000
1000
0010
0000
1000
0000
,  // measure 35
0001
0000
0010
0000
0001
0000
0100
0000
0010
0000
0000
1000
0010
0000
1000
0000
,  // measure 36
0100
0000
0010
0000
0001
0100
1000
0100
,  // measure 37
0001
0000
1000
0000
0010
0100
1000
0100
,  // measure 38
0010
0000
1000
0001
1000
0100
0010
0100
,  // measure 39
1000
0100
0010
0000
0001
0100
0010
0000
1000
0100
0010
0000
0001
0100
0010
0000
,  // measure 40
1000
0010
1000
0000
0100
0000
0100
0000
0010
0000
0010
0000
0004
0000
0003
0000
,  // measure 41
0001
0100
0010
0000
1000
0100
0010
0000
0001
0100
0001
0000
4000
0000
3000
0000
,  // measure 42
0010
0100
0010
0000
1000
0000
1000
0000
0001
0000
0001
0000
0040
0000
0230
0000
,  // measure 43
0300
0000
0100
0000
0010
0000
0001
0000
1000
0000
0001
0000
1000
0010
1000
0000
,  // measure 44
0001
0010
0001
0000
0100
0000
0100
0000
0010
0000
0010
0000
4000
0000
3000
0000
,  // measure 45
0001
0100
0010
0000
1000
0010
0100
0000
0001
0010
0100
0000
4000
0000
3000
0000
,  // measure 46
0001
1000
0001
0000
0100
0000
0100
0000
0010
0000
0010
0000
4000
0000
3001
0000
,  // measure 47
1000
0000
0100
0010
0001
0000
1000
0000
0001
0000
0010
0000
0200
0000
0000
0000
,  // measure 48
1300
0000
0000
1000
0010
0000
1000
0000
0200
0000
0000
0300
0020
0000
0000
0030
,  // measure 49
0002
0000
0000
0013
0001
0000
1000
0000
0020
0000
0000
0031
0010
0000
1000
0000
,  // measure 50
0010
0000
0000
0010
1000
0000
0001
0000
2000
0000
0000
3000
0020
0000
0000
0030
,  // measure 51
0200
0000
0000
0301
0100
0000
0001
0000
0010
0000
0100
0000
1000
0100
1000
0000
,  // measure 52
0001
0000
0000
0010
0001
0000
1000
0000
0002
0000
0000
0003
0020
0000
0000
0030
,  // measure 53
0200
0000
0000
1300
0100
0000
0001
0000
0200
0000
0000
0300
2000
0000
0000
3000
,  // measure 54
0002
0000
0000
0013
0001
0000
1000
0000
0002
0000
0000
0003
0200
0000
0000
0300
,  // measure 55
0001
0000
0000
0010
0001
0000
1000
0000
0010
0000
1000
0010
0000
1000
0001
0000
,  // measure 56
0101
0000
0000
0000
;

//---------------dance-single - ----------------
#NOTES:
     dance-single:
     X-Scale 7:
     Medium:
     5:
     0.409518,0.431809,0.018143,0.508010,0.095252,316.000000,314.000000,2.000000,56.000000,0.000000,0.000000,0.409518,0.431809,0.018143,0.508010,0.095252,316.000000,314.000000,2.000000,56.000000,0.000000,0.000000:
0000
0000
0000
0000
,
0000
0000
0000
0000
,
0000
0000
0000
0000
,
0000
0000
0000
0000
,
1000
0000
0100
0000
0010
0000
0001
0100
,
0001
0000
0010
0000
0100
0000
1000
0010
,
1000
0000
0001
0000
0100
0020
0000
2030
,
0000
3002
0000
0023
0000
1030
0010
0001
,
1000
0000
0000
0010
0000
0000
0010
0000
0000
0000
0100
0000
0002
0000
0000
0000
,
1003
0000
0000
0100
0000
0000
0100
0000
0000
0000
1000
0000
0020
0000
0000
0000
,
0130
0000
0000
0001
0000
0000
0001
0000
0000
0000
1000
0000
0200
0000
0020
0000
,
0300
0000
0031
0000
0010
0000
0001
0000
0010
0000
0001
0000
1000
0100
0010
0000
,
0001
0000
0000
0010
0000
0000
0010
0000
0000
0000
0100
0000
2000
0000
0000
0000
,
3001
0000
0000
0100
0000
0000
0100
0000
0000
0000
0001
0000
0020
0000
0000
0000
,
0130
0000
0000
1000
0000
0000
1000
0000
0000
0000
0001
0000
0200
0000
0000
0000
,
0310
0000
0000
1000
0100
0000
1000
0000
0001
0000
0010
0000
0100
0000
0010
0000
,
0011
0000
0000
1000
0001
0000
1000
0000
0010
0000
0100
0000
0002
0000
0000
0000
,
1003
0000
0000
0001
0100
0000
0001
0000
0010
0000
0100
0000
2000
0000
0000
0000
,
3010
0000
0000
1000
0100
0000
1000
0000
0001
0000
0100
0000
0020
0000
2000
0000
,
0030
0000
3001
0000
1000
0000
0100
0000
0010
0000
0100
0000
1000
0001
1000
0000
,
0010
0000
0000
0100
0010
0000
1000
0000
0100
0000
0010
0000
0002
0000
0000
0000
,
1003
0000
0000
0001
0010
0000
0001
0000
0100
0000
0010
0000
2000
0000
0000
0000
,
3001
0000
0000
1000
0010
0000
1000
0000
0001
0000
0100
0000
0020
0000
2000
0000
,
0030
3001
1000
0100
1000
0001
0020
0000
,
0031
0000
1000
0000
0010
0000
1000
0001
,
1000
0000
0010
0000
0100
0000
0001
0100
,
0001
0000
1000
0100
0010
0002
0000
2003
,
0000
3002
0000
2003
0000
3010
1000
0001
,
0100
0000
0010
0000
1000
0000
0001
0010
,
0001
0000
1000
0000
0100
0000
0010
0001
,
0010
0000
0100
1000
0001
2000
0000
3200
,
0000
2300
0000
3200
0000
0310
0001
1000
,
0001
0000
0100
0000
0010
0000
1000
0010
,
1000
0000
0001
0000
0010
0000
0100
0010
,
0100
0000
1000
0100
0010
0000
0001
0100
,
0010
0000
1000
0100
0010
0000
0001
0100
,
0010
0000
1000
0000
0001
0000
0100
0010
,
0100
0000
0001
0000
1000
0000
0100
0010
,
0100
0000
1000
0000
0010
0100
0000
0100
,
0001
0000
1000
0000
0001
1000
0100
1000
,
1100
0000
0000
0001
0100
0000
0001
0000
1000
0000
0100
0000
0020
0000
0000
0000
,
0031
0000
0000
1000
0100
0000
1000
0000
0001
0000
0100
0000
0002
0000
0000
0000
,
1003
0100
0001
0100
0010
0001
0200
0020
,
0300
0000
0130
0000
0010
0000
1000
0000
0001
0000
1000
0000
0100
0010
0100
0000
,
1000
0000
0000
1000
0100
0000
1000
0000
0010
0000
0100
0000
0002
0000
0000
0000
,
0013
0000
0000
0001
1000
0000
0001
0000
0100
0000
0010
0000
2000
0000
0000
0000
,
3001
0100
1000
0100
0001
0010
0200
2000
,
0300
3100
1000
0001
1000
0010
0200
0000
,
0302
0000
1003
0100
0020
0000
0032
0000
,
2003
0000
3010
1000
0002
0000
0013
0200
,
1000
0300
0100
1000
0002
0000
0203
0000
,
0320
0000
1000
0000
1030
0000
0010
0000
0001
0000
0010
0000
1000
0010
1000
0000
,
0002
0000
0103
0010
2000
0000
3200
0000
,
0320
0000
0031
1000
0020
0000
0230
0000
,
0302
0000
0013
0100
2000
0000
3002
0000
,
2003
0000
0010
0010
0000
0001
0000
0100
,
3100
0000
0000
0000
;

//---------------dance-single - ----------------
#NOTES:
     dance-single:
     X-Scale 5:
     Easy:
     3:
     0.299363,0.330207,0.036286,0.254005,0.000000,231.000000,227.000000,4.000000,28.000000,0.000000,0.000000,0.299363,0.330207,0.036286,0.254005,0.000000,231.000000,227.000000,4.000000,28.000000,0.000000,0.000000:
0000
0000
0000
0000
,
0000
0000
0000
0000
,
0000
0000
0000
0000
,
0000
0000
0000
0000
,
2000
0000
0000
0000
0000
3001
1000
0001
,
0200
0000
0000
0000
0000
0310
0100
0001
,
1000
0000
0000
0100
0000
1000
0100
0010
,
0001
0000
0000
0100
0000
0001
0010
0100
,
1000
0000
0000
0100
0000
0000
1000
0000
,
0001
0000
0000
0100
0000
0000
0001
0000
,
1000
0000
0000
0100
0000
0000
1000
0000
,
0001
0000
0000
0100
0000
0000
0001
0000
,
1000
0000
0000
0010
0000
0010
1000
0000
,
0001
0000
0000
0100
0000
0100
0010
0000
,
1000
0000
0000
0100
0000
0100
0010
0000
,
0001
1000
0001
1000
,
1001
0001
0010
0001
,
1000
0100
0010
0001
,
1000
0010
0100
0001
,
1000
0010
0100
0010
,
1000
0001
0010
0001
,
0100
0010
1000
0100
,
1000
0000
0001
0000
1000
0000
0100
1000
,
0001
0000
1000
0100
0000
0010
0001
0000
,
0011
0010
0001
1000
,
0010
0100
0001
0010
,
0100
0000
1000
0100
0010
0002
0003
2000
,
3000
0002
0003
2000
3000
0010
1000
0001
,
1000
0100
0010
0100
,
1000
0001
0100
0010
,
0100
0000
0001
0100
0010
2000
3000
0002
,
0003
2000
3000
0002
0003
0100
0001
1000
,
1001
0001
0010
0001
,
1000
0100
0010
0001
,
0100
0000
0010
0000
1000
0000
0100
2000
,
3000
0002
0003
1000
0100
0000
1000
0001
,
1000
0010
0100
0001
,
0010
0100
1000
0001
,
1000
0000
0100
0000
1000
0001
0000
0001
,
0010
0000
0001
0000
,
1001
1000
0100
0010
,
0100
1000
0001
0100
,
0001
0000
1000
0000
0010
0000
0100
0001
,
1000
0000
0001
0100
0001
0000
0010
0100
,
1000
0010
1000
0100
,
0010
0001
0100
0001
,
1000
0000
0010
0000
0100
0000
0001
0010
,
0001
0000
1000
0010
0100
0000
0002
0000
,
1003
0000
0001
0010
0002
0000
2003
0000
,
3002
0000
0013
0100
1000
0000
0001
1000
,
0001
0000
0010
0100
0020
0000
0032
0000
,
2003
3001
1000
0010
,
1000
0000
0100
0010
0002
0000
2003
0000
,
3002
0000
0013
0100
2000
0000
3200
0000
,
2300
0000
3001
0100
0020
0000
2030
0000
,
3002
0000
0000
0100
0000
0000
1000
0000
,
1003
0000
0000
0000
;

//---------------dance-single - ----------------
#NOTES:
     dance-single:
     X-Scale 2:
     Beginner:
     1:
     0.125707,0.152403,0.036286,0.000000,0.000000,97.000000,93.000000,4.000000,0.000000,0.000000,0.000000,0.125707,0.152403,0.036286,0.000000,0.000000,97.000000,93.000000,4.000000,0.000000,0.000000,0.000000:
0000
0000
0000
0000
,
0000
0000
0000
0000
,
0000
0000
0000
0000
,
0000
0000
0000
0000
,
1000
0000
0000
0000
,
0100
0000
0000
0000
,
1000
0000
0000
0000
,
0001
0000
0000
0000
,
0100
0000
0000
0000
,
0010
0000
0000
0000
,
1000
0000
0000
0000
,
0001
0000
0000
0000
,
0010
0000
0000
0000
,
0100
0000
0000
0000
,
1000
0000
0000
0000
,
0001
0000
0000
0000
,
1001
0000
1000
0000
,
0100
0000
1000
0000
,
0001
0000
0100
0000
,
0001
0000
1000
0000
,
0100
0000
0010
0000
,
0100
0000
1000
0000
,
0001
0000
0100
0000
,
0010
0000
0100
0000
,
0101
0000
1000
0000
,
0001
0000
1000
0000
,
0100
0000
0010
0000
,
0001
0000
1000
0000
,
0001
0000
0100
0000
,
0010
0000
1000
0000
,
0100
0000
1000
0000
,
0001
0000
0010
0000
,
0100
0000
0010
0000
,
0001
0000
1000
0000
,
0001
0000
1000
0000
,
0100
0000
0010
0000
,
0001
0000
1000
0000
,
0001
0000
0100
0000
,
0010
0000
1000
0000
,
0001
0000
0000
0000
,
1001
0000
1000
0000
,
0100
0000
1000
0000
,
0001
0000
0100
0000
,
0001
0000
1000
0000
,
0100
0000
0010
0000
,
0001
0000
1000
0000
,
0010
0000
1000
0000
,
0001
0000
0010
0000
,
0100
0000
0010
0000
,
0001
0000
1000
0000
,
0001
0000
0100
0010
,
0100
0000
0001
0000
,
0010
0000
0100
0000
,
1000
0000
0010
0000
,
1000
0000
0001
0010
,
0001
0000
0000
0000
,
0011
0000
0000
0000
;
