#VERSION:0.83;
#TITLE:DesafĂ­o;
#SUBTITLE:;
#ARTIST:Arca;
#TITLETRANSLIT:;
#SUBTITLETRANSLIT:;
#ARTISTTRANSLIT:;
#GENRE:Leftfield;
#ORIGIN:;
#CREDIT:;
#BANNER:desafio-bn.png;
#BACKGROUND:desafio-bg.png;
#PREVIEWVID:;
#JACKET:desafio-jacket.png;
#CDIMAGE:;
#DISCIMAGE:;
#LYRICSPATH:;
#CDTITLE:cdtitle.png;
#MUSIC:desafio.ogg;
#OFFSET:-0.007000;
#SAMPLESTART:64.007004;
#SAMPLELENGTH:15.990000;
#SELECTABLE:YES;
#BPMS:0.000=120.000;
#STOPS:;
#DELAYS:;
#WARPS:;
#TIMESIGNATURES:0.000=4=4;
#TICKCOUNTS:0.000=4;
#COMBOS:0.000=1;
#SPEEDS:0.000=1.000=0.000=0;
#SCROLLS:0.000=1.000;
#FAKES:;
#LABELS:0.000=Song Start;
#BGCHANGES:
;
#KEYSOUNDS:;
#ATTACKS:
;

//---------------dance-single - ----------------
#NOTEDATA:;
#CHARTNAME:X-Scale 7;
#STEPSTYPE:dance-single;
#DESCRIPTION:;
#CHARTSTYLE:;
#DIFFICULTY:Medium;
#METER:5;
#RADARVALUES:0.271001,0.421590,0.007904,0.505869,0.280599,240.000000,239.000000,1.000000,64.000000,0.000000,0.000000,0.000000,0.000000,0.000000,0.271001,0.421590,0.007904,0.505869,0.280599,240.000000,239.000000,1.000000,64.000000,0.000000,0.000000,0.000000,0.000000,0.000000;
#CREDIT:iamthek3n;
#NOTES:
0000
0000
0000
0000
,
0000
0000
0000
0000
,
0000
0000
0000
0000
,
0000
0000
0000
0000
,
0001
0000
0000
0000
0000
0000
0010
0000
0000
0001
0000
0000
0010
0000
0000
0000
,
0100
0000
0000
0000
0000
0000
1000
0000
0000
0100
0000
0000
1000
0000
0000
0000
,
0001
0000
0000
0000
0000
0000
0100
0000
0000
0001
0000
0000
0100
0000
0000
0000
,
0010
0000
0000
0020
0000
0000
0000
0000
0000
0000
0000
0000
0000
0000
0000
0000
,
1030
0000
0010
0000
1000
0000
0010
0100
,
0010
0100
0002
0000
,
1003
0000
0000
0010
0000
0000
0001
0000
0000
0010
0000
0000
1000
0000
0000
0000
,
0001
0000
0000
0010
0000
0000
1000
0000
0000
0010
0000
0000
0001
0000
0000
0000
,
1000
0000
0010
0000
1000
0000
0001
1000
,
0001
0010
0200
0000
,
1300
0000
0000
0100
0000
0000
0001
0000
0000
0100
0000
0000
1000
0000
0000
0000
,
0001
0000
0000
0002
0000
0000
0000
0000
0000
0000
0000
0000
0000
0000
0000
0000
,
0023
0000
0100
0000
,
1000
0000
0100
0000
,
0001
0000
0230
0000
,
0310
0100
1000
0000
0002
0000
0000
0000
,
0203
0000
1000
0000
,
0010
0000
0001
0000
,
1000
0000
0320
0000
,
0130
0000
0010
0000
1000
0000
0000
0100
0000
0000
0000
0100
1000
0000
0000
0010
,
0000
0000
0010
0100
0000
0000
0001
0000
1000
0000
0100
0000
0010
0000
0002
0000
,
0000
0003
2000
0000
0000
0000
0000
0000
3001
0000
0000
0000
0010
0000
0200
0000
,
0000
0300
0020
0000
0000
0000
0000
0000
0031
0000
0000
0000
0000
0000
0000
0000
,
1000
0000
0000
0100
0000
0000
0001
0000
0000
0100
0000
0000
1000
0000
0000
0100
,
1000
0000
0001
1000
0000
0000
0100
0000
0010
0000
0001
0000
1000
0000
0020
0000
,
0000
0030
2000
0000
0000
0000
0000
0000
3001
0000
0000
0000
0010
0000
0200
0000
,
0000
0300
2000
0000
0000
0000
0000
0000
3002
0000
0000
0000
0000
0000
0000
0000
,
0200
0000
0000
0000
0000
0000
0000
0303
,
0102
0000
0003
0200
0000
0300
0002
0000
2003
0000
0000
3100
0000
0000
1000
0000
,
0001
0000
0000
0010
0000
0000
0001
0000
1000
0000
0000
0100
0000
0000
0010
0000
,
0001
0000
0000
1000
0000
0000
0010
0000
0000
1000
0000
0000
0001
0000
0010
0100
,
0010
0000
0000
0001
0000
0000
1000
0000
0000
0001
0000
0000
0010
0000
0100
0010
,
0200
0000
0300
2000
0000
3000
0002
0000
2003
0000
0000
3000
0010
0000
0000
1000
,
0000
0000
0001
0000
0000
0010
0000
0000
0100
0000
0000
0010
0000
0000
0001
0000
,
1000
0000
0000
0100
0000
0000
1000
0000
0000
0001
0000
0000
0010
0000
0100
0010
,
0100
0000
0000
1000
0000
0000
0001
0000
0000
0100
0000
0000
0010
0000
0100
0010
,
0200
0000
0300
0002
0000
0003
0020
0000
0230
0000
0000
1300
0000
0000
0100
0000
,
1000
0100
0000
0010
0001
0000
0000
0100
0000
0000
0001
0000
0000
1000
0000
0100
,
2000
0000
0000
0010
3000
0000
0100
0010
0200
0000
0000
0001
0300
0000
1000
0001
,
2000
0000
0000
0100
3000
0000
0010
0100
0020
0000
0000
0001
0030
0000
0001
1000
,
0002
0000
0003
0200
0000
0300
0020
0000
2030
0000
0000
3100
0000
0000
1000
0000
,
0001
0010
0000
0100
1000
0000
0000
0001
0000
0000
1000
0000
0000
0100
0000
0010
,
0200
0000
0000
1000
0300
0000
1000
0001
2000
0000
0000
0010
3000
0000
0010
0100
,
0020
0000
0000
1000
0030
0000
0001
1000
0002
0000
0000
0100
0003
0000
0100
0010
,
0200
0000
0000
0000
,
0302
0000
2003
0000
,
3000
0000
0000
0000
0000
0000
0000
0200
0000
0300
0000
0020
0000
0030
0002
0000
,
0000
2000
0000
0000
0003
0000
0000
0000
,
3010
1000
0020
0000
0230
0000
0000
0301
,
2000
0000
0000
0000
,
3000
0000
0000
0000
,
0200
0000
0000
0000
,
2300
3002
0023
0030
0002
0000
0000
2003
,
0000
0000
0000
3000
,
0000
0000
0000
0000
,
0200
0000
0300
0000
,
0020
0000
0000
0000
0032
0003
2000
3000
,
0002
0000
0000
0000
,
0000
0000
0000
0003
;

//---------------dance-single - ----------------
#NOTEDATA:;
#CHARTNAME:X-Scale 10;
#STEPSTYPE:dance-single;
#DESCRIPTION:;
#CHARTSTYLE:;
#DIFFICULTY:Hard;
#METER:7;
#RADARVALUES:0.347785,0.545587,0.031617,0.829941,0.367545,308.000000,304.000000,4.000000,105.000000,0.000000,0.000000,1.000000,0.000000,0.000000,0.347785,0.545587,0.031617,0.829941,0.367545,308.000000,304.000000,4.000000,105.000000,0.000000,0.000000,1.000000,0.000000,0.000000;
#CREDIT:iamthek3n;
#NOTES:
// measure 0
0000
0000
0000
0000
,  // measure 1
0000
0000
0000
0000
,  // measure 2
0000
0000
0000
0000
,  // measure 3
0000
0000
0000
0000
,  // measure 4
1000
0000
0000
1000
0000
0000
1000
0000
0000
1000
0000
0000
1000
0000
0000
0010
,  // measure 5
0100
0000
0000
0100
0000
0000
0100
0000
0000
0100
0000
0000
0100
0000
0000
0001
,  // measure 6
1000
0000
0000
1000
0000
0000
1000
0000
0000
1000
0000
0000
1000
0000
0000
0100
,  // measure 7
0010
0000
0000
0020
0000
0000
0000
0000
0000
0000
0000
0000
0000
0000
0000
0000
,  // measure 8
0032
0000
0203
0000
0302
0000
1003
0100
,  // measure 9
2000
0000
0000
0000
3020
0000
0000
0000
0230
0000
0000
0000
0001
0000
0300
0100
,  // measure 10
0001
0000
0000
0001
0000
0000
0001
0000
0000
0001
0000
0000
0001
0000
0000
0010
,  // measure 11
0100
0000
0000
0100
0000
0000
0100
0000
0000
0100
0000
0000
0100
0000
0000
0010
,  // measure 12
0002
0000
0203
0000
0302
0000
1003
0001
,  // measure 13
2000
0000
0000
0000
3020
0000
0000
0000
0230
0000
0000
0000
0001
0000
0300
0100
,  // measure 14
0010
0000
0000
0010
0000
0000
0010
0000
0000
0010
0000
0000
0010
0000
0000
0100
,  // measure 15
0001
0000
0000
0002
0000
0000
0000
0000
0000
0000
0000
0000
0000
0000
0000
0000
,  // measure 16
2003
0000
0000
3100
0020
0000
0000
0031
,  // measure 17
2000
0000
0000
3001
0200
0000
0000
0310
,  // measure 18
2000
0000
0000
3001
0200
0000
0000
0000
,  // measure 19
0302
0003
0200
0300
0002
0000
0003
0000
2001
0000
0000
0000
0000
0000
0000
0000
,  // measure 20
3020
0000
0000
1030
0002
0000
0000
0103
,  // measure 21
0020
0000
0000
1030
0200
0000
0000
0310
,  // measure 22
0002
0000
0000
0013
0200
0000
0000
0000
,  // measure 23
2300
3000
0200
0300
2000
0000
3001
1000
0000
0010
0000
0010
0100
0000
0000
0010
,  // measure 24
0100
0000
0010
0100
0000
0000
0001
0000
0010
0000
1000
0000
0010
0000
0002
0000
,  // measure 25
0000
0003
2000
0000
0000
0000
3001
0000
1001
0000
0000
0000
0010
0000
2000
0000
,  // measure 26
0000
3000
0002
0000
0000
0000
0013
0000
0012
0000
0000
0000
0000
0000
0000
0000
,  // measure 27
0023
0000
0000
0000
0000
0000
0032
0003
0020
0030
0002
0003
0200
0000
0000
0000
,  // measure 28
0010
0000
0000
1000
0000
0000
0301
0000
0100
0000
1000
0000
0100
0000
0002
0000
,  // measure 29
0000
0003
2000
0000
0000
0000
3001
0000
1000
0000
0000
0000
0010
0000
0200
0000
,  // measure 30
0000
0300
0002
0000
0000
0000
1003
0000
0200
0000
0000
0000
0000
0000
0000
0000
,  // measure 31
0040
0000
0000
0000
0000
0000
0000
0330
,  // measure 32
0120
0000
0030
0002
0000
0003
2000
0000
3010
0100
0000
0100
0001
0000
0010
0001
,  // measure 33
0010
0000
0000
0100
0000
0000
1000
0000
0010
1000
0000
1000
0001
0000
0010
0000
,  // measure 34
0200
0000
0000
0000
0300
0000
1000
0100
0020
0000
0000
0000
0030
0000
0100
0010
,  // measure 35
0002
0000
0000
0000
0003
0000
1000
0010
0200
0000
0000
0000
0300
0000
0010
0100
,  // measure 36
0002
0000
0003
0200
0000
0300
0020
0000
1030
0001
0000
0001
1000
0000
0100
1000
,  // measure 37
0100
0000
0000
1000
0000
0000
0001
0000
1000
0001
0000
0001
0010
0000
0100
0000
,  // measure 38
2000
0000
0000
0000
3000
0000
0001
0010
0200
0000
0000
0000
0300
0000
0010
0100
,  // measure 39
2000
0000
0000
0000
3000
0000
0001
0100
0020
0000
0000
0000
0030
0000
0100
0010
,  // measure 40
2000
0000
3000
0200
0000
0300
0020
0000
0031
0010
0000
0100
0010
0000
0001
1000
,  // measure 41
0001
0010
0000
0100
0010
0000
0001
1000
0000
0010
1000
0000
0100
0010
0000
0100
,  // measure 42
2000
0000
0000
0001
3000
0000
0010
0100
2000
0000
0000
0001
3000
0000
1000
0010
,  // measure 43
0200
0000
0000
0010
0300
0000
0100
0001
2000
0000
0000
0001
3000
0002
1003
0100
,  // measure 44
0020
0000
0030
0002
0000
0003
2000
0000
3001
0100
0000
1000
0100
0000
0010
0100
,  // measure 45
0000
0001
0100
0000
0010
1000
0000
0100
0010
0000
0001
1000
0000
0001
0010
0000
,  // measure 46
0200
0000
0000
0010
0300
0000
0001
0010
0200
0000
0000
1000
0300
0000
1000
0001
,  // measure 47
0020
0000
0100
0000
0030
0000
0010
0100
2000
0000
0000
0001
3000
0002
1003
0010
,  // measure 48
0200
0000
0000
0000
0300
0000
0001
0010
0200
0000
0000
0000
0300
0000
2000
0000
,  // measure 49
0002
0000
0000
0003
0020
0000
3000
0000
,  // measure 50
0000
0000
0000
0000
0030
0000
0000
2000
0000
0000
3000
0200
0000
0000
1300
0100
,  // measure 51
2000
0000
0000
0000
0000
0000
0000
0000
0000
0000
0000
0000
0000
0000
0000
3000
,  // measure 52
0002
0000
0100
0000
0200
0000
0000
0000
0300
0000
2000
0000
3000
0000
2000
0003
,  // measure 53
3200
0020
0000
0000
0000
0000
0000
0000
,  // measure 54
0030
0000
0000
0000
0000
0000
0000
0000
0000
0000
0000
0000
0300
0000
0010
0100
,  // measure 55
2000
0000
0000
0000
0000
0000
0002
0000
0003
0000
0200
0000
0300
0000
3001
1000
,  // measure 56
0020
0000
0100
0000
1000
0000
0100
0000
0200
0000
0000
0000
0300
0000
1030
0001
,  // measure 57
2000
0000
0200
0300
0200
0000
0000
0000
,  // measure 58
0300
0000
0000
0000
0000
0000
0000
0000
0000
0000
0000
0000
0000
0000
0000
3000
,  // measure 59
0200
0000
0000
0000
0000
0000
0000
0000
0000
0000
0000
0000
0000
0000
0000
0300
,  // measure 60
2000
0000
0000
0000
0002
0003
0020
0030
,  // measure 61
3002
0000
0000
0000
,  // measure 62
0000
0000
0000
0003
;

//---------------dance-single - ----------------
#NOTEDATA:;
#CHARTNAME:X-Scale 2;
#STEPSTYPE:dance-single;
#DESCRIPTION:;
#CHARTSTYLE:;
#DIFFICULTY:Easy;
#METER:2;
#RADARVALUES:0.145663,0.241078,0.055329,0.197605,0.000000,129.000000,122.000000,7.000000,25.000000,0.000000,0.000000,0.000000,0.000000,0.000000,0.145663,0.241078,0.055329,0.197605,0.000000,129.000000,122.000000,7.000000,25.000000,0.000000,0.000000,0.000000,0.000000,0.000000;
#CREDIT:iamthek3n;
#NOTES:
0000
0000
0000
0000
,
0000
0000
0000
0000
,
0000
0000
0000
0000
,
0000
0000
0000
0000
,
1000
0000
0000
0000
,
0100
0000
0000
0000
,
0010
0000
0000
0000
,
0001
0000
0000
0000
,
1000
0000
0001
0100
,
0001
0000
0020
0000
,
0130
0000
0000
0000
,
0001
0000
0000
0000
,
1000
0000
0010
1000
,
0010
0000
0200
0000
,
0301
0000
0000
0000
,
1000
0000
0000
0000
,
0100
0000
1100
0000
,
1000
0000
1001
0000
,
0001
0000
0101
0000
,
0100
0010
0100
0000
0001
0000
0000
0000
,
1000
0000
1001
0000
,
0100
0000
1100
0000
,
1000
0000
1001
0000
,
0010
0100
0010
0000
0001
0000
1000
0000
,
0001
0000
0000
0000
0010
0000
0000
0200
,
0300
0200
0000
0300
1000
0000
0000
0002
,
0003
0002
0000
0003
0010
0000
0000
0000
,
0200
0000
0300
1000
0100
1000
0200
0000
,
0000
0000
0300
0010
0001
0000
0000
0000
,
1000
0000
0000
0100
1000
0000
0000
0000
,
0010
0000
0000
0100
0010
0000
0000
0000
,
0000
0000
0000
0000
,
1001
0000
0000
0001
1000
0000
0100
0000
,
1000
0001
0010
0001
,
2000
3000
0200
0300
,
0020
0030
0002
0003
,
1000
0000
0000
0001
1000
0000
0010
0000
,
0100
0010
1000
0100
,
0020
0030
0002
0003
,
2000
3000
0200
0300
,
0010
0000
0000
0100
1000
0000
0001
0000
,
0010
0100
0010
0001
,
2000
3000
0002
0003
,
0200
0300
0020
0030
,
1000
0000
0000
0001
1000
0000
0010
0000
,
0100
0010
1000
0001
,
0200
0300
0020
0030
,
2000
3000
0002
0003
,
0020
0000
0000
0000
,
0130
0000
0010
0000
,
0000
0000
0001
1000
,
0001
0000
0000
0000
,
0010
0000
0000
0000
,
0100
0000
0000
0000
,
0000
0000
0000
0000
,
0001
0000
0000
0000
,
1000
0000
0000
0000
,
0100
0000
0000
0000
,
0000
0000
0000
0000
,
0001
0000
0000
0000
,
0100
0000
0000
0000
,
0001
0000
0000
0000
;

//---------------dance-single - ----------------
#NOTEDATA:;
#CHARTNAME:X-Scale 1;
#STEPSTYPE:dance-single;
#DESCRIPTION:;
#CHARTSTYLE:;
#DIFFICULTY:Beginner;
#METER:1;
#RADARVALUES:0.092592,0.120539,0.000000,0.000000,0.000000,82.000000,82.000000,0.000000,0.000000,0.000000,0.000000,0.000000,0.000000,0.000000,0.092592,0.120539,0.000000,0.000000,0.000000,82.000000,82.000000,0.000000,0.000000,0.000000,0.000000,0.000000,0.000000,0.000000;
#CREDIT:iamthek3n;
#NOTES:
0000
0000
0000
0000
,
0000
0000
0000
0000
,
0000
0000
0000
0000
,
0000
0000
0000
0000
,
0001
0000
0000
0000
,
0010
0000
0000
0000
,
0001
0000
0000
0000
,
0010
0000
0000
0000
,
0100
0000
0000
0000
,
1000
0000
0000
0000
,
0100
0000
0000
0000
,
1000
0000
0000
0000
,
0001
0000
0000
0000
,
1000
0000
0000
0000
,
0001
0000
0000
0000
,
1000
0000
0000
0000
,
0010
0000
0100
0000
,
0010
0000
0100
0000
,
0001
0000
1000
0000
,
0001
0000
1000
0000
,
0100
0000
0010
0000
,
0100
0000
0010
0000
,
0001
0000
0100
0000
,
0001
0000
0100
0000
,
0010
0000
1000
0000
,
0100
0000
1000
0000
,
0001
0000
1000
0000
,
0100
0000
0000
0000
,
0010
0000
0000
0000
,
0001
0000
0000
0000
,
1000
0000
0000
0000
,
0001
0000
0000
0000
,
0100
0000
0010
0000
,
0100
0000
0010
0000
,
1000
0000
0010
0000
,
1000
0000
0010
0000
,
0100
0000
0001
0000
,
0100
0000
0001
0000
,
0010
0000
0100
0000
,
0010
0000
0100
0000
,
1000
0000
0100
0000
,
1000
0000
0001
0000
,
1000
0000
0001
0000
,
0100
0000
0001
0000
,
0100
0000
0001
0000
,
0010
0000
0100
0000
,
0010
0000
0100
0000
,
1000
0000
0001
0000
,
1000
0000
0000
0000
,
0001
0000
0000
0000
,
0000
0000
0000
0000
,
1000
0000
0000
0000
,
0100
0000
0000
0000
,
0010
0000
0000
0000
,
0000
0000
0000
0000
,
1000
0000
0000
0000
,
0001
0000
0000
0000
,
0100
0000
0000
0000
,
0000
0000
0000
0000
,
1000
0000
0000
0000
,
0001
0000
0000
0000
,
0100
0000
0000
0000
;
