#VERSION:0.83;
#TITLE:Demonstrate 2018;
#SUBTITLE:;
#ARTIST:JoJo;
#TITLETRANSLIT:;
#SUBTITLETRANSLIT:;
#ARTISTTRANSLIT:;
#GENRE:R&B;
#ORIGIN:;
#CREDIT:;
#BANNER:Demonstrate 2018-bn.png;
#BACKGROUND:Demonstrate 2018-bg.png;
#PREVIEWVID:;
#JACKET:Demonstrate 2018-jacket.png;
#CDIMAGE:;
#DISCIMAGE:;
#LYRICSPATH:;
#CDTITLE:cdtitle.png;
#MUSIC:Demonstrate 2018.ogg;
#OFFSET:-0.006000;
#SAMPLESTART:55.026001;
#SAMPLELENGTH:17.000000;
#SELECTABLE:YES;
#BPMS:0.000=60.000;
#STOPS:;
#DELAYS:;
#WARPS:;
#TIMESIGNATURES:0.000=4=4;
#TICKCOUNTS:0.000=4;
#COMBOS:0.000=1;
#SPEEDS:0.000=1.000=0.000=0;
#SCROLLS:0.000=1.000;
#FAKES:;
#LABELS:0.000=Song Start;
#BGCHANGES:;
#KEYSOUNDS:;
#ATTACKS:
;

//---------------dance-single - ----------------
#NOTEDATA:;
#CHARTNAME:X-Scale 12;
#STEPSTYPE:dance-single;
#DESCRIPTION:;
#CHARTSTYLE:;
#DIFFICULTY:Hard;
#METER:8;
#RADARVALUES:0.380267,0.415243,0.092319,0.530835,0.503908,346.000000,334.000000,12.000000,69.000000,0.000000,0.000000,0.000000,0.000000,0.000000,0.380267,0.415243,0.092319,0.530835,0.503908,346.000000,334.000000,12.000000,69.000000,0.000000,0.000000,0.000000,0.000000,0.000000;
#CREDIT:;
#NOTES:
// measure 0
0000
0000
0000
0000
,  // measure 1
0000
0000
0000
0000
,  // measure 2
2100
0000
0000
0000
3001
0100
1000
0100
0001
0010
0100
1000
0002
0003
2000
3000
,  // measure 3
0010
0100
1000
0100
0001
0000
0010
0002
0000
0000
0000
0003
1000
0001
1000
0001
,  // measure 4
2000
0000
0000
0000
3010
0100
1000
0100
0001
0010
0001
1000
0200
0000
1300
0000
,  // measure 5
0001
0100
0010
0100
0001
0000
1000
0002
0000
0000
0000
0003
0010
0001
1000
0001
,  // measure 6
0100
0000
0000
0000
0010
0100
0000
0000
0001
0000
0100
0000
1000
0000
0001
0000
0010
0000
1000
0000
1000
0000
0000
0000
0001
0000
0100
0000
0001
0000
0010
0000
,  // measure 7
0100
0000
0000
0000
1000
0100
0000
0000
1000
0000
0010
0000
0001
0000
0010
0000
0100
0000
0001
0000
0000
1000
0000
0000
0010
0000
0001
0000
0010
0000
0100
0000
,  // measure 8
0010
0010
1000
1000
0001
0001
0010
0010
0100
0100
1000
1000
0001
0010
0100
1000
,  // measure 9
1100
0000
0100
0000
1010
0000
0001
0000
1001
0000
1000
0010
0100
0001
0001
1000
,  // measure 10
2010
0000
0000
0000
0000
0000
0000
0000
3002
0000
0000
0000
0200
0300
0000
0000
0203
0000
0000
0000
0000
0000
0020
0000
0030
0000
0000
0000
0000
0000
0302
0000
,  // measure 11
0103
0001
1000
0001
0010
0100
1000
0000
0002
0000
0000
0013
0001
1000
0001
0000
,  // measure 12
2001
0000
0000
0000
0000
0000
0000
0000
3020
0000
0000
0000
0200
0300
0000
0000
0230
0000
0000
0000
0000
0000
0002
0000
0003
0000
0000
0000
0000
0000
0302
0000
,  // measure 13
2003
0000
3100
1000
0001
1000
0100
0020
0000
0000
0031
0010
1000
0010
0002
0003
,  // measure 14
1001
1000
0100
0010
0001
0001
0100
0010
1000
1000
0100
0010
0001
0001
0100
0010
,  // measure 15
1000
1000
0100
0010
0001
0001
0100
0010
1000
1000
0100
0010
0001
0001
0100
0010
,  // measure 16
2000
0000
0000
0000
3010
1000
0002
0000
2003
0000
3100
1000
0002
0000
0100
0000
,  // measure 17
0023
0030
0020
0030
0001
0100
0010
0100
0002
0003
0002
0003
2000
0000
0000
3000
,  // measure 18
1001
0000
1000
0200
0000
0300
0010
0200
0000
0310
0001
1000
0001
0010
0001
0000
,  // measure 19
1000
0000
0100
0020
0000
0031
0100
0020
0000
2030
0010
0000
3001
1000
0100
1000
,  // measure 20
0001
0001
0010
0010
0100
0100
1000
1000
0010
0010
0100
0100
0001
1000
0100
0010
,  // measure 21
0011
0000
0010
0000
0101
0000
1000
0000
1100
0000
1000
0001
0010
0100
1000
0000
,  // measure 22
0200
0000
0000
0300
2000
0000
0000
3000
0002
0000
0023
0000
0032
0000
0023
0100
,  // measure 23
0130
1000
0001
0100
0010
1000
0001
0000
0100
0000
0010
1000
0001
1000
0100
0000
,  // measure 24
0020
0000
0000
0030
0002
0000
0000
0003
2000
0000
3200
0000
2300
0000
3200
0010
,  // measure 25
0320
0000
0031
0100
0010
0100
0001
0200
0000
0000
0310
0100
0001
1000
0200
0300
,  // measure 26
1100
1000
0100
0010
0001
0001
0100
0010
1000
1000
0100
0010
0001
0001
0100
0010
,  // measure 27
1000
1000
0010
0100
0001
0001
0010
0100
1000
1000
0010
0100
0001
0001
0010
0100
,  // measure 28
2000
0000
0000
3100
0020
0000
0000
0030
0001
0010
0001
0000
1000
0100
0010
0001
,  // measure 29
2000
0000
3200
0000
1300
0010
0100
0010
2000
0000
3200
0000
0320
0000
0000
0000
,  // measure 30
0002
0000
0000
0000
0000
0000
0000
0000
0003
0000
0000
0000
0200
0000
0330
0000
2000
0000
0000
3000
0002
0000
0000
0000
0003
0000
0000
0000
0200
0000
0300
0000
,  // measure 31
0020
0000
0000
0030
2000
0000
0000
0000
3000
0000
0000
0000
0002
0000
0003
0000
2000
0000
0000
3000
0200
0000
0000
0000
0300
0000
0000
0000
0000
0000
0000
0000
;

//---------------dance-single - ----------------
#NOTEDATA:;
#CHARTNAME:X-Scale 9;
#STEPSTYPE:dance-single;
#DESCRIPTION:;
#CHARTSTYLE:;
#DIFFICULTY:Medium;
#METER:6;
#RADARVALUES:0.315423,0.378604,0.169252,0.330810,0.311577,287.000000,265.000000,22.000000,43.000000,0.000000,0.000000,0.000000,0.000000,0.000000,0.315423,0.378604,0.169252,0.330810,0.311577,287.000000,265.000000,22.000000,43.000000,0.000000,0.000000,0.000000,0.000000,0.000000;
#CREDIT:;
#NOTES:
// measure 0
0000
0000
0000
0000
,  // measure 1
0000
0000
0000
0000
,  // measure 2
2001
0000
0000
0000
3200
0000
0000
0000
0310
0100
1000
0001
2000
0000
3002
0000
,  // measure 3
0013
0001
1000
0010
0200
0000
0301
0200
0000
0000
0000
0000
0001
0300
0000
0000
,  // measure 4
2100
0000
0000
0000
3002
0000
0000
0000
0103
0001
1000
0001
0200
0000
0000
0300
,  // measure 5
0001
0100
0010
1000
0002
0000
0103
0020
0000
0000
0000
0000
1030
0000
0000
1000
,  // measure 6
0001
0000
0000
0000
0010
0100
0000
0000
0110
0000
0000
0000
0000
0000
1000
0000
0001
0000
1000
0000
1000
0100
0000
0000
0110
0000
0010
0000
0000
0000
0001
0000
,  // measure 7
0100
0000
0000
0000
0001
1000
0000
0000
1001
0000
0000
0000
0000
0000
0001
0000
0010
0000
0100
0000
0000
2000
0000
0000
0001
0000
0000
3000
0000
0000
0000
0000
,  // measure 8
1000
0100
0010
0001
1000
0100
0010
0001
1000
0010
0100
0001
1000
0000
0001
0000
,  // measure 9
1001
0000
0100
0000
1001
0000
0010
0000
1001
0000
0100
0000
1001
1000
0001
1000
,  // measure 10
0200
0000
0000
0000
0320
0000
0000
0000
0032
0000
0000
0000
2003
0000
3000
0010
,  // measure 11
0100
0000
1000
0000
0100
0000
0001
0000
0100
0000
0010
0000
1000
0000
0000
0001
0000
2000
0000
0000
0000
3000
0100
0000
1000
0000
0001
0000
1000
0000
0000
0000
,  // measure 12
0002
0000
0023
0000
0130
1000
0100
1000
,  // measure 13
0001
0000
0100
0010
1000
0001
0010
0200
0000
0000
1300
0100
1000
0001
0200
0300
,  // measure 14
0110
0020
0000
0000
0001
0000
0000
0000
0100
0000
1000
0000
0130
0000
0010
2000
,  // measure 15
0000
3000
0002
0000
1000
0000
0010
0000
1003
0000
0001
0010
1000
0010
0001
0000
,  // measure 16
0021
0000
0000
0000
0230
0000
0000
0000
2300
0000
3001
1000
0020
0000
0000
0000
,  // measure 17
0130
0000
0001
0000
0101
0000
1000
0000
0100
0000
1000
0000
2100
0000
0000
3000
,  // measure 18
1001
0000
0000
0000
0010
0001
0010
0001
0000
1000
1000
0000
0010
0100
0010
0100
,  // measure 19
0001
0000
0000
0000
1000
0010
1000
0010
0000
0000
0100
0000
0010
0100
0010
0100
,  // measure 20
0001
0010
0100
1000
0001
0010
0100
1000
0001
0010
0100
1000
0001
0100
0001
1000
,  // measure 21
1001
0000
0010
0000
1001
0000
0100
0000
1001
0000
0010
0000
1001
1000
0001
0000
,  // measure 22
0200
0000
0320
0000
1030
0001
1000
0001
,  // measure 23
1000
0010
0100
0001
0010
0100
1000
0002
0000
0000
0003
1000
0001
0100
0001
0000
,  // measure 24
0201
0000
0320
0000
1030
0001
1000
0001
,  // measure 25
0010
0000
0000
0000
0100
0000
0010
0000
0001
0000
1000
0000
0001
0000
0000
0020
0000
0000
0000
0000
0130
0000
0010
0000
0100
0000
0010
0000
0100
0000
0000
0000
,  // measure 26
0110
0000
0100
0010
0001
0000
1000
0001
0100
0000
0010
0000
0101
0000
1000
0001
,  // measure 27
0100
0000
0010
0000
0100
0000
0001
1000
0100
0000
1000
0000
0001
1000
0001
0000
,  // measure 28
2001
0000
3002
0000
0023
0000
0130
0010
,  // measure 29
0001
1000
0001
0010
0100
1000
0002
0000
,  // measure 30
2003
0000
3000
0010
0020
0000
0030
0100
,  // measure 31
0200
0000
0300
0001
0002
0000
0003
0000
;

//---------------dance-single - ----------------
#NOTEDATA:;
#CHARTNAME:X-Scale 5;
#STEPSTYPE:dance-single;
#DESCRIPTION:;
#CHARTSTYLE:;
#DIFFICULTY:Easy;
#METER:3;
#RADARVALUES:0.235194,0.256474,0.046160,0.207718,0.084626,214.000000,208.000000,6.000000,27.000000,0.000000,2.000000,0.000000,0.000000,0.000000,0.235194,0.256474,0.046160,0.207718,0.084626,214.000000,208.000000,6.000000,27.000000,0.000000,2.000000,0.000000,0.000000,0.000000;
#CREDIT:;
#NOTES:
// measure 0
0000
0000
0000
0000
,  // measure 1
0000
0000
0000
0000
,  // measure 2
1000
0000
0100
1000
0100
0000
1000
0001
,  // measure 3
1000
0000
0010
0100
0010
0000
0100
0001
,  // measure 4
0100
0000
0010
0100
0010
0000
1000
0100
,  // measure 5
1000
0000
0001
0010
0001
0000
1000
0010
,  // measure 6
1000
0000
0000
0000
1001
0000
0000
0000
0000
0001
0001
0000
0010
0001
0000
0000
,  // measure 7
1000
0000
1010
0000
0010
0000
1000
0010
,  // measure 8
1000
0100
0010
0001
1000
0100
0010
0001
,  // measure 9
2000
0000
0000
3000
0200
0000
0000
0000
2300
0000
3000
0000
0001
1000
0001
0000
,  // measure 10
0020
0000
0230
0000
2300
0000
0002
3000
,  // measure 11
0103
0000
0001
0000
0100
0010
0100
0000
0001
0000
0000
0010
0100
0010
0100
0000
,  // measure 12
2000
0000
3002
0000
0203
0000
0020
0300
,  // measure 13
0130
0000
0010
0000
1000
0010
1000
0002
0000
0000
0010
0003
0001
0000
1000
0000
,  // measure 14
1100
0000
1000
0001
0010
0001
1000
0100
,  // measure 15
0010
0100
1000
0001
0010
0001
1000
0000
,  // measure 16
0010
0000
0100
0001
1000
0001
0100
0010
,  // measure 17
1000
0000
0010
0000
0100
0000
0001
0000
0010
0000
0001
0000
2000
0000
0000
3000
,  // measure 18
1001
0000
0000
0000
0010
1000
0010
0000
0000
0100
0100
0000
0001
0100
0001
0000
,  // measure 19
0010
0000
0000
0000
0100
0010
0100
0000
1000
0000
0001
0000
0100
0001
0100
0000
,  // measure 20
0001
0100
0010
1000
0001
0100
0010
1000
,  // measure 21
1020
0000
0130
0000
0200
0000
0301
0000
0002
0000
1003
0010
0100
0010
2000
0000
,  // measure 22
0002
0000
0000
0000
0023
0000
0000
0000
0031
3000
1000
0000
0001
0000
0000
0000
,  // measure 23
0010
0000
0100
0010
0100
0000
1000
0000
0002
0000
0000
0013
0001
1000
0001
0000
,  // measure 24
0020
0000
0230
0000
1300
0010
1000
0010
,  // measure 25
0100
0000
0001
0100
0010
0100
0001
0000
0010
0000
0100
1000
0001
1000
0100
0000
,  // measure 26
1100
0000
0001
1000
0100
1000
0001
0010
,  // measure 27
0100
0010
0001
0100
0010
0100
0001
0000
,  // measure 28
0010
0000
0100
0010
0001
1000
0001
0010
,  // measure 29
0100
1000
0001
0100
0001
1000
0020
0000
,  // measure 30
2030
0000
3000
0001
2000
0000
3000
0001
,  // measure 31
2000
0000
3000
0001
0020
0000
0030
0000
;

//---------------dance-single - ----------------
#NOTEDATA:;
#CHARTNAME:X-Scale 1;
#STEPSTYPE:dance-single;
#DESCRIPTION:;
#CHARTSTYLE:;
#DIFFICULTY:Beginner;
#METER:1;
#RADARVALUES:0.118696,0.121169,0.015387,0.000000,0.000000,108.000000,106.000000,2.000000,0.000000,0.000000,0.000000,0.000000,0.000000,0.000000,0.118696,0.121169,0.015387,0.000000,0.000000,108.000000,106.000000,2.000000,0.000000,0.000000,0.000000,0.000000,0.000000,0.000000;
#CREDIT:;
#NOTES:
// measure 0
0000
0000
0000
0000
,  // measure 1
0000
0000
0000
0000
,  // measure 2
0001
0010
0000
0001
,  // measure 3
0100
0001
0000
1000
,  // measure 4
0100
1000
0000
0001
,  // measure 5
0100
0001
0000
1000
,  // measure 6
0100
1000
0000
0010
,  // measure 7
0100
0010
0000
1000
,  // measure 8
0001
0010
0001
1000
,  // measure 9
0010
0100
0001
0100
,  // measure 10
0010
1000
0010
1000
,  // measure 11
0001
1000
0100
0010
,  // measure 12
0001
1000
0001
0010
,  // measure 13
0001
1000
0100
0000
,  // measure 14
1001
0001
1000
0001
,  // measure 15
0100
0010
0100
0010
,  // measure 16
1000
0001
1000
0001
,  // measure 17
0010
0100
0010
0100
,  // measure 18
1000
0001
0000
0010
,  // measure 19
0001
0010
0000
0100
,  // measure 20
1000
0001
1000
0100
,  // measure 21
0010
0100
1000
0001
,  // measure 22
0100
0001
1000
0010
,  // measure 23
0100
0010
1000
0100
,  // measure 24
0010
0100
1000
0001
,  // measure 25
0100
0001
1000
0000
,  // measure 26
1001
0001
1000
0001
,  // measure 27
0100
0010
0100
0010
,  // measure 28
1000
0001
1000
0001
,  // measure 29
0010
0100
0010
0100
,  // measure 30
1000
0000
0001
0000
,  // measure 31
1000
0000
0001
0000
;
