#TITLE:Deborah;
#SUBTITLE:;
#ARTIST:Paul Bazooka feat. Lucy;
#TITLETRANSLIT:;
#SUBTITLETRANSLIT:;
#ARTISTTRANSLIT:;
#GENRE:Complextro;
#CREDIT:;
#BANNER:Deborah-bn.png;
#BACKGROUND:Deborah-bg.png;
#LYRICSPATH:;
#CDTITLE:cdtitle.png;
#MUSIC:Deborah.ogg;
#OFFSET:-0.006000;
#SAMPLESTART:44.550999;
#SAMPLELENGTH:14.091000;
#SELECTABLE:YES;
#BPMS:0.000000=132.000000
;
#STOPS:
;
#BGCHANGES:0.000=Deborah.avi=1.000=1=0=0=StretchNoLoop==CrossFade==,
99999=-nosongbg-=1.000=0=0=0 // don't automatically add -songbackground-
;
#KEYSOUNDS:;
#ATTACKS:;

//---------------dance-single - ----------------
#NOTES:
     dance-single:
     X-Scale 6:
     Easy:
     4:
     0.234858,0.318164,0.090875,0.033045,0.000000,199.000000,188.000000,11.000000,4.000000,0.000000,0.000000,0.234858,0.318164,0.090875,0.033045,0.000000,199.000000,188.000000,11.000000,4.000000,0.000000,0.000000:
// measure 0
0000
0000
0000
0000
,  // measure 1
0000
0000
0000
0000
,  // measure 2
0000
0000
0000
0000
,  // measure 3
0000
0000
0000
0000
,  // measure 4
0000
0000
0000
0100
,  // measure 5
0000
1000
0000
0001
,  // measure 6
0000
0100
0000
0100
0000
0000
0001
0000
,  // measure 7
0000
1000
0000
0000
,  // measure 8
0000
0000
1001
0000
,  // measure 9
0110
0000
0000
1001
0000
0000
0000
0000
,  // measure 10
0000
0000
1001
0000
0100
0000
1000
0001
,  // measure 11
0000
0100
0000
0001
0000
0010
0100
0000
,  // measure 12
1000
0001
1000
0100
,  // measure 13
0010
0001
0000
1000
0000
0100
1000
0000
,  // measure 14
0001
0000
0010
0000
0100
0000
0010
0001
,  // measure 15
0000
1000
0100
1000
0000
0000
0000
0000
,  // measure 16
1001
0000
0110
0010
,  // measure 17
0100
0001
0100
0010
,  // measure 18
0100
0001
0010
0100
,  // measure 19
0010
0001
0010
0100
,  // measure 20
1000
0001
1000
0100
,  // measure 21
1000
0001
0100
0010
,  // measure 22
1000
0001
1000
0000
,  // measure 23
0001
0000
1000
0000
,  // measure 24
0000
0000
1001
0100
,  // measure 25
1000
0001
0000
0100
0000
0001
0010
0100
,  // measure 26
0000
1000
0001
1000
0010
0000
1000
0000
,  // measure 27
0100
0010
0000
0001
0000
1000
0000
0001
,  // measure 28
0100
0001
0010
0100
,  // measure 29
1000
0100
0000
1000
0000
0001
0010
0100
,  // measure 30
0000
0010
0100
2000
0000
0000
0000
0000
,  // measure 31
0000
0000
0000
3000
0000
0000
0000
0000
,  // measure 32
0000
0000
0101
0000
,  // measure 33
0000
0000
0000
0001
0000
0000
0000
1000
,  // measure 34
0000
0001
1000
0000
,  // measure 35
0100
0000
0000
1000
0000
0000
0000
0001
,  // measure 36
0000
0100
0001
0000
1000
0000
0000
0000
,  // measure 37
0100
0000
0000
0010
0000
0100
1000
0001
,  // measure 38
0000
0100
0001
2000
0000
0000
0000
0000
,  // measure 39
0000
0000
3000
0002
,  // measure 40
0103
0010
0100
0000
0110
0000
0000
0000
,  // measure 41
0010
0000
1000
0000
,  // measure 42
0001
0000
1000
0000
,  // measure 43
0100
0000
1000
0000
,  // measure 44
0001
0000
0010
0100
,  // measure 45
0010
0100
1000
0001
,  // measure 46
1000
0001
0100
0010
,  // measure 47
0100
0010
0000
0000
,  // measure 48
0000
0000
1001
1000
,  // measure 49
0100
1000
0001
0100
,  // measure 50
0001
0010
0100
0000
1000
0000
0001
0000
,  // measure 51
1000
0010
1000
0100
,  // measure 52
0010
0100
1000
0000
0002
0000
0103
0000
,  // measure 53
0001
1000
0001
0010
,  // measure 54
0100
0010
0001
0000
1000
0000
0001
0000
,  // measure 55
0001
0000
0001
0010
0100
0000
1000
0000
,  // measure 56
0010
0100
0010
0000
1001
0000
1000
0000
,  // measure 57
0010
1000
0001
0010
,  // measure 58
0100
1000
0001
0001
0100
0000
0001
0000
,  // measure 59
1000
0100
0000
0000
;

//---------------dance-single - ----------------
#NOTES:
     dance-single:
     X-Scale 12:
     Medium:
     8:
     0.475616,0.612784,0.190010,0.429589,0.268493,403.000000,380.000000,23.000000,52.000000,0.000000,0.000000,0.475616,0.612784,0.190010,0.429589,0.268493,403.000000,380.000000,23.000000,52.000000,0.000000,0.000000:
// measure 0
0000
0000
0000
0000
,  // measure 1
0000
0000
0000
0000
,  // measure 2
0000
0000
0000
0000
,  // measure 3
0000
0000
0000
0000
,  // measure 4
0000
0000
0011
2000
,  // measure 5
3010
0000
0200
0000
0300
0000
0002
0000
0000
0000
0013
0001
0000
0000
0001
0000
,  // measure 6
0100
1000
0001
0010
1000
0000
0200
0000
,  // measure 7
0310
0200
0000
2300
3001
1000
0001
1000
,  // measure 8
0100
0010
0100
0010
0110
0000
0000
0000
,  // measure 9
1001
0000
0000
0000
0000
0000
1100
0000
0000
0000
0000
0000
0000
0000
0000
0101
,  // measure 10
0000
0000
1001
0000
1100
0000
0100
2000
,  // measure 11
0100
3002
0010
2003
0000
3100
0100
0010
,  // measure 12
0010
0000
0000
0022
0000
0000
0033
0000
0001
0000
1000
0000
1001
0000
0001
0000
,  // measure 13
0010
0000
0001
0000
0100
0000
0020
0000
0000
1000
0000
1030
0000
0000
0010
0000
,  // measure 14
1000
0001
1000
0100
0020
0000
1030
0002
,  // measure 15
0000
0000
0103
0000
0010
0000
0002
0000
0000
0000
0000
1000
0000
0000
1003
0000
,  // measure 16
1001
0000
0000
1100
0000
0000
0000
0000
0001
0000
0100
0000
0010
0000
2000
0000
,  // measure 17
0000
0000
3100
0000
0020
0000
0000
0031
0200
0000
0000
0000
0301
0000
0100
0000
,  // measure 18
0001
0000
1000
0100
1000
0001
1000
0200
,  // measure 19
0000
0310
0002
0000
1000
0000
0103
0001
,  // measure 20
0100
0000
0010
1000
0020
0000
0130
0002
,  // measure 21
0000
1003
0001
0200
0010
0000
0301
0100
,  // measure 22
1000
0000
0100
0000
0001
0000
1000
0000
1001
0000
0000
1000
0000
0000
0100
0000
,  // measure 23
1100
0000
0000
0001
0000
0000
0100
0000
0202
0000
0000
0000
0303
0000
0000
0000
,  // measure 24
0000
1001
0210
0302
,  // measure 25
1003
0001
0010
0200
0300
1000
0001
0200
,  // measure 26
0301
0100
1000
0100
0002
0000
2003
0000
,  // measure 27
3100
0010
0001
2000
0100
0000
3001
1000
,  // measure 28
0010
1000
0001
0010
0200
0000
2300
0000
,  // measure 29
3001
0100
0010
0200
0000
1300
0100
0002
,  // measure 30
0000
1003
0100
0020
0000
0000
0000
0000
,  // measure 31
0000
0000
0000
0000
0000
0000
0030
0000
0000
0001
0000
0001
0000
1000
0000
1000
,  // measure 32
0000
0000
1001
0000
,  // measure 33
0100
0000
0000
1000
0000
0001
1000
0001
,  // measure 34
0000
0100
0001
0000
1000
0000
0000
0000
,  // measure 35
0100
0010
0000
0001
0000
0100
0001
0100
,  // measure 36
0000
0010
1000
0000
0001
0000
0010
0000
,  // measure 37
0100
0020
0030
0002
0000
1003
0001
0200
,  // measure 38
0000
0301
0010
0200
0010
0000
1000
0000
,  // measure 39
0010
0000
0000
0000
1300
0000
0000
0000
0100
1000
0100
1000
0200
0000
0000
0000
,  // measure 40
0310
0000
0001
0000
0100
0001
0100
0000
0101
0000
0000
0000
0000
0000
0001
0000
,  // measure 41
1000
0000
0000
1000
0000
0000
1000
0000
0001
0000
0000
0000
0000
0000
0100
0000
,  // measure 42
0010
0000
0000
0010
0000
0000
0010
0000
1000
0000
0000
0001
0000
0000
1000
0000
,  // measure 43
0100
0000
0000
0100
0000
0000
0100
0000
0010
0000
0000
0001
0000
0000
0100
0000
,  // measure 44
0001
0000
0000
0001
0000
0000
0001
0000
0010
0000
0000
0100
0000
0000
1000
0000
,  // measure 45
0000
0001
0000
0000
1000
0000
0000
0001
0000
0000
0010
0000
1000
0000
0000
0100
,  // measure 46
0000
0000
0001
0000
0000
0100
0000
0000
1000
0000
0000
0010
0000
0000
0001
0000
,  // measure 47
0000
0010
0000
0000
1000
0000
0000
0000
0000
0000
0000
0000
0000
0000
0000
0000
,  // measure 48
0000
0000
0000
0000
0000
0000
0000
0000
0001
0100
0000
0001
0100
0000
0001
0000
,  // measure 49
1000
0100
0000
1000
0100
0000
1000
0000
0001
0000
1000
0000
0010
0000
0100
0010
,  // measure 50
0100
0000
0001
0000
0020
0000
0000
0000
0130
0000
1000
0100
1000
0000
0001
0000
,  // measure 51
0100
0000
0010
0100
0001
0000
1000
0010
0200
0000
0010
0000
0301
0100
0001
0100
,  // measure 52
0002
0000
0100
0000
1003
0000
0000
0000
1001
0000
0000
0000
0100
1000
0000
1000
,  // measure 53
0100
0010
0001
1000
0001
0010
1000
0010
,  // measure 54
0002
0000
0010
0000
1003
0000
0000
0000
1100
0000
0000
0100
0010
0000
0000
0100
,  // measure 55
1000
0000
0000
0100
0010
0000
0002
0000
1003
0000
0010
0000
1000
0010
1000
0010
,  // measure 56
1000
0001
0100
0000
0101
0000
0001
1000
,  // measure 57
0001
0100
0001
0000
1000
0000
0100
0000
0010
0001
0000
0001
0010
0000
0100
0000
,  // measure 58
1000
0000
0001
0000
0100
0000
0100
0000
0220
0000
0330
0000
1000
0001
1000
0001
,  // measure 59
1000
0000
0010
0000
0100
0000
0001
0000
0010
0100
0000
0100
1000
0001
1000
0010
,  // measure 60
1000
0000
0100
0010
0002
0000
0000
0000
2003
0000
0000
0000
3001
1000
0001
1000
,  // measure 61
0001
0010
0000
0010
0100
0000
1000
0000
0001
0000
1000
0100
0010
0000
0100
0010
,  // measure 62
0001
0000
1000
0000
0020
0000
0000
0000
1030
0000
1000
0001
0100
0000
0001
0000
,  // measure 63
1000
0000
1000
0100
0010
0000
0001
0000
1000
0000
0001
0000
0010
0000
0100
0000
,  // measure 64
1000
1000
0001
0001
1001
0000
0000
0000
;

//---------------dance-single - ----------------
#NOTES:
     dance-single:
     X-Scale 15:
     Hard:
     10:
     0.604257,0.666069,0.256101,0.313930,0.466765,512.000000,481.000000,31.000000,38.000000,0.000000,0.000000,0.604257,0.666069,0.256101,0.313930,0.466765,512.000000,481.000000,31.000000,38.000000,0.000000,0.000000:
// measure 0
0000
0000
0000
0000
,  // measure 1
0000
0000
0000
0000
,  // measure 2
0000
0000
0000
0000
,  // measure 3
0000
0000
0000
0000
,  // measure 4
0000
0000
0000
0000
0000
0000
0000
0000
1001
0000
0000
0000
1000
0000
0000
0001
,  // measure 5
0000
0001
0010
0200
0000
1300
0100
1000
,  // measure 6
0001
0000
0100
0000
1000
0000
0100
0000
0001
0000
0000
0000
1000
0000
0000
0100
,  // measure 7
0000
0000
0100
0000
0010
0000
0001
0000
1000
0000
0001
1000
0001
1000
0001
1000
,  // measure 8
0100
1000
0001
1000
2002
0000
3003
0000
,  // measure 9
0202
0000
0303
2200
0000
3300
0000
0001
,  // measure 10
0100
1000
0001
0010
1000
0000
1010
0000
,  // measure 11
1000
0000
0000
0001
1000
0000
0001
0000
0000
0000
0010
0000
0010
0000
0100
0000
,  // measure 12
0100
0000
1000
0400
0000
0000
0000
0000
0301
0000
0100
0000
0000
1000
0000
1000
,  // measure 13
0001
0000
0100
0000
0000
0000
0001
0000
0000
1000
0000
1000
0000
0000
1000
0000
,  // measure 14
0100
0001
1000
0010
0001
0000
0100
0001
,  // measure 15
1000
0000
0000
1000
0010
0000
1000
0000
0000
0000
0001
0000
0001
0100
0001
0100
,  // measure 16
0001
0000
0000
1001
0000
0000
0000
0000
0110
0000
0010
0000
0100
0000
0002
0000
,  // measure 17
0000
0000
1003
0000
0200
0000
0300
0100
0020
0000
0031
0000
0010
0000
1000
0000
,  // measure 18
0001
0100
0010
0001
1000
0001
0100
0020
,  // measure 19
0030
0000
0010
0000
1000
0010
2000
0000
0000
0000
3001
1000
0000
0001
0100
0001
,  // measure 20
0100
0010
1000
0100
0020
0000
1030
0002
,  // measure 21
0000
0103
0010
0002
0100
0000
1003
0001
,  // measure 22
0100
0000
0010
0000
0100
0000
0001
0000
0101
0000
0000
0110
0000
0000
1100
0000
,  // measure 23
1100
0000
0000
0110
0000
0000
0101
0000
0101
0000
0000
0001
0000
0000
0001
0000
,  // measure 24
1000
0001
0000
1000
0001
0000
0100
0000
1001
0000
0100
0000
1000
0000
0001
0000
,  // measure 25
1000
0100
1000
0001
0010
1000
0001
0100
,  // measure 26
0010
0000
0001
0010
0100
0000
0010
0100
1000
0000
0010
0000
0100
0000
0010
0000
,  // measure 27
1000
0000
0001
0000
0100
0000
1000
0000
0100
0000
0001
0100
0010
0000
1000
0010
,  // measure 28
0100
0000
0100
0000
0001
0000
1000
0000
0100
0000
1000
0000
0001
0000
0000
1000
,  // measure 29
0010
0000
1000
0000
0100
0000
0010
0000
1000
0000
0010
0000
0001
0000
0010
0100
,  // measure 30
0010
0000
0001
1000
0001
0100
0000
0001
0100
0000
0010
0000
1000
0000
0001
0000
,  // measure 31
0010
0000
0100
0000
1000
0000
0001
0000
0000
1000
0001
1000
0001
1000
0001
1000
,  // measure 32
0004
0003
2001
3200
,  // measure 33
1300
0002
0003
0200
0300
1000
0100
0002
,  // measure 34
0003
1000
0020
0030
2000
0000
3002
0000
,  // measure 35
0013
0200
0300
2000
0000
3001
1000
0020
,  // measure 36
0030
0100
0002
0003
2000
0000
3200
0000
,  // measure 37
1300
0002
0003
0020
0000
1030
0010
0002
,  // measure 38
0000
0103
0001
2000
0010
0010
0100
0100
,  // measure 39
3001
0000
1000
0001
1000
0000
0010
0100
0010
1000
0001
0100
0040
0000
0000
0000
,  // measure 40
4030
0000
3004
0000
0103
0010
1000
0000
1001
0000
0001
0000
0000
0000
1000
0000
,  // measure 41
1100
0000
0000
1010
0000
0000
0010
0000
0110
0000
0100
0000
0000
0000
0001
0000
,  // measure 42
1001
0000
0000
0110
0000
0000
0010
0000
1010
0000
1000
0001
0000
0000
0001
0000
,  // measure 43
0101
0000
0000
1001
0000
0000
0100
0000
1100
0000
1000
0100
0000
0000
0010
0000
,  // measure 44
0110
0000
0000
1001
0000
0000
0001
0000
0101
0000
0100
0001
0000
0100
1000
0000
,  // measure 45
0100
0001
0000
0100
1000
0000
0100
0001
0000
0010
0100
0000
1000
0000
0000
0100
,  // measure 46
0000
0000
0001
0000
0000
0010
0000
0000
1000
0000
0000
0100
0000
0000
0001
0000
,  // measure 47
0000
0010
0000
0000
1000
0000
0001
0000
0100
0000
0001
0000
1000
0000
1000
0000
,  // measure 48
0200
0000
0000
0000
0300
0000
0000
0000
1000
0100
0000
0001
0100
0000
1000
0000
,  // measure 49
1000
0001
0100
0001
1000
0000
0100
0000
0010
0100
1000
0001
1000
0000
0010
0100
,  // measure 50
0010
0000
1000
0000
0200
0000
0000
0000
0310
0000
0001
0010
0001
0000
1000
0000
,  // measure 51
0001
0000
0001
0010
0100
0000
0010
0100
4000
0000
3010
0100
0001
1000
0001
1000
,  // measure 52
0001
0000
0100
0001
1000
0000
0100
0000
0040
0000
0000
0000
0031
0100
0000
0100
,  // measure 53
0001
1000
0001
0000
0100
0000
0100
0000
0001
0100
0010
1000
0001
0000
1000
0100
,  // measure 54
0010
0000
0100
0000
2000
0000
0000
0000
3004
0000
0003
0100
0001
0000
1000
0100
,  // measure 55
0001
0000
1000
0010
0001
0000
1000
0000
0001
1000
0001
0000
0010
0100
1000
0001
,  // measure 56
0100
0000
0001
0000
0001
0000
0100
0010
4000
0000
0000
0000
3001
0100
0001
0100
,  // measure 57
0001
0000
0001
0000
1000
0000
1000
0000
0010
0001
0000
0010
0100
0001
1000
0100
,  // measure 58
0010
0000
0001
0000
0011
0000
0001
0000
0401
0000
0000
0000
0310
1000
0001
1000
,  // measure 59
0100
0000
0010
0100
1000
0000
0001
0100
0010
1000
0000
1000
0000
0001
1000
0001
,  // measure 60
1000
0000
0100
0010
0002
0000
0000
0000
0043
0000
0000
0000
0130
1000
0001
1000
,  // measure 61
0010
0100
0000
0100
0001
0000
1000
0000
0001
0000
0100
0010
1000
0000
0010
0100
,  // measure 62
0001
0000
1000
0000
0200
0000
0000
0000
0310
0000
0010
0100
1000
0000
0010
0100
,  // measure 63
0001
0000
1000
0100
0010
0000
0001
0000
0010
0000
1000
0000
0010
0000
0100
0000
,  // measure 64
1000
0100
1000
0000
0001
0100
0001
0100
0001
0000
0000
0000
0000
0000
0000
0000
;
