#TITLE:Dark Sun;
#SUBTITLE:;
#ARTIST:KELTEK;
#TITLETRANSLIT:;
#SUBTITLETRANSLIT:;
#ARTISTTRANSLIT:;
#GENRE:Euphoric Hardstyle;
#CREDIT:;
#BANNER:Dark Sun-bn.png;
#BACKGROUND:Dark Sun-bg.png;
#LYRICSPATH:;
#CDTITLE:cdtitle.png;
#MUSIC:Dark Sun.ogg;
#OFFSET:-0.002000;
#SAMPLESTART:128.001999;
#SAMPLELENGTH:12.800000;
#SELECTABLE:YES;
#BPMS:0.000000=75.000000
,16.000000=150.000000
,104.000000=75.000000
,106.000000=150.000000
,134.000000=75.000000
,168.000000=150.000000
,352.000000=75.000000
;
#STOPS:75.000000=1.600000,
259.000000=1.600000
;
#BGCHANGES:;
#KEYSOUNDS:;
#ATTACKS:;

//---------------dance-single - ----------------
#NOTES:
     dance-single:
     X-Scale 13:
     Hard:
     9:
     0.529612,0.599008,0.170924,0.147348,0.259333,629.000000,600.000000,29.000000,25.000000,0.000000,0.000000,0.529612,0.599008,0.170924,0.147348,0.259333,629.000000,600.000000,29.000000,25.000000,0.000000,0.000000:
// measure 0
0000
0000
0000
0000
,  // measure 1
0000
0000
0000
0000
,  // measure 2
0000
0000
0000
0000
,  // measure 3
0000
0000
0000
0000
,  // measure 4
1001
0000
1000
0000
0100
1000
0001
0000
,  // measure 5
0101
0000
0000
0000
0001
0000
0000
0000
1000
0000
0100
0000
0010
0000
0000
0100
,  // measure 6
1000
0000
1100
0000
1000
0001
0010
0000
,  // measure 7
0011
0000
0000
0000
0001
0000
0000
0000
1000
0000
0010
0000
1000
0000
0100
0010
,  // measure 8
0001
0000
0101
0000
0001
1000
0100
0000
,  // measure 9
1100
0000
0000
0000
1000
0000
0000
0000
0001
0000
0100
0000
0010
0000
0000
0100
,  // measure 10
0001
0000
0101
0000
0001
0010
0100
0000
,  // measure 11
0110
0000
0000
0000
1000
0000
0000
0000
0010
0000
1000
0000
0001
0000
0010
0100
,  // measure 12
1000
0000
0100
0000
1000
0000
0001
0100
0001
0000
0010
0000
0100
0000
1000
0100
,  // measure 13
1000
0000
0001
0000
0100
0000
0010
0100
0010
0000
1000
0000
0001
0000
0100
0001
,  // measure 14
0100
0000
1000
0000
0100
0000
0001
1000
0001
0000
0100
0000
0001
0000
0010
0001
,  // measure 15
0010
0000
0100
0000
1000
0000
0010
0100
0010
0000
1000
0000
0001
0000
0100
0001
,  // measure 16
1000
0100
0001
0100
1000
0100
0001
0100
,  // measure 17
1000
0010
0001
0010
1000
0010
0001
0010
,  // measure 18
4000
0004
0000
0000
0000
0000
0000
0000
0000
0000
0000
0000
0000
0000
0000
0000
0000
0000
3003
0000
0000
0000
0000
0000
,  // measure 19
1001
0000
1000
0001
0100
0001
1000
0000
,  // measure 20
0010
0000
1000
0100
0001
0100
1000
0000
,  // measure 21
0001
0000
1000
0001
0010
0001
1000
0000
,  // measure 22
0100
0000
0000
0000
1000
0000
0001
0000
0010
0000
0100
0000
1000
0001
1000
0001
,  // measure 23
1000
0000
0100
0010
0001
1000
0001
0000
,  // measure 24
0100
0000
0001
1000
0010
1000
0001
0000
,  // measure 25
0010
0000
0000
0000
0100
0000
1000
0000
0001
1000
0000
0000
1000
0000
0000
0000
,  // measure 26
1100
0000
0000
0000
0100
0010
0001
0000
0011
0000
0000
0000
0010
0000
0000
0000
,  // measure 27
0100
0000
0010
0000
0001
0000
0000
0000
1000
0001
1000
0000
0010
0000
0100
0010
,  // measure 28
0100
0000
0001
0010
0100
0000
1000
0000
,  // measure 29
0010
0000
1000
0000
0001
0000
0000
0000
0100
0001
0100
0000
0001
0000
1000
0100
,  // measure 30
1000
0000
0000
0000
0100
0010
0100
0010
0100
0000
0010
0000
0001
0000
1000
0000
,  // measure 31
0000
0000
0100
0010
0000
0001
0100
0000
0001
1000
0001
0000
0010
0000
1000
0000
,  // measure 32
0100
1000
0010
0001
1000
0001
0100
0010
,  // measure 33
1000
0001
1000
0001
0100
0010
0100
0010
1000
0000
0100
2000
0000
0000
0000
0000
,  // measure 34
3001
0000
0000
0000
0000
0000
0100
0000
0001
0000
0010
0100
0000
1000
0010
0100
,  // measure 35
0001
1000
0000
0000
0020
0000
0000
0000
0000
0000
0030
0000
0000
0000
0000
0000
0000
0000
0000
0000
0000
0000
0000
0000
0000
0000
0000
0000
0000
0000
0000
0000
,  // measure 36
0001
0000
0000
0000
0000
0000
1000
0000
0100
0000
0001
0100
0000
1000
0010
0000
,  // measure 37
0100
0000
0000
0000
0000
0000
0000
0000
0000
0000
0000
0000
0001
0000
0000
0000
0000
0000
0000
0000
0100
0000
0000
0000
0000
0000
0000
0000
0000
0000
0002
0000
0000
0000
0000
0000
0000
0000
0000
0000
0000
0000
0000
0000
0000
0000
0000
0000
0000
0000
0000
0000
0000
0000
0000
0000
0000
0000
0000
0000
0000
0000
0000
0000
0000
0000
0000
0000
0000
0000
0000
0000
0000
0000
0000
0000
0000
0000
0000
0000
0000
0000
0000
0000
0000
0000
0000
0000
0000
0000
0000
0000
0000
0000
0000
0000
0003
0000
0000
0000
0000
0000
0000
0000
0000
0000
0000
0000
0000
0000
0000
0000
0000
0000
0000
0000
0000
0000
0000
0000
0000
0000
0000
0000
0000
0000
0000
0000
0000
0000
0000
0000
0000
0000
0000
0000
0000
0000
0000
0000
0000
0000
0000
0000
0100
0000
0000
0000
0000
0000
0000
0000
0000
0000
0000
0000
0000
0000
0000
0000
0000
0000
0000
0000
0100
0000
0000
0000
0000
0000
0000
0000
0000
0000
0000
0000
0000
0000
0000
0000
0000
0000
0000
0000
0000
0000
0000
0000
0000
0000
0000
0000
,  // measure 38
1010
0000
1000
0000
0000
1000
0100
0000
0010
0000
0100
1000
0000
0001
0100
0001
,  // measure 39
0010
0100
0000
0000
2000
0000
0000
0000
0000
0000
3001
0000
0000
0000
0000
0000
1000
0000
0000
0000
0000
0000
0100
0000
1000
0000
0000
0000
0100
0000
0000
0000
,  // measure 40
2000
0000
0001
0000
3000
1000
0000
0000
0001
0000
0000
0010
0100
0000
0010
0000
,  // measure 41
0002
0000
0000
0000
0003
0000
0000
0000
0000
0000
0000
0000
1000
0001
1000
0000
,  // measure 42
1001
0000
0002
0000
0000
0013
0001
1000
,  // measure 43
0001
0100
0001
0000
0001
0100
0002
0000
,  // measure 44
0013
0000
0200
0000
0000
0301
0100
1000
,  // measure 45
0100
0000
0010
0000
0001
0000
0000
0100
0001
0000
1000
0000
0002
0000
0000
0000
,  // measure 46
0013
0100
2000
0000
0000
3010
1000
0001
,  // measure 47
0010
0001
1000
0000
0001
0010
1000
0010
,  // measure 48
0001
0000
2000
0000
0000
3100
1000
0001
,  // measure 49
0200
0000
0000
0000
0302
0000
0003
0010
0100
0000
0000
0010
0001
0000
1000
0000
,  // measure 50
1100
0000
0100
0000
0010
0100
1000
0000
,  // measure 51
0001
0000
0000
0000
1000
0000
0000
0000
0010
0000
1000
0000
0001
0000
0010
0100
,  // measure 52
0010
0001
1000
0000
0100
0010
0100
1000
,  // measure 53
0001
0000
0100
0000
0001
0000
0000
0000
1000
0000
0001
0000
1000
0000
0100
0010
,  // measure 54
0100
0010
0001
0000
1000
0100
0001
0100
,  // measure 55
0010
0000
0001
0000
1000
0000
0000
0000
0010
0000
1000
0000
0001
0000
0100
0010
,  // measure 56
0100
0001
1000
0000
0001
0100
0010
0100
,  // measure 57
0001
0000
0000
0000
1000
0000
0000
0100
1000
0000
0000
0100
0010
0000
0001
0000
,  // measure 58
0011
0000
0001
0000
1000
0000
0010
1000
0001
0000
0010
0000
0100
0000
1000
0000
,  // measure 59
0001
0000
0100
0000
0010
0000
1000
0100
0010
0000
0100
0000
0020
0000
0000
0000
,  // measure 60
0031
0000
0010
0000
0100
0000
1000
0100
0010
0000
0100
0000
1000
0000
0001
0000
,  // measure 61
0100
0000
0001
0000
1000
0000
0010
1000
0001
0000
0010
0000
0200
0000
0000
0000
,  // measure 62
1300
0100
0001
0100
1000
0100
0001
0100
,  // measure 63
1000
0010
0001
0010
1000
0010
0001
0010
,  // measure 64
4000
0004
0000
0000
0000
0000
0000
0000
0000
0000
0000
0000
3003
0000
0000
0000
,  // measure 65
1001
0000
2000
0000
3010
1000
0001
0010
,  // measure 66
0100
0000
0010
0000
0001
0000
0000
1000
0010
0000
1000
0000
0001
0000
0000
0000
,  // measure 67
0010
0000
0200
0000
0301
0100
1000
0001
,  // measure 68
0100
0000
0001
0000
1000
0000
0000
0100
1000
0000
0001
0000
0100
0000
0100
0000
,  // measure 69
0100
0000
0002
0000
1003
0001
0100
0001
,  // measure 70
1000
0000
0001
0000
0100
0000
0000
0010
0100
0000
0010
0000
0001
0000
0010
0000
,  // measure 71
1000
0000
0002
0000
0103
0001
1000
0100
,  // measure 72
0110
0000
0000
0000
1001
0000
0000
0001
0100
0000
0000
0100
1000
0000
0001
0000
,  // measure 73
0101
0000
1010
0000
1000
1000
0001
0001
,  // measure 74
1001
1000
0010
0000
0100
0001
1000
0000
,  // measure 75
0001
0000
0020
0000
0130
0010
0001
1000
,  // measure 76
0001
0000
0010
0000
0100
0000
0000
1000
0100
0000
1000
0000
0001
0000
0000
0000
,  // measure 77
0010
0000
0020
0000
1030
0010
1000
0100
,  // measure 78
0001
0100
1000
0000
0010
1000
0001
0100
,  // measure 79
0101
0000
0220
0000
0330
1000
0001
1000
,  // measure 80
1001
0000
0000
0000
0011
0000
0000
0010
0100
0000
0000
0010
0001
0000
1000
0000
,  // measure 81
1001
0000
0001
0000
0100
0000
0001
1000
0001
0000
0010
0000
0100
0000
1000
0001
,  // measure 82
0100
0000
0010
0000
0100
0000
0001
1000
0001
0000
0100
0000
0010
0000
1000
0001
,  // measure 83
0100
0000
0001
0000
0010
0000
0100
0010
0100
0000
1000
0000
0010
0000
1000
0001
,  // measure 84
0010
0000
0100
0000
0010
0000
0001
0010
0100
0000
1000
0000
0100
0010
0100
0010
,  // measure 85
0100
0000
1000
0000
0001
0000
0100
0000
0001
0000
1000
0100
0000
0100
0001
0000
,  // measure 86
0101
0100
0001
1001
1000
0100
1100
0000
,  // measure 87
1000
0000
0001
0000
0100
0000
0010
0000
1000
0100
1000
0100
0010
0001
0010
0001
,  // measure 88
1000
0000
0001
0200
0000
0000
0300
0000
0000
0000
0000
0000
0000
0000
0000
0000
;

//---------------dance-single - ----------------
#NOTES:
     dance-single:
     X-Scale 10:
     Medium:
     7:
     0.415101,0.494832,0.111985,0.182712,0.088409,493.000000,474.000000,19.000000,31.000000,0.000000,0.000000,0.415101,0.494832,0.111985,0.182712,0.088409,493.000000,474.000000,19.000000,31.000000,0.000000,0.000000:
// measure 0
0000
0000
0000
0000
,  // measure 1
0000
0000
0000
0000
,  // measure 2
0000
0000
0000
0000
,  // measure 3
0000
0000
0000
0000
,  // measure 4
0110
0000
0100
0000
0000
0001
0010
0000
,  // measure 5
0100
0000
1000
0010
0000
1000
0001
0000
,  // measure 6
0010
0000
0100
0000
0000
0010
0001
0000
,  // measure 7
1000
0000
0010
1000
0000
0001
0010
0000
,  // measure 8
0100
0000
0010
0000
0000
0001
1000
0000
,  // measure 9
0100
0000
0010
0100
0000
1000
0001
0000
,  // measure 10
0100
0000
0001
0010
0000
0100
1000
0000
,  // measure 11
0001
0000
1000
0100
0000
0010
0001
0000
,  // measure 12
0011
0000
0010
0000
0100
0010
0001
0000
,  // measure 13
1000
0000
0001
0000
0100
0001
1000
0000
,  // measure 14
0010
0000
1000
0000
0100
0010
0001
0000
,  // measure 15
1000
0000
0010
0000
1000
0001
0010
0000
,  // measure 16
0100
1000
0001
1000
0100
1000
0001
1000
,  // measure 17
0100
0010
0001
0010
0100
0010
0001
0010
,  // measure 18
0200
0001
0010
1300
,  // measure 19
0101
0000
0001
0000
0010
0100
1000
0000
,  // measure 20
0001
0000
1000
0000
0100
0010
0001
0000
,  // measure 21
1000
0000
0010
0000
0100
0010
1000
0000
,  // measure 22
0001
0000
0010
0000
0100
0010
0001
0000
,  // measure 23
1000
0000
0010
0000
1000
0001
0010
0000
,  // measure 24
0100
0000
0010
0000
0001
1000
0100
0000
,  // measure 25
1000
0000
0000
0000
0001
0000
0000
0000
0010
0100
0000
0000
0100
0000
0000
0000
,  // measure 26
0110
0000
0000
0000
1000
0001
1000
0000
1001
0000
0000
0000
1000
0000
0000
0000
,  // measure 27
0010
1000
0001
0000
0010
0000
0100
0010
,  // measure 28
0001
2000
3010
1000
,  // measure 29
0001
0010
0100
0000
0010
0000
0001
1000
,  // measure 30
0010
0000
0200
0000
0301
0100
0001
0000
,  // measure 31
0000
0000
0010
0100
0000
0010
0100
0000
0110
0000
0000
0000
0000
0000
0011
0000
,  // measure 32
0000
0000
1001
0000
1000
0010
0100
0001
,  // measure 33
0020
0000
0000
0000
0100
0000
0000
0000
0031
0000
1000
0020
0000
0000
0030
0000
,  // measure 34
1000
0000
0000
0000
0000
0000
0100
0000
0010
0000
0001
1000
0000
0010
1000
0000
,  // measure 35
0100
0000
0020
0000
0000
0030
0000
0000
0000
0000
0000
0000
0000
0000
0000
0000
,  // measure 36
0000
0000
0000
0000
0000
0000
0001
0000
0010
0000
0000
1000
0000
0000
0100
0000
,  // measure 37
0000
0000
0001
0000
0000
0002
0000
0000
0000
0000
0000
0000
0000
0000
0000
0000
0003
0000
0000
0000
0000
0000
0000
0000
0001
0000
0000
0000
0001
0000
0000
0000
,  // measure 38
1001
0000
1000
0000
0000
0100
1000
0000
0001
0000
0010
0100
0000
0010
0001
0000
,  // measure 39
1000
0001
0100
0000
0000
0010
0000
0000
0100
0000
0000
0001
0010
0000
0001
0000
,  // measure 40
2000
0000
0100
0000
3000
1000
0000
0000
0001
0000
0000
1000
0100
0000
1000
0000
,  // measure 41
0002
0003
0000
0000
,  // measure 42
1001
0000
2000
0000
0000
3100
0010
0100
,  // measure 43
1000
0001
1000
0000
1000
0001
1000
0000
,  // measure 44
0001
0000
0020
0000
0000
0130
0010
0001
,  // measure 45
1000
0010
1000
0000
1000
0010
1000
0000
,  // measure 46
0001
0000
0200
0000
0000
1300
0100
0001
,  // measure 47
1000
0010
1000
0000
1000
0010
1000
0001
,  // measure 48
0010
0000
0200
0000
0000
0301
0100
1000
,  // measure 49
0001
0000
0000
0000
0100
0000
0000
0010
0100
0000
0000
0000
0001
0000
0010
0000
,  // measure 50
0100
1000
0000
0010
,  // measure 51
1000
0000
0000
0000
0001
0000
0100
0000
0000
0000
0100
0000
1000
0000
0000
0100
,  // measure 52
0010
0100
0000
0000
0010
0000
0000
0000
0000
0000
0001
0000
0100
0000
0000
0000
,  // measure 53
0001
0000
0000
0000
1000
0000
0100
0000
0010
0000
0000
0000
0001
0000
0010
0001
,  // measure 54
0010
0000
0100
0000
1000
0001
0100
0010
,  // measure 55
0100
0000
0001
0000
0010
0000
0000
0000
0100
0000
1000
0000
0001
0000
1000
0001
,  // measure 56
1000
0000
0100
0000
0010
0100
1000
0001
,  // measure 57
0100
0000
0000
0000
0001
0000
0000
0010
0100
0000
0000
0010
0001
0000
1000
0000
,  // measure 58
1001
0000
0001
0000
0100
0001
1000
0001
,  // measure 59
0010
0100
2000
0000
3100
0010
0002
0000
,  // measure 60
0103
0000
0010
0000
0100
0001
0010
1000
,  // measure 61
0010
0100
2000
0000
3100
0010
0002
0000
,  // measure 62
1003
0001
0100
0001
1000
0001
0100
0001
,  // measure 63
1000
0100
0010
0100
1000
0100
0010
0100
,  // measure 64
2000
0100
0001
3010
,  // measure 65
0101
0000
0001
0000
1000
0010
0100
0010
,  // measure 66
0001
0010
2000
0000
3010
1000
0002
0000
,  // measure 67
0013
0000
0100
0000
0010
0001
1000
0010
,  // measure 68
1000
0001
0020
0000
0130
0010
0002
0000
,  // measure 69
1003
0000
0010
0000
1000
0001
0010
1000
,  // measure 70
0010
0001
0200
0000
0310
1000
0002
0000
,  // measure 71
0013
0000
0001
0000
1000
0100
1000
0000
,  // measure 72
1001
0000
0110
0000
1001
0000
1000
0010
,  // measure 73
1000
0000
1000
0000
0100
0010
0001
0100
,  // measure 74
0001
0010
0200
0000
0310
0100
2000
0000
,  // measure 75
3001
0000
0010
0000
1000
0010
0001
1000
,  // measure 76
0010
1000
0002
0000
0103
0001
2000
0000
,  // measure 77
3100
0000
0010
0000
0001
0010
1000
0010
,  // measure 78
0001
0100
0002
0000
0013
0100
2000
0000
,  // measure 79
3010
0000
1000
0000
0000
0001
1000
0001
,  // measure 80
1000
0000
0000
0000
0001
0000
0000
0100
0010
0000
0000
0010
0100
0000
0000
0000
,  // measure 81
0110
0000
0100
0010
1000
0001
1000
0000
,  // measure 82
0100
0000
0010
0001
1000
0010
1000
0000
,  // measure 83
0001
0000
0100
0010
0001
0010
0100
0000
,  // measure 84
0001
0000
0100
0010
1000
0001
0010
0000
,  // measure 85
0100
0000
0010
0000
0001
0000
1000
0000
0001
0000
0010
0100
0000
1000
0001
0000
,  // measure 86
1001
0000
0000
1100
0000
0000
0101
0000
,  // measure 87
0001
0100
0010
1000
0100
0010
0001
1000
,  // measure 88
0001
0000
0010
0002
0000
0000
0003
0000
0000
0000
0000
0000
0000
0000
0000
0000
;

//---------------dance-single - ----------------
#NOTES:
     dance-single:
     X-Scale 6:
     Easy:
     4:
     0.299749,0.389000,0.141454,0.147348,0.029470,356.000000,332.000000,24.000000,25.000000,0.000000,0.000000,0.299749,0.389000,0.141454,0.147348,0.029470,356.000000,332.000000,24.000000,25.000000,0.000000,0.000000:
0000
0000
0000
0000
,
0000
0000
0000
0000
,
0000
0000
0000
0000
,
0000
0000
0000
0000
,
1100
0000
1000
0000
0000
0100
0000
0000
,
0001
0000
0000
0010
0000
0000
1000
0000
,
0001
0000
0010
0000
0000
0001
0000
0000
,
1000
0000
0000
0001
0000
0000
0100
0000
,
0010
0000
0100
0000
0000
1000
0000
0000
,
0100
0000
0000
0001
0000
0000
0100
0000
,
0001
0000
0010
0000
0000
0100
0000
0000
,
0010
0000
0000
0001
0000
0000
1000
0000
,
1001
0001
0100
0010
,
1000
0100
0010
0001
,
0100
0010
0100
0001
,
1000
0100
1000
0001
,
0010
0000
0100
0000
0000
0010
0000
0000
,
0001
0000
0000
1000
0000
0010
0000
1000
,
0200
0000
0000
0300
,
1001
1000
0001
0100
,
0001
1000
0100
0010
,
0100
1000
0001
0010
,
0001
1000
0001
0200
,
0301
0010
1000
0010
,
0001
0100
0010
1000
,
0100
0010
0001
0001
,
1001
0000
0110
0100
,
0010
1000
0001
0000
0010
0000
0100
0010
,
0001
1000
0010
1000
,
0001
0010
0100
0000
0010
0000
0001
1000
,
0100
0010
0001
1001
,
0000
1100
0000
0000
0101
0000
0000
0110
,
0000
0000
1001
0000
1000
0001
1000
0001
,
0010
0000
0100
0000
0010
0000
0100
0000
1000
0000
0000
0200
0000
0000
0300
0000
,
0010
0000
0000
0000
0000
0000
0001
0000
1000
0000
0000
0010
0000
0000
1000
0000
,
0100
0000
0020
0000
0000
0030
0000
0000
0000
0000
0000
0000
0000
0000
0000
0000
,
0000
0000
0000
0000
0000
0000
1000
0000
0001
0000
0000
0010
0000
0000
0001
0000
,
0000
1000
0000
0000
0000
0000
0000
0000
0000
0000
0000
0000
0000
0000
0000
0000
,
1001
0000
1000
0000
0000
0100
0000
0000
0010
0000
0000
0001
0000
0000
1000
0000
,
0000
0000
0001
0000
0000
0100
0000
0000
0010
0000
0000
0100
0000
0000
0001
0000
,
0000
0000
1000
0000
0000
0001
0000
0000
0010
0000
0000
0100
0000
0000
1000
0000
,
0000
0000
0000
0000
,
0101
0000
0002
0000
0000
0003
0001
0000
,
0100
0010
0100
0001
,
0000
0000
2000
0000
0000
3000
0100
0000
,
1000
0001
1000
0100
,
0000
0000
0020
0000
0000
0030
0001
0000
,
0010
0100
0010
0001
,
0000
0000
2000
0000
0000
3000
0010
0000
,
1000
0000
0001
0000
0100
0000
0001
0010
,
0100
0000
0010
0000
0000
0100
1000
0000
,
0001
0000
0100
0000
0000
0010
0100
0000
,
0001
0000
1000
0000
0000
0100
0010
0000
,
0100
0000
1000
0000
0000
0001
0100
0000
,
0001
0000
1000
0000
0000
0100
0010
0000
,
0001
0000
1000
0000
0000
0010
1000
0000
,
0001
0000
0100
0000
0000
0010
0100
0000
,
0001
0000
0010
0000
0000
0100
1000
0000
,
1100
0000
0200
0000
0000
0310
0100
0010
,
0100
1000
0001
0200
,
0301
0000
0020
0000
0000
0130
0010
0100
,
0010
0001
1000
0002
,
0003
0020
0000
0030
0200
0000
0300
2000
,
0000
3000
0002
0000
2003
0000
3020
0000
,
2030
0000
0000
3000
,
0011
0001
0010
0001
,
1000
0001
1000
0000
0001
1000
0001
0000
,
0010
0100
1000
0010
,
0100
0001
0100
0000
0001
0100
0001
0000
,
1000
0001
0010
0100
,
1000
0100
1000
0000
0100
1000
0100
0000
,
0010
0001
1000
0001
,
1001
0000
0110
0000
1001
0000
0001
0100
,
0001
0000
0001
0000
0001
1000
0010
1000
,
0001
0000
0100
0000
0010
0100
0001
0000
,
0010
0100
0010
0001
,
1000
0010
1000
0000
0001
0010
0001
0000
,
1000
0001
0100
0001
,
0010
0100
0010
0000
0001
0100
0001
0000
,
1000
0000
2020
0000
3030
1000
0010
0100
,
0002
0000
0013
0200
0000
0000
1300
0000
,
1100
0100
1000
0001
,
0100
0001
0010
0001
,
1000
0010
1000
0100
,
0010
0001
0100
0002
,
1003
0000
1001
0000
0000
0110
0000
0000
,
0101
0000
0000
1001
0000
0000
1010
0000
,
1000
0001
1000
0001
0020
0000
0100
0000
,
0031
0000
0000
0000
;

//---------------dance-single - ----------------
#NOTES:
     dance-single:
     X-Scale 5:
     Beginner:
     3:
     0.175976,0.311200,0.017682,0.000000,0.000000,209.000000,206.000000,3.000000,0.000000,0.000000,0.000000,0.175976,0.311200,0.017682,0.000000,0.000000,209.000000,206.000000,3.000000,0.000000,0.000000,0.000000:
0000
0000
0000
0000
,
0000
0000
0000
0000
,
0000
0000
0000
0000
,
0000
0000
0000
0000
,
1000
0000
0000
0000
,
0001
0000
0000
0000
,
1000
0000
0000
0000
,
0001
0000
0000
0000
,
0010
0000
0000
0000
,
0100
0000
0000
0000
,
0010
0000
0000
0000
,
0100
0000
0000
0000
,
1000
0000
0100
0000
,
0010
0000
0001
0000
,
1000
0000
0010
0000
,
0100
0000
0001
0000
,
1000
0000
0001
0000
,
0010
0000
0001
0000
,
1000
0000
0000
0000
,
1001
0000
0001
0000
,
1000
0000
0010
0000
,
1000
0000
0001
0000
,
0010
0000
0100
0000
,
0010
0000
0001
0000
,
1000
0000
0100
0000
,
1000
0000
0001
0000
,
0100
0000
1001
1000
,
0010
1000
0001
0010
,
0100
1000
0010
1000
,
0001
1000
0010
1000
,
0100
0010
0100
1000
,
0000
0001
0000
0000
0100
0000
0000
0001
,
0000
1000
0001
0010
,
0001
1000
0010
0000
,
1000
0000
0000
0000
,
0100
0000
0000
0000
,
0010
0000
0000
0000
,
0001
0000
0000
0000
,
1000
0000
0010
0000
,
0100
0000
0001
0000
,
0010
0000
0100
0000
,
1000
0000
0000
0000
,
0001
0000
0000
0000
,
0010
0000
0001
0000
,
0010
0000
0000
0000
,
0100
0000
1000
0000
,
0100
0000
0000
0000
,
0010
0000
0001
0000
,
0010
0000
0000
0000
,
0100
1000
0100
0000
,
0000
0000
1000
0000
0000
0001
0000
0000
,
0100
0000
0000
0001
0000
0000
1000
0000
,
0000
0000
0100
0000
0000
0010
0000
0000
,
0001
0000
0000
1000
0000
0000
0001
0000
,
0000
0000
0100
0000
0000
0010
0000
0000
,
0100
0000
0000
0001
0000
0000
0010
0000
,
0000
0000
0100
0000
0000
1000
0000
0000
,
0001
0000
0000
1000
0000
0000
0010
0000
,
1000
0000
0001
0000
,
0100
0000
0010
0000
,
1000
0000
0100
0000
,
0010
0000
0001
0000
,
0100
0000
0001
0000
,
0010
0000
0001
0000
,
1000
0000
0000
0000
,
1001
1000
0100
1000
,
0001
0100
0001
0010
,
0100
0010
0001
1000
,
0010
1000
0001
0100
,
0001
1000
0010
0100
,
0010
1000
0001
0010
,
0100
1000
0100
0010
,
0001
0100
0001
0010
,
0100
0000
0100
0000
0100
1000
0100
0000
,
0010
0001
0010
0000
0100
1000
0100
0000
,
0010
0001
1000
0001
,
0100
0010
0100
0000
0001
0100
0001
0000
,
1000
0010
0100
0010
,
1000
0001
1000
0000
0010
0100
0010
0000
,
1000
0100
0000
0000
,
1000
0000
0001
0000
,
1000
0000
0001
0000
,
1000
0000
0010
0000
,
1000
0000
0001
0000
,
0010
0000
0100
0000
,
0010
0000
0001
0000
0000
1000
0000
0000
,
0100
0000
0000
1000
0000
0000
0001
0000
,
0010
0001
1000
0010
,
1000
0000
0000
0000
;
