#TITLE:Dancing in the Rain;
#SUBTITLE:;
#ARTIST:FUTURECODE & Roxanne Emery;
#TITLETRANSLIT:;
#SUBTITLETRANSLIT:;
#ARTISTTRANSLIT:;
#GENRE:Trance;
#CREDIT:;
#BANNER:DitR-bn.png;
#BACKGROUND:DitR-bg.png;
#LYRICSPATH:;
#CDTITLE:cdtitle.png;
#MUSIC:Dancing in the Rain.ogg;
#OFFSET:-0.004000;
#SAMPLESTART:65.459000;
#SAMPLELENGTH:14.545000;
#SELECTABLE:YES;
#BPMS:0.000000=132.000000
;
#STOPS:
;
#BGCHANGES:0.000=Dancing in the Rain.mp4=1.000=1=0=1===CrossFade==,
99999=-nosongbg-=1.000=0=0=0 // don't automatically add -songbackground-
;
#KEYSOUNDS:;
#ATTACKS:;

//---------------dance-single - ----------------
#NOTES:
     dance-single:
     X-Scale 12:
     Hard:
     8:
     0.493129,0.651974,0.094833,0.398297,0.341397,364.000000,354.000000,10.000000,42.000000,0.000000,0.000000,0.493129,0.651974,0.094833,0.398297,0.341397,364.000000,354.000000,10.000000,42.000000,0.000000,0.000000:
0000
0000
0000
0000
,
0000
0000
0000
0000
,
0000
0000
0000
0000
,
0000
0000
0000
0000
,
2100
0000
3002
0000
1003
0100
0010
0002
,
1000
1003
0001
0100
0010
0020
1000
0030
,
0010
0000
0100
0001
1000
0100
0010
0002
,
0003
2000
3000
0010
0020
0000
1030
0010
,
0200
0000
0302
0000
1003
0100
0010
0002
,
0100
0103
1000
0100
0001
0002
1000
0003
,
0001
0000
0100
0010
1000
0001
0010
0200
,
0300
2000
3000
0001
0002
0000
1003
0000
,
1100
1000
0010
0001
0010
0100
0010
1000
,
0100
0010
0001
1000
0001
0100
0010
0100
,
0001
0020
0000
0230
0000
2300
0000
3001
,
0002
0000
1003
0000
0001
0010
0002
0000
,
1003
0100
0001
0100
0010
0100
1000
0010
,
0100
0001
1000
0001
0010
0100
0010
0001
,
1000
0020
0000
2030
0000
0000
3010
2000
,
0001
0000
3001
0000
1000
0000
1000
0000
0001
1000
0001
1000
0001
1000
0001
1000
,
0002
0000
0003
0000
,
1000
0100
0001
0100
0010
0001
1000
0002
,
0000
0000
0003
0200
0000
0300
0020
0000
,
0030
0000
2000
0000
0000
3002
0000
2003
,
0000
0200
3300
0000
,
0001
0010
1000
0001
0100
1000
0001
0200
,
0000
0000
0300
0020
0000
0030
2000
0000
,
0004
3000
0000
0000
0003
1000
0001
0000
,
1001
0000
1000
0000
0100
1000
0001
0010
,
0100
0000
1100
0000
0101
0100
0001
1000
,
0020
0000
1000
2030
0001
0000
3002
0000
,
1000
0000
0013
0000
0100
1000
0001
1000
,
0010
0100
0010
0100
0001
0010
0001
0010
,
0100
1000
0100
1000
0010
0100
0010
0100
,
0001
0010
0001
0010
0001
0010
0001
0010
0100
1000
0100
1000
0100
1000
0100
1000
,
0002
0000
0000
1000
0000
0010
1003
0000
,
1001
1000
0000
0001
0000
0100
0001
0000
1000
0001
0000
0010
0000
0100
1000
0000
,
0010
1000
0000
0100
0000
0010
0001
0000
1000
0001
0000
0100
0000
0010
0100
0000
,
0010
1000
0000
0001
0000
0010
0001
0000
1000
0001
0000
0100
0000
0010
0100
0000
,
0001
1000
0000
0100
0000
1000
0001
0000
1000
0100
0000
0010
0000
0001
0010
0000
,
0100
1000
0000
0010
0000
1000
0010
0000
0100
0001
0000
1000
0000
0001
0100
0000
,
0001
1000
0000
0010
0000
1000
0100
0000
0010
0001
0000
1000
0000
0001
1000
0000
,
0001
0010
0000
0100
0000
1000
0001
0000
1000
0010
0000
0100
0000
0001
0010
0000
,
0001
0000
0000
1000
0000
0000
0100
0000
1000
0000
0000
0000
1001
0000
1000
0000
,
1020
0000
0001
0000
1030
0010
0001
0010
,
1000
0010
0000
1000
0000
0001
0100
0000
0001
0010
0000
0010
0100
0000
1000
0000
,
0001
0100
0000
0010
0000
1000
0001
0000
1000
0100
0000
0100
0010
0000
0001
0000
,
1000
0010
0000
0100
0001
0000
1000
0000
0010
0000
0100
0000
0001
0000
2000
0000
,
0010
3010
1000
1000
0001
0100
0010
2000
,
0001
0000
0001
0000
0100
0000
3100
0000
1000
0100
0000
1000
0001
0000
0100
0000
,
0101
0000
0000
1000
0000
0000
0100
0000
1000
0000
0000
0001
0000
0000
0100
0000
,
0001
0000
0000
0010
0000
0000
0200
0000
0000
0000
1300
0000
0002
0000
0000
0000
,
1003
0001
1000
0100
0010
0100
1000
0000
,
0001
0000
0000
0100
0000
0000
0010
0100
,
0001
1000
0010
0100
0001
1000
0010
0100
,
1001
0000
0000
0000
;

//---------------dance-single - ----------------
#NOTES:
     dance-single:
     X-Scale 7:
     Medium:
     5:
     0.363073,0.443342,0.056900,0.606928,0.018967,268.000000,262.000000,6.000000,64.000000,0.000000,0.000000,0.363073,0.443342,0.056900,0.606928,0.018967,268.000000,262.000000,6.000000,64.000000,0.000000,0.000000:
0000
0000
0000
0000
,
0000
0000
0000
0000
,
0000
0000
0000
0000
,
0000
0000
0000
0000
,
0201
0000
0320
0000
1030
0002
0003
0200
,
0000
0310
0100
0001
1000
2000
0000
3000
,
0010
0000
1000
0000
0001
0010
0100
2000
,
3000
0002
0003
0010
0020
0030
0001
0000
,
2000
0000
3200
0000
0301
0100
1000
0002
,
0000
0103
0001
1000
0100
0200
0000
0000
,
0310
0000
0100
0000
1000
0001
0010
0002
,
0003
2000
3000
0100
0200
0300
2000
0000
,
3002
0000
0010
0000
1000
0003
0001
0010
,
1000
0000
1000
0010
0001
0000
1000
0010
,
0100
0002
0003
2000
3000
0020
0030
0100
,
0200
0000
0301
0100
0010
0000
1000
0100
,
0020
0000
1000
0000
0001
0030
0010
0002
,
1000
0000
0013
0001
1000
0000
0010
0100
,
0001
2000
3000
0200
0000
0300
1000
0001
,
0010
0100
1000
0001
0010
0002
0000
2003
,
0010
0000
3020
0000
0000
0030
0000
0000
,
1000
0010
0001
0010
0100
0010
1000
0020
,
0000
0000
0030
2000
0000
3000
0002
0000
,
0103
0000
0000
0000
0000
0020
0000
2030
,
0001
3002
0003
0000
,
1000
0100
0001
0100
0010
0100
1000
0200
,
0000
0000
0300
2000
0000
3000
0002
0000
,
0103
0000
0000
0000
0000
0010
0100
0000
,
0110
0000
0001
0000
1000
0100
0010
0000
,
0001
0000
0100
0000
0010
1000
0001
1000
,
0200
0000
0300
0020
0000
0030
0002
0000
,
1000
0000
0013
0000
0001
0100
0010
1000
,
0002
0000
2003
0000
3100
1000
0002
0000
,
0013
0001
2000
0000
3010
1000
0100
0010
,
0002
0000
0003
2000
0000
3100
0020
0000
,
0032
0000
0000
1003
,
1001
0000
1000
0010
0100
0000
0001
0010
,
0100
0000
0010
0100
1000
0000
0001
0100
,
0010
0000
1000
0100
0001
0000
0001
0100
,
1000
0000
0001
0010
1000
0000
1000
0010
,
0001
0000
1000
0010
0100
0000
0001
0010
,
0100
0000
1000
0100
0010
0000
0001
0100
,
0010
0000
1000
0100
0001
0000
0001
0100
,
1000
0000
0000
0001
0000
0000
1000
0000
0100
0000
0000
0000
0110
0000
0000
0000
,
0012
0000
1000
0000
0013
0100
0010
0100
,
2000
0000
0001
0000
3100
1000
0002
0000
,
0203
0000
0000
0000
1000
0000
0000
0000
0001
0300
0010
0000
0100
0020
0000
0030
,
2000
0000
3000
0002
0000
0000
0000
0000
1003
0000
0001
0000
0100
0000
0010
0000
,
1000
0100
1000
0100
0010
0001
0010
0001
,
1000
0010
1000
0010
0100
0001
0100
0001
,
2000
0000
3000
0200
0000
0300
2000
0000
0000
0000
0000
0000
3002
0000
0000
0000
,
0000
0003
0000
2000
0000
3010
2000
0000
,
3200
0320
0032
0000
1000
0003
0001
0000
,
0100
0000
0000
0010
0000
0000
1000
0000
,
0100
1000
0000
0001
0100
0000
0010
0100
,
0110
0000
0000
0000
;

//---------------dance-single - ----------------
#NOTES:
     dance-single:
     X-Scale 4:
     Easy:
     3:
     0.273660,0.365105,0.075866,0.426747,0.000000,202.000000,194.000000,8.000000,45.000000,0.000000,0.000000,0.273660,0.365105,0.075866,0.426747,0.000000,202.000000,194.000000,8.000000,45.000000,0.000000,0.000000:
// measure 0
0000
0000
0000
0000
,  // measure 1
0000
0000
0000
0000
,  // measure 2
0000
0000
0000
0000
,  // measure 3
0000
0000
0000
0000
,  // measure 4
1000
0100
1000
0100
,  // measure 5
0010
0001
0010
0001
,  // measure 6
1000
0010
1000
0010
,  // measure 7
0100
0001
0100
0001
,  // measure 8
1000
1001
0001
1001
,  // measure 9
0010
0110
0100
0110
,  // measure 10
0010
0000
1010
0000
1000
0100
0010
0002
,  // measure 11
0000
2003
0000
3002
0000
0000
0023
0000
,  // measure 12
0230
0000
0001
0000
0000
0000
1300
0020
,  // measure 13
0000
0130
0010
0100
,  // measure 14
0001
0200
0000
0320
0000
0230
0000
0302
,  // measure 15
0000
1003
0001
1000
,  // measure 16
0200
0000
0010
0000
0000
0000
1300
0002
,  // measure 17
0000
0000
0013
0000
0001
0000
1000
0010
,  // measure 18
0100
0002
0000
2003
0000
0000
3100
0020
,  // measure 19
0001
0000
0130
0000
0010
0200
0000
2300
,  // measure 20
0001
0000
0000
0000
0000
3000
0000
0000
,  // measure 21
0001
0000
0000
0000
0000
0000
0000
2000
,  // measure 22
0010
0000
3000
0200
0000
0000
0320
0000
,  // measure 23
0100
0000
0032
0000
0003
2000
0000
3002
,  // measure 24
0010
0000
0003
0000
,  // measure 25
1000
0000
0000
0000
0000
0000
0000
0020
,  // measure 26
1000
0000
0030
0200
0000
0000
0302
0000
,  // measure 27
2000
0000
0003
0000
0000
0000
0000
3000
,  // measure 28
1001
1000
0001
1000
,  // measure 29
0010
0100
0010
0100
,  // measure 30
0001
1000
0001
1000
,  // measure 31
0100
0010
0100
0010
,  // measure 32
0001
0000
1000
0000
0001
0010
0100
0000
,  // measure 33
1000
0000
0010
0000
1000
0010
0100
0001
,  // measure 34
2000
0000
3000
0002
0000
0013
0200
0000
,  // measure 35
2300
0000
0000
0000
,  // measure 36
3001
0010
0100
1000
,  // measure 37
0001
0010
0100
1000
,  // measure 38
0010
1000
0001
0100
,  // measure 39
0010
1000
0001
0100
,  // measure 40
0001
1000
0100
0010
,  // measure 41
0001
1000
0100
0010
,  // measure 42
0001
0100
0010
1000
,  // measure 43
0001
0000
0000
1000
,  // measure 44
2001
0000
0100
0000
3010
1000
0010
1000
,  // measure 45
0020
0000
0001
0000
0130
0010
2000
0000
,  // measure 46
3002
0000
1000
0000
0010
0013
0200
0300
,  // measure 47
0100
0000
1000
0000
0001
0010
0100
2000
,  // measure 48
0001
0000
3001
0000
1000
0010
0100
0002
,  // measure 49
1000
0100
1003
0020
,  // measure 50
0001
0000
0000
0000
0100
0030
0020
0000
,  // measure 51
1000
0030
0000
0002
0000
1003
0200
0000
,  // measure 52
0320
0230
2300
0000
3000
0000
0001
0000
,  // measure 53
1000
0000
0000
0001
0000
0000
1000
0000
,  // measure 54
0000
0001
0000
0000
1000
0000
0000
0000
,  // measure 55
1001
0000
0000
0000
;

//---------------dance-single - ----------------
#NOTES:
     dance-single:
     X-Scale 2:
     Beginner:
     1:
     0.115154,0.156474,0.047416,0.000000,0.000000,85.000000,80.000000,5.000000,0.000000,0.000000,0.000000,0.115154,0.156474,0.047416,0.000000,0.000000,85.000000,80.000000,5.000000,0.000000,0.000000,0.000000:
// measure 0
0000
0000
0000
0000
,  // measure 1
0000
0000
0000
0000
,  // measure 2
0000
0000
0000
0000
,  // measure 3
0000
0000
0000
0000
,  // measure 4
0001
0000
0010
0000
,  // measure 5
0001
0000
0010
0000
,  // measure 6
0100
0000
1000
0000
,  // measure 7
0100
0000
1000
0000
,  // measure 8
0001
0000
0100
0000
,  // measure 9
0001
0000
0100
0000
,  // measure 10
0010
0000
1000
0000
,  // measure 11
0010
0000
1000
0000
,  // measure 12
1001
0000
0001
0000
,  // measure 13
1000
0000
0001
0000
,  // measure 14
0100
0000
0010
0000
,  // measure 15
0100
0000
0010
0000
,  // measure 16
1000
0000
0001
0000
,  // measure 17
1000
0000
0001
0000
,  // measure 18
0100
0000
0010
0000
,  // measure 19
0100
0000
0010
0000
,  // measure 20
1000
0000
0000
0000
,  // measure 21
0100
0000
0000
0000
,  // measure 22
0010
0000
0000
0000
,  // measure 23
0001
0000
0000
0000
,  // measure 24
1000
0000
0000
0000
,  // measure 25
0100
0000
0000
0000
,  // measure 26
0010
0000
0000
0000
,  // measure 27
0001
0000
0000
0000
,  // measure 28
1001
0000
0000
0000
,  // measure 29
0100
0000
0000
0000
,  // measure 30
0010
0000
0000
0000
,  // measure 31
1000
0000
0000
0000
,  // measure 32
0001
0000
0000
0000
,  // measure 33
0100
0000
0000
0000
,  // measure 34
0010
0000
0000
0000
,  // measure 35
1000
0000
0000
0000
,  // measure 36
1001
0000
1000
0000
,  // measure 37
0001
0000
1000
0000
,  // measure 38
0010
0000
0100
0000
,  // measure 39
0010
0000
0100
0000
,  // measure 40
0001
0000
0010
0000
,  // measure 41
0001
0000
0010
0000
,  // measure 42
0100
0000
1000
0000
,  // measure 43
0001
0000
0000
0000
,  // measure 44
1001
0000
1000
0000
,  // measure 45
0010
0000
0100
0000
,  // measure 46
0010
0000
1000
0000
,  // measure 47
0100
0000
0010
0000
,  // measure 48
0100
0000
1000
0000
,  // measure 49
0001
0000
0100
0000
,  // measure 50
0001
0000
0000
0000
,  // measure 51
0010
0000
0000
0000
,  // measure 52
0001
0000
0000
0000
,  // measure 53
0000
0000
0000
1000
,  // measure 54
0000
0000
0000
0000
,  // measure 55
1001
0000
0000
0000
;
