#TITLE:Daddy DJ;
#SUBTITLE:;
#ARTIST:Daddy DJ;
#TITLETRANSLIT:;
#SUBTITLETRANSLIT:;
#ARTISTTRANSLIT:;
#GENRE:Eurodance;
#CREDIT:;
#BANNER:Daddy DJ-bn.png;
#BACKGROUND:Daddy DJ-bg.png;
#LYRICSPATH:;
#CDTITLE:cdtitle.png;
#MUSIC:Daddy DJ.ogg;
#OFFSET:-0.112000;
#SAMPLESTART:106.778999;
#SAMPLELENGTH:14.000000;
#SELECTABLE:YES;
#BPMS:0.000000=135.000000
;
#STOPS:
;
#BGCHANGES:0.000=Daddy DJ.avi=1.000=1=0=0=StretchNoLoop==CrossFade==,
99999=-nosongbg-=1.000=0=0=0 // don't automatically add -songbackground-
;
#KEYSOUNDS:;
#ATTACKS:;

//---------------dance-single - ----------------
#NOTES:
     dance-single:
     X-Scale 12:
     Hard:
     8:
     0.571954,0.741003,0.129151,0.243108,0.300086,527.000000,510.000000,17.000000,32.000000,0.000000,0.000000,0.571954,0.741003,0.129151,0.243108,0.300086,527.000000,510.000000,17.000000,32.000000,0.000000,0.000000:
// measure 0
0000
0000
0000
0000
,  // measure 1
0000
0000
0000
0000
,  // measure 2
0000
0000
0000
0000
,  // measure 3
0000
0000
0000
0000
0000
0000
0000
0000
0000
0000
1000
0000
0100
0000
0000
1000
,  // measure 4
0000
0000
0001
0000
1001
0000
1000
0000
0000
0000
0001
0000
0100
0000
0000
0010
,  // measure 5
0000
0000
0100
0000
0001
0000
1000
0000
0000
0000
0010
0000
0100
0000
0000
0001
,  // measure 6
0000
0000
0100
0000
0010
0000
1000
0000
0000
0000
0001
0000
0010
0000
0000
0100
,  // measure 7
0000
0000
0010
0000
0001
0000
1000
0000
0000
0000
0001
0000
0100
0000
0000
0010
,  // measure 8
0000
0100
0101
0001
0010
0100
2000
0000
,  // measure 9
3010
1000
0001
0100
0020
0000
0031
0010
,  // measure 10
1000
0010
0100
0001
0010
0100
2000
0000
,  // measure 11
3100
0010
0002
0000
0203
0000
2300
0000
,  // measure 12
3020
0000
0031
0100
0001
0010
0200
0000
,  // measure 13
0301
0100
1000
0010
0200
0000
0301
1000
,  // measure 14
0001
0010
0100
0010
0001
1000
0020
0000
,  // measure 15
0130
0010
1000
0001
0020
0100
0030
0010
,  // measure 16
0001
0001
0011
0100
0001
0010
0200
0000
,  // measure 17
1300
0010
0100
0001
2000
0000
3020
0000
,  // measure 18
1030
0010
0001
0010
0100
0001
1000
0100
,  // measure 19
0010
0001
2000
0000
3020
0000
0032
0000
,  // measure 20
0203
0000
1300
0001
0100
0001
1000
0100
,  // measure 21
0010
0100
2000
0000
3002
0000
0013
0001
,  // measure 22
1000
0001
0010
1000
0001
0100
1000
0010
,  // measure 23
1000
0000
0100
0000
0010
0000
0001
0000
1000
0001
0000
0000
1000
0000
0010
0000
,  // measure 24
0100
0010
0101
0001
1000
0010
1000
0100
,  // measure 25
0010
0000
0100
0000
1000
0000
0001
0000
0010
0001
0000
0000
0100
0000
0001
0000
,  // measure 26
0010
0100
1000
0001
0200
0000
0320
0000
,  // measure 27
2030
0000
0000
0000
3002
0000
0010
0000
0003
0010
0000
0000
0010
0000
0100
0000
,  // measure 28
1000
0001
1000
0010
0100
0001
1000
0100
,  // measure 29
0010
0000
0001
0000
1000
0000
0010
0000
1000
0010
0000
0000
0100
0000
1000
0000
,  // measure 30
0100
0001
0200
0000
0320
0000
2030
0000
,  // measure 31
3002
0000
0000
0000
1003
0000
0100
0000
0000
0100
0000
0000
0100
0000
1000
0000
,  // measure 32
0001
0000
1000
0000
1001
0000
0000
0001
0000
0100
0001
0000
0010
0000
0100
0000
,  // measure 33
1000
0000
0001
0000
2000
0000
0000
3200
0000
0000
1300
0000
0100
0000
0001
0000
,  // measure 34
0100
0000
0010
0000
0001
0000
0000
1000
0000
0100
1000
0000
0001
0000
0100
0000
,  // measure 35
0010
0000
0100
0000
0001
0000
0000
0010
0000
0001
0010
0000
0100
0000
0010
0000
,  // measure 36
0001
0000
1000
0000
0010
0000
0000
0100
0000
0010
0100
0000
0001
0000
0010
0000
,  // measure 37
0100
0000
0010
0000
0002
0000
0000
2003
0000
0000
3100
0000
1000
0000
0001
0000
,  // measure 38
1000
0000
0010
0000
0100
0000
0000
0001
0000
0100
0001
0000
0100
0000
1000
0000
,  // measure 39
0001
0000
0010
0000
1000
0000
0000
0100
0000
1000
0100
0000
1000
0000
0001
0000
,  // measure 40
0100
0000
0010
0000
0101
0000
0000
0000
0001
0000
1000
0000
0100
0000
0000
0010
,  // measure 41
0100
0000
0010
0000
0001
0000
1000
0000
0010
0000
1000
0000
0001
0000
0000
0010
,  // measure 42
0100
0000
0010
0000
0001
0000
1000
0000
0010
1000
0010
0000
0100
0000
0000
0010
,  // measure 43
0100
0000
0001
0000
1000
0000
0010
0000
0100
0010
0100
0000
0001
0000
0000
0010
,  // measure 44
0100
0000
0010
0000
0101
0000
0100
0000
0000
0000
0010
0000
1000
0000
0000
0001
,  // measure 45
0000
0000
1000
0000
0100
0000
0010
0000
0000
0000
0100
0000
0010
0000
0000
0001
,  // measure 46
0000
0000
1000
0000
0010
0000
0100
0000
0000
0000
0001
0000
1000
0000
0000
0100
,  // measure 47
0000
0000
1000
0000
0001
0000
0010
0000
0000
0000
0100
0000
1000
0000
0000
0001
,  // measure 48
0000
0000
0100
0000
1010
0000
0000
1000
0000
0000
0001
0000
0100
0000
0000
0010
,  // measure 49
0000
0000
0100
0000
0100
0000
0000
0001
0000
0000
1000
0000
0100
0000
0000
1000
,  // measure 50
0000
0000
0010
0000
0100
0000
0000
1000
0000
0000
0100
0000
0010
0000
0000
1000
,  // measure 51
0000
0001
1001
0100
1001
0010
1001
1000
,  // measure 52
0001
0000
1000
0000
1001
0000
0000
0000
0001
0000
0000
0010
0001
0000
1000
0100
,  // measure 53
0000
0100
0010
0000
0001
0000
0000
0000
0010
0000
0000
0001
0100
0000
0010
0100
,  // measure 54
0000
0100
0001
0000
1000
0000
0000
0000
0010
0000
0000
0100
0001
0000
1000
0100
,  // measure 55
0000
0100
0010
0000
0100
0000
1000
0000
0001
0000
1000
0100
1000
0000
0001
0100
,  // measure 56
0001
0000
0010
0000
1000
0000
0010
0000
0001
0000
0000
1000
0100
0000
1000
0001
,  // measure 57
0000
0001
0010
0000
0100
0000
0010
0000
0001
0000
0000
1000
0001
0000
0100
0010
,  // measure 58
0000
0010
1000
0000
0001
1000
0001
1000
0001
1000
0001
1000
0004
0000
0000
0000
,  // measure 59
0000
0103
0101
0000
0000
0000
0000
0001
,  // measure 60
0010
0000
0100
0000
1010
0000
1000
0000
0001
0000
1000
0000
0100
0000
0000
1000
,  // measure 61
0001
0000
1000
0000
0010
0000
0001
0000
0010
0000
0100
0000
0001
0000
0000
1000
,  // measure 62
0010
0000
0100
0000
0010
0000
1000
0000
0001
0000
0010
0000
0100
0000
0000
0010
,  // measure 63
0100
0000
1000
0000
0001
0000
0010
0000
0001
0000
1000
0001
1000
0000
0000
0100
,  // measure 64
0010
0000
0100
0000
1001
0000
1000
0000
0100
0000
1000
0000
0001
0000
0000
0010
,  // measure 65
0100
0000
0010
0000
0001
0000
1000
0000
0001
0000
0100
0000
0010
0000
0000
1000
,  // measure 66
0100
0000
1000
0000
0001
0000
0010
0000
0100
0000
1000
0000
0001
0000
0000
0100
,  // measure 67
0001
0000
0010
0000
0100
0000
0010
0000
0001
0000
1000
0010
1000
0000
0001
0000
,  // measure 68
1000
0001
1001
1000
0100
1000
0001
0010
,  // measure 69
0100
0010
0001
1000
0010
0100
0010
1000
,  // measure 70
0001
0000
0010
0000
0101
0000
1000
0000
0001
0100
0001
0000
0010
0000
0100
0000
,  // measure 71
1000
0000
0010
0000
1000
0010
1000
0010
1000
0010
1000
0010
1000
0001
1000
0001
,  // measure 72
1000
0001
1000
0001
1000
0000
0000
0000
0000
0000
0000
0000
0000
0000
0000
0000
;

//---------------dance-single - ----------------
#NOTES:
     dance-single:
     X-Scale 9:
     Medium:
     6:
     0.467765,0.494002,0.121554,0.243108,0.132949,431.000000,415.000000,16.000000,32.000000,0.000000,0.000000,0.467765,0.494002,0.121554,0.243108,0.132949,431.000000,415.000000,16.000000,32.000000,0.000000,0.000000:
0000
0000
0000
0000
,
0000
0000
0000
0000
,
0000
0000
0000
0000
,
0000
0000
0000
0000
0000
0000
0000
0000
0000
0000
0000
0000
1000
0000
0000
1000
,
0000
0000
1000
0000
1100
0000
0000
0000
0100
0000
1000
0000
0010
0000
0000
0010
,
0000
0000
0010
0000
0100
0000
0000
0000
0001
0000
1000
0000
0010
0000
0000
0010
,
0000
0000
0010
0000
0100
0000
0000
0000
0001
0000
0010
0000
0100
0000
0000
0100
,
0000
0000
0100
0000
0010
0000
0000
0000
0001
0000
1000
0000
0100
0000
0000
0100
,
0000
0100
1010
0000
0100
0010
1000
0000
,
0001
0010
0100
0010
0002
0000
1003
0000
,
0010
0100
0010
0000
1000
0100
0001
0000
,
0001
0100
2000
0000
3200
0000
0320
0000
,
0032
0000
1003
0000
0010
0100
0010
0000
,
1000
0010
0100
0010
2000
0000
3001
0000
,
1000
0010
1000
0000
0100
0000
0010
0000
,
0001
0100
0001
0010
0000
0100
0000
0010
,
0000
0100
1100
0000
1000
0000
0001
0000
,
1000
0100
0020
0000
0230
0000
2300
0010
,
3000
0010
0100
0000
0001
0100
1000
0000
,
1000
0100
0002
0000
0023
0000
0230
0000
,
2300
0000
3001
0000
1000
0010
0001
0000
,
1000
0100
0002
0000
2003
0000
3010
0100
,
0000
0010
1000
0000
0001
0100
0010
0000
,
1000
0000
0000
0000
0001
0000
0100
0000
0000
0001
0000
0000
0100
0000
0000
0000
,
0010
0000
1001
1000
0100
1000
0020
0000
,
0230
0000
0301
0100
0001
1000
0200
0000
,
0320
0000
0031
1000
0100
0000
0010
0000
,
0100
0000
0000
0000
1000
0000
0001
0000
0000
1000
0000
0000
0001
0000
0000
0000
,
0010
0000
0001
1000
0100
1000
0020
0000
,
0230
0000
0301
0010
0001
1000
0200
0000
,
0320
0000
0031
0010
0100
0000
0010
0000
,
0100
0000
0000
0000
1001
0000
0001
0000
0000
0100
0000
0000
0001
0000
0002
0000
,
0000
0000
0003
0000
1002
0000
0003
2000
0000
3000
0100
0000
0010
0000
0001
0000
,
0100
0000
0010
0000
2000
0000
3000
0020
0000
0030
0100
0000
0010
0000
0001
0000
,
0100
0010
0001
0000
1000
0010
0001
0010
,
0100
0010
1000
0000
0100
0010
0100
0000
,
1000
0000
0001
0000
2000
0000
3000
0020
0000
0030
0100
0000
0010
0000
1000
0000
,
0001
0000
0010
0000
0200
0000
0300
0020
0000
0030
0001
0000
0010
0000
1000
0000
,
0001
0100
1000
0000
0010
0100
1000
0100
,
0001
0100
0010
0000
1000
0010
1000
0100
,
0010
0000
0100
0000
1010
0000
0000
0000
0001
0000
0010
0000
0001
0000
0000
1000
,
0000
0000
0001
0000
0010
0000
0100
0000
1000
0000
0001
0000
1000
0000
0000
0010
,
0000
0000
0100
0000
0010
0000
0001
0000
0010
0000
1000
0000
0010
0000
0000
0100
,
0000
0000
0001
0000
0010
0000
0001
0000
1000
0000
0100
0000
0010
0000
0000
0100
,
0000
0010
0101
1000
0000
0001
0000
1000
,
0000
0001
0000
0010
0000
0100
0000
0010
,
0000
0100
0000
1000
0000
0010
0000
1000
,
0000
0010
0000
0100
0000
0001
0000
0100
,
0000
0000
0001
0000
0101
0000
0000
0100
0000
0000
0010
0000
1000
0000
0000
0001
,
0000
0000
0010
0000
0001
0000
0000
0100
0000
0000
0010
0000
0100
0000
0000
0001
,
0000
0000
1000
0000
0100
0000
0000
0010
0000
0000
0001
0000
1000
0000
0000
0010
,
0000
1000
1010
0000
1001
0000
0011
0000
,
1000
0000
0001
0000
1001
0000
0000
1000
0000
0000
0001
0000
0010
0000
1000
0000
,
0010
0000
0100
0000
1000
0000
0000
0001
0000
0000
0100
0000
0010
0000
0001
0000
,
0010
0100
0001
0000
0000
1000
0010
0100
,
0010
1000
0001
0000
0010
0100
1000
0000
,
0001
0000
1000
0000
0001
0000
0000
0010
0000
0000
0001
0000
1000
0000
0100
0000
,
0001
0000
0100
0000
1000
0000
0000
0001
0000
0000
0100
0000
0010
0000
1000
0000
,
0001
0010
0100
0000
0000
1000
0100
0010
,
0001
0011
0011
0000
0000
0000
0000
0000
,
1000
0000
0010
0000
1001
0000
0000
1000
0100
0000
1000
0000
0001
0000
0010
0000
,
0100
0000
0010
0000
0001
0000
0000
0010
0001
0000
1000
0000
0001
0000
0100
0000
,
0010
1000
0001
0000
1000
0100
0001
0100
,
0010
0000
0100
0000
1000
0000
0000
0000
0001
0000
0100
0000
0010
0000
0000
0100
,
0010
0000
0100
0000
0001
0000
0000
1000
0000
0000
0100
0000
1000
0000
0001
0000
,
0100
0000
0010
0000
1000
0000
0000
0100
0010
0000
0100
0000
1000
0000
0001
0000
,
0100
0010
1000
0000
0001
0010
1000
0010
,
0100
0000
0010
0000
0001
0000
0000
0000
1000
0000
0010
0000
0100
0000
0000
0010
,
0100
0000
0001
0000
1000
0000
0000
0000
0010
0000
0100
0000
0001
0000
0000
1000
,
0001
0000
1000
0000
0010
0000
0000
0000
0100
0000
0010
0000
1000
0000
0000
0100
,
1000
0000
0001
0000
0010
0000
0000
0000
0001
0000
0100
0000
0010
0000
0000
0100
,
0001
0010
0100
0000
1000
0100
0010
0001
,
0100
0010
1000
0000
0000
0000
0000
0000
;

//---------------dance-single - ----------------
#NOTES:
     dance-single:
     X-Scale 5:
     Easy:
     3:
     0.249619,0.329335,0.075971,0.113957,0.000000,230.000000,220.000000,10.000000,15.000000,0.000000,0.000000,0.249619,0.329335,0.075971,0.113957,0.000000,230.000000,220.000000,10.000000,15.000000,0.000000,0.000000:
0000
0000
0000
0000
,
0000
0000
0000
0000
,
0000
0000
0000
0000
,
0000
1001
0000
0000
,
0000
1100
0000
0001
,
1000
0001
0000
0100
,
0010
0100
0000
0001
,
0100
0001
0000
0100
,
1000
0100
1100
0000
0000
0000
1000
0000
,
0000
0001
1000
0001
,
0000
0100
0000
0010
,
0000
2000
3020
0230
,
0302
1003
0000
0100
,
0000
1000
0010
1000
,
0000
0001
0000
0100
,
0000
0001
1000
0001
,
0000
1000
0000
0100
,
0000
1000
0010
1000
,
0000
0001
0000
1000
,
0000
0002
0023
0230
,
2300
3001
0000
0100
,
0000
0001
1000
0001
,
0000
0100
0000
0010
,
0000
1000
0010
1000
,
0000
0000
1010
0000
1000
0010
1000
0000
,
0001
1000
0001
0010
,
0100
1000
0001
2000
,
3200
0320
0031
1000
,
0100
0000
1000
0000
0001
0100
0001
0000
,
1000
0010
0100
0001
,
0010
0100
2000
3200
,
0320
0032
0000
0000
,
0000
1003
0000
0010
,
0100
0010
0000
1000
,
0010
1000
0000
0010
,
0100
0010
0000
1000
,
0010
1000
0000
0001
,
0100
0001
0000
0100
,
0010
0100
0000
0001
,
0100
0001
0000
0100
,
0010
0100
0001
1000
,
0001
0100
0001
1000
,
0100
0010
0100
1000
,
0001
0010
0001
1000
,
0001
0000
0011
0001
0000
1000
0000
0001
,
0000
1000
0100
0010
0000
0100
0000
0010
,
0000
0100
1000
0001
0000
0100
0000
0001
,
0000
0100
0010
1000
0000
0001
0000
1000
,
0000
0001
1001
0000
1000
0000
0100
0000
,
1000
0001
1000
0000
0010
0000
0100
0000
,
0010
1000
0100
0010
,
0100
1000
1000
0001
,
0001
1001
0000
1000
,
0000
0001
0000
1000
,
0000
0001
0000
0010
,
0000
0100
0000
0010
,
0000
0100
0000
1000
,
0000
0001
0000
1000
,
0000
0001
0000
0100
,
0000
0101
0000
0000
,
0000
1001
0000
0001
,
0010
0001
0000
1000
,
0010
1000
0000
0001
,
0010
0001
0000
1000
,
0010
1000
0000
0010
,
0100
0010
0000
1000
,
0001
1000
0000
0010
,
0100
0010
0000
1000
,
0001
1000
0100
0010
,
0001
1000
0100
0010
,
0001
1000
0010
0100
,
0001
1000
0010
0100
,
0001
0101
0000
0000
;

//---------------dance-single - ----------------
#NOTES:
     dance-single:
     X-Scale 1:
     Beginner:
     1:
     0.104189,0.164667,0.045583,0.000000,0.000000,96.000000,90.000000,6.000000,0.000000,0.000000,0.000000,0.104189,0.164667,0.045583,0.000000,0.000000,96.000000,90.000000,6.000000,0.000000,0.000000,0.000000:
0000
0000
0000
0000
,
0000
0000
0000
0000
,
0000
0000
0000
0000
,
0000
0000
0000
0000
,
0000
1000
0000
0000
,
0000
0100
0000
0000
,
0000
0010
0000
0000
,
0000
0001
0000
0000
,
0000
1001
0000
0000
,
0000
0001
0000
0000
,
0000
1000
0000
0000
,
0000
0010
0000
1000
,
0000
0010
0000
0000
,
0000
0100
0000
0000
,
0000
0001
0000
0000
,
0000
1000
0000
0001
,
0000
1000
0000
0000
,
0000
0100
0000
0010
,
0000
0100
0000
0000
,
0000
1000
0000
0010
,
0000
1000
0000
0000
,
0000
0001
0000
0100
,
0000
0001
0000
0000
,
0000
0010
0000
0100
,
0000
0010
0000
0000
,
0000
0001
0000
0000
,
0000
1000
0000
0010
,
0000
1000
0000
0000
,
0000
0001
0000
0000
,
0000
1000
0000
0000
,
0000
0001
0000
0010
,
0000
0001
0000
0000
,
0000
1001
0000
0000
,
0000
0001
0000
0000
,
0000
0010
0000
0000
,
0000
0100
0000
0000
,
0000
1000
0000
0000
,
0000
0001
0000
0000
,
0000
0010
0000
0000
,
0000
0100
0000
0000
,
0000
1000
0000
0000
,
0000
0010
0000
0000
,
0000
0100
0000
0000
,
0000
0001
0000
0000
,
0000
1001
0000
0000
,
0000
1000
0000
0000
,
0000
0001
0000
0000
,
0000
1000
0000
0000
,
0000
0001
0000
0000
,
0000
0100
0000
0000
,
0000
0001
0000
0000
,
0000
1000
0000
0001
,
0000
1001
0000
0000
,
0000
1000
0000
0000
,
0000
0100
0000
0000
,
0000
0010
0000
0000
,
0000
0001
0000
0000
,
0000
0100
0000
0000
,
0000
0010
0000
0000
,
0000
1000
0000
0000
,
0000
1001
0000
1000
,
0000
0010
0000
1000
,
0000
0010
0000
0100
,
0000
0010
0000
0100
,
0000
0010
0000
1000
,
0000
0100
0000
1000
,
0000
0100
0000
1000
,
0000
0001
0000
1000
,
0000
0001
0000
0100
,
0000
0010
0000
1000
,
0000
0001
0000
0010
,
0000
0100
0000
1000
,
0000
1001
0000
0000
;
