#VERSION:0.83;
#TITLE:DOPING LIFE;
#SUBTITLE:;
#ARTIST:TORIENA;
#TITLETRANSLIT:;
#SUBTITLETRANSLIT:;
#ARTISTTRANSLIT:;
#GENRE:Chiptune Hard Rave;
#ORIGIN:;
#CREDIT:;
#BANNER:DOPING LIFE-bn.png;
#BACKGROUND:DOPING LIFE-bg.png;
#PREVIEWVID:;
#JACKET:DOPING LIFE-jacket.png;
#CDIMAGE:;
#DISCIMAGE:;
#LYRICSPATH:;
#CDTITLE:cdtitle.png;
#MUSIC:DOPING LIFE.ogg;
#OFFSET:-0.003000;
#SAMPLESTART:69.820999;
#SAMPLELENGTH:11.636000;
#SELECTABLE:YES;
#BPMS:0.000=165.000;
#STOPS:;
#DELAYS:;
#WARPS:;
#TIMESIGNATURES:0.000=4=4;
#TICKCOUNTS:0.000=4;
#COMBOS:0.000=1;
#SPEEDS:0.000=1.000=0.000=0;
#SCROLLS:0.000=1.000;
#FAKES:;
#LABELS:0.000=Song Start;
#BGCHANGES:0.000=DOPING LIFE.avi=1.000=1=0=0=StretchNoLoop==CrossFade==,
99999=-nosongbg-=1.000=0=0=0 // don't automatically add -songbackground-
;
#KEYSOUNDS:;
#ATTACKS:
;

//---------------dance-single - ----------------
#NOTEDATA:;
#CHARTNAME:X-Scale 10;
#STEPSTYPE:dance-single;
#DESCRIPTION:;
#CHARTSTYLE:;
#DIFFICULTY:Easy;
#METER:7;
#RADARVALUES:0.421704,0.549196,0.180205,0.051487,0.000000,344.000000,323.000000,21.000000,6.000000,0.000000,0.000000,0.000000,0.000000,0.000000,0.421704,0.549196,0.180205,0.051487,0.000000,344.000000,323.000000,21.000000,6.000000,0.000000,0.000000,0.000000,0.000000,0.000000;
#CREDIT:iamthek3n;
#NOTES:
// measure 0
0000
0000
0000
0000
,  // measure 1
0000
0000
0000
0000
,  // measure 2
0000
0000
0000
0000
,  // measure 3
0000
0000
0000
0000
,  // measure 4
0001
0000
1000
0000
,  // measure 5
0001
0000
1000
0000
,  // measure 6
0001
0000
1000
0000
,  // measure 7
0001
0000
0001
0000
1000
1000
2000
0000
,  // measure 8
3001
0100
0000
0001
1000
0100
0000
0010
,  // measure 9
0000
0001
0000
0100
0001
1000
0000
0010
,  // measure 10
0000
1000
0000
0001
0010
0100
0000
0010
,  // measure 11
0000
0001
1000
0010
1000
0001
0010
0100
,  // measure 12
1000
0001
0000
0100
0000
0001
0010
0100
,  // measure 13
0000
1000
0000
0001
0000
0100
0001
1000
,  // measure 14
0000
0100
0000
0010
0000
0100
0010
0001
,  // measure 15
0000
1000
0001
0100
0001
0000
0101
0000
,  // measure 16
1100
0100
1000
0001
,  // measure 17
1000
0000
0010
1000
0001
0000
0010
0000
,  // measure 18
0001
1000
0100
0010
,  // measure 19
0100
0000
1000
0001
0100
0000
0000
0000
,  // measure 20
0101
1000
0001
1000
,  // measure 21
0001
0010
0100
0010
0001
0000
1000
0000
,  // measure 22
0100
0010
0100
1000
,  // measure 23
0001
0100
0010
0100
0001
0000
0000
0000
,  // measure 24
1001
0100
1000
0001
,  // measure 25
1000
0100
0010
0100
1000
0000
0001
1000
,  // measure 26
0001
0100
0010
1000
,  // measure 27
0100
0010
0001
1000
0001
0000
0100
0000
,  // measure 28
0010
0100
0001
0000
1000
0100
0010
0000
,  // measure 29
0100
1000
0001
0000
0100
0010
1000
0000
,  // measure 30
0001
0010
0100
0000
0010
0001
1000
0000
,  // measure 31
0100
0010
0001
0000
1000
0001
0200
0000
,  // measure 32
0300
0001
0000
1000
,  // measure 33
0000
0001
0000
1000
,  // measure 34
0000
0010
0000
0100
,  // measure 35
0000
0010
0000
0100
,  // measure 36
0000
0001
0000
1000
,  // measure 37
0000
0001
0000
1000
,  // measure 38
0000
0100
0000
0010
,  // measure 39
0000
0100
0000
0010
,  // measure 40
0000
0001
0000
1000
,  // measure 41
0000
0010
0000
1000
,  // measure 42
0001
0100
0001
1000
,  // measure 43
0200
0010
0000
0310
,  // measure 44
0000
0100
0000
1000
,  // measure 45
0000
0001
0000
0100
,  // measure 46
0001
1000
0001
0010
,  // measure 47
0200
0000
0010
0000
1300
0100
1000
0100
,  // measure 48
1100
0100
1000
0001
,  // measure 49
0100
0010
1000
0001
0100
0000
0001
0000
,  // measure 50
1000
0100
1000
0001
,  // measure 51
0100
0010
1000
0001
0010
0000
0100
0000
,  // measure 52
0010
0001
1000
0001
,  // measure 53
0100
0010
1000
0001
0100
0000
0001
0000
,  // measure 54
0100
0001
1000
0100
,  // measure 55
0010
0100
1000
0001
1000
0000
1100
0000
,  // measure 56
0101
0000
0100
0001
1000
0000
0001
0000
,  // measure 57
0010
0000
0100
0010
0001
0000
1000
0000
,  // measure 58
0001
0000
0010
0100
1000
0000
0001
0000
,  // measure 59
0100
0000
0010
0100
0001
0000
1000
0000
,  // measure 60
0100
0010
0100
0010
,  // measure 61
0001
1000
0001
1000
,  // measure 62
0010
0100
0010
0100
,  // measure 63
0110
1001
0110
0000
,  // measure 64
1000
0100
1100
0000
0000
0000
0101
0000
,  // measure 65
0001
0100
0101
0000
0000
0000
0110
0000
,  // measure 66
0010
0100
0110
0000
0000
0000
1001
0000
,  // measure 67
1000
0100
0000
1000
0001
1000
0000
0010
,  // measure 68
0100
0001
0101
0000
1000
0000
1100
0000
,  // measure 69
0100
0010
0011
0000
1000
0000
1001
0000
,  // measure 70
0001
0100
0101
0000
1000
0000
0100
0000
,  // measure 71
1000
0000
1000
0000
0001
1000
0001
1000
,  // measure 72
0001
0010
0100
1000
,  // measure 73
0010
0100
0001
1000
,  // measure 74
0100
0010
0001
0100
,  // measure 75
0010
1000
0100
0010
,  // measure 76
0001
0100
0010
1000
,  // measure 77
0001
0010
0100
1000
,  // measure 78
0010
0100
0001
1000
,  // measure 79
0100
0000
0010
0000
0002
0020
0000
0000
,  // measure 80
0033
0000
0000
0000
;

//---------------dance-single - ----------------
#NOTEDATA:;
#CHARTNAME:X-Scale 13;
#STEPSTYPE:dance-single;
#DESCRIPTION:;
#CHARTSTYLE:;
#DIFFICULTY:Medium;
#METER:9;
#RADARVALUES:0.532034,0.686495,0.163043,0.205948,0.115846,434.000000,415.000000,19.000000,24.000000,0.000000,0.000000,0.000000,0.000000,0.000000,0.532034,0.686495,0.163043,0.205948,0.115846,434.000000,415.000000,19.000000,24.000000,0.000000,0.000000,0.000000,0.000000,0.000000;
#CREDIT:iamthek3n;
#NOTES:
// measure 0
0000
0000
0000
0000
,  // measure 1
0000
0000
0000
0000
,  // measure 2
0000
0000
0000
0000
,  // measure 3
0000
0000
0000
0000
,  // measure 4
0001
0000
0000
0000
1000
0001
1000
0000
,  // measure 5
0010
0000
0000
0000
0100
0010
0100
0000
,  // measure 6
0001
0000
0000
0000
0010
0100
0010
0000
,  // measure 7
0110
1001
0110
1001
,  // measure 8
1000
0100
0010
0001
,  // measure 9
0100
0010
1000
0001
,  // measure 10
0010
0100
1000
0010
,  // measure 11
0100
0001
1000
0100
,  // measure 12
0010
0001
0100
0010
,  // measure 13
1000
0001
0010
0100
,  // measure 14
1000
0010
0100
0001
,  // measure 15
1000
0200
1300
0000
,  // measure 16
1001
0100
1000
0001
,  // measure 17
1000
0010
0001
0010
1000
0000
0100
0000
,  // measure 18
0010
0001
1000
0001
,  // measure 19
0100
0010
1000
0001
0010
0000
0000
0000
,  // measure 20
0100
1000
0001
1000
,  // measure 21
0100
0001
0100
0010
0001
0000
1000
0000
,  // measure 22
0001
0100
1000
0100
,  // measure 23
0001
0000
0000
0101
0000
0000
1000
0000
1001
0000
0000
0000
0000
0000
2000
0000
,  // measure 24
3001
0101
1000
1001
,  // measure 25
0001
0100
1000
0100
0001
0000
0100
0100
,  // measure 26
0100
1001
0010
1001
,  // measure 27
0001
0000
0100
0000
1000
0000
0100
0000
0001
0000
0000
0000
1000
0000
0000
1000
,  // measure 28
0100
0000
1000
0000
0010
0000
0001
0000
0010
0000
1000
0000
0001
0000
0100
0010
,  // measure 29
1000
0000
0001
0000
0100
0000
1000
0000
0100
0000
0001
0000
0010
0000
0100
0010
,  // measure 30
0001
0000
0100
0000
1000
0000
0100
0000
0001
0000
1000
0000
0001
0000
1000
0001
,  // measure 31
0100
0000
0001
0000
1000
0000
0001
0000
0010
0000
0010
0000
0010
0100
0010
0100
,  // measure 32
0010
0001
0000
1000
,  // measure 33
0000
0001
0000
1000
,  // measure 34
0000
0100
0000
0010
,  // measure 35
0000
0100
0000
0010
,  // measure 36
0000
0001
0000
0010
,  // measure 37
0000
0000
0001
0000
0000
0000
0010
0200
,  // measure 38
1300
0000
0100
0000
,  // measure 39
1000
0100
0001
0010
,  // measure 40
2000
0000
3000
0001
0002
0000
0003
0100
,  // measure 41
0200
0000
0300
0010
0020
0000
0030
0000
,  // measure 42
2000
3200
0302
0023
,  // measure 43
2030
0001
0000
0001
0000
3001
1000
0001
,  // measure 44
0020
0000
0030
0100
0200
0000
0300
1000
,  // measure 45
2000
0000
3000
0001
0002
0000
0003
0000
,  // measure 46
2000
3020
0032
0203
,  // measure 47
1300
0000
1100
0000
0101
0001
0001
0000
,  // measure 48
1001
1000
0010
1000
0001
0010
0001
1000
,  // measure 49
0010
0000
0100
0000
1000
0000
0100
0000
0010
0000
1000
0010
1000
0000
0001
0000
,  // measure 50
0001
0100
0010
1000
0100
0001
0100
0010
,  // measure 51
0001
0000
1000
0001
0000
0000
0010
0100
0000
0000
1000
0100
0000
0000
1000
0001
,  // measure 52
1000
0001
0100
1000
0100
0001
1000
0010
,  // measure 53
0100
0000
0001
0000
0010
0000
0100
0000
1000
0000
0001
1000
0100
0000
0100
0000
,  // measure 54
0010
1000
0010
0001
1000
0001
0100
0001
,  // measure 55
0020
1030
0020
0001
0031
0000
0011
0000
,  // measure 56
1001
0000
0100
1000
0001
0000
0100
0001
,  // measure 57
1000
0000
0100
0000
0001
0000
0100
0000
1000
0000
0001
1000
0001
0000
0100
0000
,  // measure 58
0100
0010
0100
0000
0001
0010
0100
0000
,  // measure 59
1000
0000
0100
0000
0001
0000
0100
0000
0010
0000
0001
0010
0001
0000
0000
0000
,  // measure 60
1000
0000
0100
0000
1000
0000
0001
1000
0010
0000
0100
0000
0001
0000
0010
0100
,  // measure 61
1000
0000
0100
0000
0001
0000
0100
0000
1000
0000
0000
0000
0001
1000
0001
1000
,  // measure 62
0001
0000
0100
0000
0010
0000
0100
0010
1000
0000
0100
0000
0010
0000
0100
0010
,  // measure 63
0001
0000
0000
0010
0000
0000
0100
0000
1000
0000
1000
0000
0001
0000
0001
0000
,  // measure 64
1001
1000
0100
0000
1000
0000
0001
0000
,  // measure 65
0100
0001
1000
0000
0001
0000
0010
0000
,  // measure 66
0100
0010
0001
0000
1000
0000
0001
0000
,  // measure 67
0100
0000
0010
0000
1000
0000
0000
0001
0100
0000
0001
0000
1000
0000
0001
0000
,  // measure 68
0100
0001
1000
0000
0100
0000
0010
0000
,  // measure 69
0100
0010
0001
0000
1000
0000
0001
0000
,  // measure 70
0100
0010
1000
0000
0001
0000
0010
0000
,  // measure 71
0011
0000
1010
0000
1000
0001
1000
0001
,  // measure 72
1000
0100
0010
0000
0100
0000
1000
0000
,  // measure 73
0001
0100
0010
0000
0100
0000
0001
0000
,  // measure 74
1000
0100
0010
0000
0100
0000
1000
0000
,  // measure 75
0001
0000
0000
0100
0001
0000
1000
0000
0001
0000
0000
0010
0100
0000
1000
0000
,  // measure 76
0001
0100
0001
0000
0010
0000
0100
0000
,  // measure 77
0010
0100
1000
0000
0001
0000
0000
1000
,  // measure 78
0010
1000
0000
0001
1000
0000
0100
0000
,  // measure 79
0010
0000
0000
0010
0100
0000
0000
0100
2000
0000
0002
0000
0000
0000
0000
0000
,  // measure 80
3003
0000
0000
0000
;

//---------------dance-single - ----------------
#NOTEDATA:;
#CHARTNAME:X-Scale 16;
#STEPSTYPE:dance-single;
#DESCRIPTION:;
#CHARTSTYLE:;
#DIFFICULTY:Hard;
#METER:11;
#RADARVALUES:0.737982,0.789469,0.368991,0.197367,0.497709,602.000000,559.000000,43.000000,23.000000,0.000000,0.000000,8.000000,0.000000,0.000000,0.737982,0.789469,0.368991,0.197367,0.497709,602.000000,559.000000,43.000000,23.000000,0.000000,0.000000,8.000000,0.000000,0.000000;
#CREDIT:iamthek3n;
#NOTES:
// measure 0
0000
0000
0000
0000
,  // measure 1
0000
0000
0000
0000
,  // measure 2
0000
0000
0000
0000
,  // measure 3
0000
0000
0000
0000
,  // measure 4
0000
1000
0000
1000
,  // measure 5
0000
0001
0000
0001
,  // measure 6
0000
0100
0000
0100
,  // measure 7
0110
0000
0000
0000
1001
0000
0000
0000
1000
0000
0001
0000
4000
0004
0000
3003
,  // measure 8
0110
0000
0000
0100
0001
0000
0000
1000
0100
0000
0000
1000
0001
0000
0000
0010
,  // measure 9
0100
0000
0000
0001
0100
0000
0000
1000
0100
0000
0000
1000
0001
0000
0000
0100
,  // measure 10
0010
0000
0000
0001
0010
0000
0000
1000
0010
0000
0000
0001
0100
0000
0000
0010
,  // measure 11
1000
0000
0100
0010
0001
0000
1000
0001
0100
0000
0010
0100
0004
0000
1003
0100
,  // measure 12
1000
0000
0000
0100
0010
0000
0000
0001
1000
0000
0000
0010
0100
0000
0000
1000
,  // measure 13
0100
0000
0000
0001
1000
0000
0000
0100
0010
0000
0000
1000
0010
0000
0000
0001
,  // measure 14
0010
0000
0000
0001
1000
0000
0000
0010
0100
0000
0000
0001
0010
0000
0000
0001
,  // measure 15
1000
0000
0100
0010
0004
4000
0000
3003
0110
0000
0000
0000
0000
0000
0000
0000
,  // measure 16
1100
0110
0101
0110
,  // measure 17
1000
0001
1000
0001
0020
0000
0130
0100
,  // measure 18
1100
0101
1100
0110
,  // measure 19
0001
1000
0001
1000
0200
0000
0300
0000
,  // measure 20
1001
0011
1001
1100
,  // measure 21
1000
0001
1000
0001
0200
0000
0310
0010
,  // measure 22
0110
1001
0110
0101
,  // measure 23
1000
0100
1000
0100
0020
0000
0030
0000
,  // measure 24
0001
0000
0010
0100
1000
0001
1000
0000
0010
0000
1000
0000
1010
0000
0000
0000
,  // measure 25
1000
0000
0010
1000
0001
0010
0100
0000
0010
0000
0001
0000
1000
0000
1000
0000
,  // measure 26
1001
0000
0010
0001
1000
0001
0100
0000
0001
0000
0010
0000
1000
0000
0010
0000
,  // measure 27
0001
0000
1000
0100
0010
0001
1000
0000
0001
0000
0000
0000
0100
0000
0000
0100
,  // measure 28
0001
0000
1000
0001
0100
0000
0010
0100
0001
0000
0010
0000
1001
0000
0100
0000
,  // measure 29
1000
0000
0100
0010
0001
0000
0100
0010
1000
0000
0000
0100
0010
0000
0010
0000
,  // measure 30
0010
0000
0001
1000
0100
0000
0010
0100
1000
0000
0010
0000
1010
0000
0001
0000
,  // measure 31
1000
0000
0100
0000
0001
0000
0100
0000
1000
0000
1000
0000
1000
0001
1000
0001
,  // measure 32
1000
1001
0000
0110
,  // measure 33
0000
0000
0011
0000
0000
0000
1010
4000
,  // measure 34
3000
1001
0000
0011
,  // measure 35
0000
0110
0000
1001
,  // measure 36
0001
0000
0000
0000
0100
0000
0000
0001
0000
0000
0001
0000
1000
0000
0000
0000
,  // measure 37
0100
0000
0000
0000
0010
0000
0000
0100
0000
0000
0100
0000
1000
0000
0004
0000
,  // measure 38
0023
0000
0000
0000
0130
0000
0000
0010
0000
0000
0010
0000
0001
0000
1000
0000
,  // measure 39
0002
0000
0000
0203
0000
0000
2300
0000
0000
3020
0000
0000
0032
0000
0000
1003
,  // measure 40
0200
0000
0301
0100
2000
0000
3010
0100
,  // measure 41
0200
0000
0301
0010
0020
0000
0130
4000
,  // measure 42
3001
0000
0100
0001
1000
0000
1001
0000
,  // measure 43
0100
0000
1000
0100
0000
0000
1000
0000
0000
0000
0001
0100
0000
0000
0001
0000
,  // measure 44
0020
0000
1030
0010
0001
0000
1000
0001
,  // measure 45
0100
0000
0000
0000
0101
0000
0001
0000
1000
0000
0100
1000
0001
0000
2000
0000
,  // measure 46
3200
0000
0302
0000
0023
0000
2030
3000
,  // measure 47
1001
0000
0110
0000
1001
1000
1000
1000
,  // measure 48
1100
0000
0100
0000
1000
0000
0001
0100
0010
0000
1000
0000
0001
0000
0010
0001
,  // measure 49
1000
0000
0100
0000
0001
0000
0100
0000
1000
0000
0001
0100
0010
0000
0100
0010
,  // measure 50
1000
0000
0001
0000
0010
0000
0100
0010
0001
0000
1000
0000
0010
0000
1000
0100
,  // measure 51
0010
0000
0001
0000
0100
0000
1000
0000
0100
0000
0001
0100
0010
0000
0100
0010
,  // measure 52
1000
0000
0001
0000
0100
0000
0010
0100
1000
0000
0100
0000
0001
0000
1000
0100
,  // measure 53
0010
0000
1000
0000
0010
0000
0001
0000
1000
0000
0010
1000
0001
0000
0010
0100
,  // measure 54
1000
0000
0001
0000
1000
0000
0100
0010
0001
0000
1000
0000
0001
0000
0100
0001
,  // measure 55
1000
0010
0001
0010
1000
0001
2001
0000
,  // measure 56
3100
0010
0100
1000
0001
0100
0010
1000
,  // measure 57
0100
0000
0001
0000
0100
0000
1000
0000
0001
0000
0100
0001
1000
0000
0010
1000
,  // measure 58
0001
0100
1000
0100
0010
0100
0001
1000
,  // measure 59
0010
0000
0100
0010
1000
0000
0001
0010
0100
0000
0010
0000
0110
0000
0000
0000
,  // measure 60
1001
0000
1000
0000
0001
0000
0100
0010
0100
0000
0001
0000
0010
0000
0100
1000
,  // measure 61
0100
0000
0001
0000
0100
0000
1000
0000
0001
0000
0100
0001
1000
0000
0010
0100
,  // measure 62
0001
0000
0010
0000
0100
0000
1000
0100
1000
0000
0001
0000
0100
0000
0001
0000
,  // measure 63
1001
0000
0000
0100
1000
0000
0001
0000
0100
0000
0100
0000
0100
0010
1000
0001
,  // measure 64
0010
0000
0100
0000
1000
0000
0001
1000
0010
0000
1000
0000
0001
0000
0001
0000
,  // measure 65
0010
0000
0001
0000
1000
0000
0100
0010
0001
0000
0100
0000
0010
0000
0100
0000
,  // measure 66
0001
0000
0010
0000
0100
0000
0001
0100
1000
0000
0001
0000
0100
0000
0100
0000
,  // measure 67
0010
0000
0100
0010
0000
1000
0010
1000
0000
0001
0010
0001
0000
0000
1000
0000
,  // measure 68
0001
0000
0010
0000
1000
0000
0010
0100
1000
0000
0001
0000
1000
0000
0010
0000
,  // measure 69
1000
0000
0100
0000
0010
0000
0100
0010
0001
0000
1000
0000
0001
0000
0100
0000
,  // measure 70
0010
0000
0100
0000
0001
0000
1000
0100
0010
0000
1000
0000
0010
0000
0001
0000
,  // measure 71
0011
0000
0001
0000
0010
0100
0000
0100
1000
0000
1000
0000
0001
1000
0001
1000
,  // measure 72
0001
0000
0000
0010
0100
0000
0000
0010
0001
0000
0000
0010
0100
0000
0100
0000
,  // measure 73
1000
0000
0000
0001
0100
0000
0000
1000
0100
0000
0000
0000
0001
0000
0100
0000
,  // measure 74
0001
0000
0000
1000
0100
0000
0000
0001
0100
0000
0000
0000
1000
0000
1000
0000
,  // measure 75
0001
0000
0000
0010
0100
0000
0000
0010
0001
0000
0000
0000
1000
0000
0001
0000
,  // measure 76
1000
0000
0000
0100
0010
0000
0000
0001
0100
0000
0000
0000
0001
0000
0001
0000
,  // measure 77
1000
0000
0000
0010
0100
0000
0000
1000
0100
0000
0000
0000
0010
0000
0100
0000
,  // measure 78
0001
0000
0000
0010
0100
0000
0000
1000
0100
0000
0000
0000
1000
0000
1000
0000
,  // measure 79
0001
0000
0000
0100
0001
0000
0000
1000
0200
0000
2000
0000
0000
0000
0000
0000
,  // measure 80
3300
0000
0000
0000
;
