#VERSION:0.83;
#TITLE:DNA feat. SEBii;
#SUBTITLE:;
#ARTIST:bloodz boi 血男孩 & umru;
#TITLETRANSLIT:;
#SUBTITLETRANSLIT:;
#ARTISTTRANSLIT:bloodz boi & umru;
#GENRE:C-Hyperrap;
#ORIGIN:;
#CREDIT:;
#BANNER:DNA feat. SEBii-bn.png;
#BACKGROUND:DNA feat. SEBii-bg.png;
#PREVIEWVID:;
#JACKET:DNA feat. SEBii-jacket.png;
#CDIMAGE:;
#DISCIMAGE:;
#LYRICSPATH:;
#CDTITLE:cdtitle.png;
#MUSIC:DNA feat. SEBii.ogg;
#OFFSET:-0.004000;
#SAMPLESTART:29.080999;
#SAMPLELENGTH:13.846000;
#SELECTABLE:YES;
#BPMS:0.000=130.000;
#STOPS:;
#DELAYS:;
#WARPS:;
#TIMESIGNATURES:0.000=4=4;
#TICKCOUNTS:0.000=4;
#COMBOS:0.000=1;
#SPEEDS:0.000=1.000=0.000=0;
#SCROLLS:0.000=1.000;
#FAKES:;
#LABELS:0.000=Song Start;
#BGCHANGES:;
#KEYSOUNDS:;
#ATTACKS:
;

//---------------dance-single - ----------------
#NOTEDATA:;
#CHARTNAME:X-Scale 13;
#STEPSTYPE:dance-single;
#DESCRIPTION:;
#CHARTSTYLE:;
#DIFFICULTY:Hard;
#METER:9;
#RADARVALUES:0.467069,0.639036,0.222919,0.379789,0.078435,396.000000,369.000000,27.000000,46.000000,0.000000,0.000000,0.000000,0.000000,0.000000,0.467069,0.639036,0.222919,0.379789,0.078435,396.000000,369.000000,27.000000,46.000000,0.000000,0.000000,0.000000,0.000000,0.000000;
#CREDIT:iamthek3n;
#NOTES:
// measure 0
0000
0000
0000
0000
,  // measure 1
0000
0000
0000
0000
,  // measure 2
0000
0000
0000
0000
,  // measure 3
0000
0000
0000
0000
,  // measure 4
0000
0000
0000
0000
,  // measure 5
0000
0000
0000
0000
,  // measure 6
0000
0000
0000
0000
,  // measure 7
0000
0000
0000
0000
,  // measure 8
1000
0100
0001
0100
0020
0000
0031
2000
,  // measure 9
0000
3020
0000
1030
0002
0000
1003
0020
,  // measure 10
0000
2030
3000
0001
0002
0000
1003
0200
,  // measure 11
0000
2300
0000
0000
3200
0300
0200
0000
,  // measure 12
1300
0010
0100
0001
0010
0100
1000
0000
,  // measure 13
0010
0100
1000
0100
0010
1000
0001
0000
,  // measure 14
1000
0000
0010
0000
0100
0010
0100
0000
0001
0000
1000
0000
0010
0000
1000
0000
,  // measure 15
0000
0000
0001
0000
0010
0000
0001
0000
0101
0000
0001
0100
0001
0000
0010
0000
,  // measure 16
0200
1000
2300
0001
3001
0000
1000
0001
,  // measure 17
1001
0000
1000
0000
0010
0000
0100
0000
1010
0000
1000
0000
0010
1000
0010
0000
,  // measure 18
0100
0001
0101
0000
1010
0000
1000
0100
,  // measure 19
1100
0000
1000
0001
0011
0000
0110
0000
,  // measure 20
1001
1000
0010
0100
1000
0001
0010
0100
,  // measure 21
1001
0000
1000
0000
0001
0000
0100
0000
0101
0000
0001
0000
1000
0100
1000
0000
,  // measure 22
1100
0000
1000
0000
0001
0010
0001
0000
0011
0000
0001
0000
1000
0000
0100
0000
,  // measure 23
1100
0000
0010
1000
1002
0003
0020
0000
,  // measure 24
1030
0000
0010
0000
0001
0000
1000
0000
0001
0000
0000
0100
0010
0000
0100
0000
,  // measure 25
0001
1000
0000
0100
0010
0000
0001
0100
,  // measure 26
0001
0010
1000
0001
0100
1000
0000
0010
,  // measure 27
1000
0001
0000
0001
0200
0000
1300
0100
,  // measure 28
0001
1000
0010
0001
0010
1000
0000
0100
,  // measure 29
0010
0001
2000
0000
3002
0000
0103
0010
,  // measure 30
0001
1000
0100
0010
1000
0001
0000
1000
,  // measure 31
0001
0010
1000
0020
0002
0000
0000
0033
,  // measure 32
0011
0000
0001
0000
1000
0100
1000
0001
,  // measure 33
0000
0100
0010
0001
0010
0100
0001
0000
,  // measure 34
1000
0100
0010
0001
0000
1000
0000
0010
,  // measure 35
0100
0010
0000
1000
1100
0000
1000
0100
,  // measure 36
0010
0000
0001
1000
0001
0010
0000
0100
,  // measure 37
1000
0001
0100
0001
1000
0000
0010
0100
,  // measure 38
0001
0000
0010
0000
0100
0010
0100
0000
0010
0000
0001
0000
1000
0000
0100
0000
,  // measure 39
0000
0100
0010
0001
0011
0000
0020
0000
,  // measure 40
0130
0000
0010
0000
0001
0010
0001
0000
1000
0000
0000
0000
0100
0000
1000
0000
,  // measure 41
0010
0000
0100
0000
0001
0000
0001
0010
0001
0000
0010
0000
0100
0000
0000
0000
,  // measure 42
1000
0100
0001
0100
1000
0001
0000
0101
,  // measure 43
0001
1000
0001
0100
0002
0000
1003
0010
,  // measure 44
1000
0000
1000
0000
0100
0010
0100
0000
2000
0000
0000
0000
3001
0000
0100
0000
,  // measure 45
0001
0000
1000
0000
0010
0000
1000
0100
2000
0000
0000
0000
3200
0000
0000
0000
,  // measure 46
0301
0000
0100
0000
1000
0000
0001
0000
0100
0002
0000
0003
2000
0000
0000
0000
,  // measure 47
3010
1000
0000
0000
0001
0000
0010
0000
1000
0000
0010
0000
0002
0000
0000
0000
,  // measure 48
0103
0000
0001
0000
1000
0001
1000
0000
0001
0000
0010
0000
0100
0000
0000
0000
,  // measure 49
1001
0000
0000
0000
1000
0000
0010
0000
1000
0000
0001
0000
0010
0100
0010
0000
,  // measure 50
0001
1000
1100
0000
0101
0000
0001
1000
,  // measure 51
0010
0000
1000
0001
0011
0000
1010
0000
,  // measure 52
0020
0000
0000
0000
0130
0000
0010
0000
2000
0000
0000
0000
3000
1000
0001
0000
,  // measure 53
1001
0000
0000
0000
1000
0000
0010
0000
0100
0000
0001
0000
1000
0001
0000
0000
,  // measure 54
1001
0000
0000
0000
1000
0100
1000
0000
1100
0000
0100
0000
1000
0000
0001
0000
,  // measure 55
0100
1000
0100
0001
0020
0030
0002
0003
,  // measure 56
1000
0010
0001
0010
2000
0000
3001
0200
,  // measure 57
0000
0320
0030
1000
0100
0000
1000
0002
,  // measure 58
0000
0023
0030
0100
0020
0000
0031
1000
,  // measure 59
0000
0200
0000
0000
0310
0000
0010
0100
,  // measure 60
1000
0001
0100
0001
0020
0000
0130
2000
,  // measure 61
0000
3002
0003
0100
0001
0000
1000
0002
,  // measure 62
0000
0023
0000
0031
1000
0000
0010
1000
,  // measure 63
0001
0000
0000
0100
0010
0000
0100
0000
0002
0000
0000
0000
0000
0000
2000
0000
,  // measure 64
0000
0000
3003
0000
;

//---------------dance-single - ----------------
#NOTEDATA:;
#CHARTNAME:X-Scale 8;
#STEPSTYPE:dance-single;
#DESCRIPTION:;
#CHARTSTYLE:;
#DIFFICULTY:Medium;
#METER:6;
#RADARVALUES:0.358558,0.452650,0.140357,0.635733,0.012384,304.000000,287.000000,17.000000,77.000000,0.000000,0.000000,0.000000,0.000000,0.000000,0.358558,0.452650,0.140357,0.635733,0.012384,304.000000,287.000000,17.000000,77.000000,0.000000,0.000000,0.000000,0.000000,0.000000;
#CREDIT:iamthek3n;
#NOTES:
// measure 0
0000
0000
0000
0000
,  // measure 1
0000
0000
0000
0000
,  // measure 2
0000
0000
0000
0000
,  // measure 3
0000
0000
0000
0000
,  // measure 4
0000
0000
0000
0000
,  // measure 5
0000
0000
0000
0000
,  // measure 6
0000
0000
0000
0000
,  // measure 7
0000
0000
0000
0000
,  // measure 8
0001
0000
0100
0000
0001
0000
1000
0020
,  // measure 9
0000
2030
0000
3100
0020
0000
0031
0020
,  // measure 10
0000
0230
0300
1000
1000
0000
0001
2000
,  // measure 11
0000
3020
0000
0000
0032
0000
0023
0000
,  // measure 12
1030
0010
0001
0010
2000
0000
3010
0200
,  // measure 13
0000
0320
0000
1030
0002
0000
0013
0200
,  // measure 14
0000
0320
0030
0001
1000
0000
0010
2000
,  // measure 15
0000
3002
0000
0003
0101
0000
0000
0000
,  // measure 16
1000
0000
0001
0000
1000
0000
0100
0010
,  // measure 17
0002
0000
0000
1003
1001
0000
0001
0010
,  // measure 18
0100
0000
1000
0000
2000
0000
0000
3100
,  // measure 19
1100
0000
0100
0010
0001
0000
1000
0000
,  // measure 20
0001
0010
0100
1000
0010
0100
0001
1000
,  // measure 21
0002
0000
0000
0103
0101
0000
0001
1000
,  // measure 22
0200
0000
0000
0310
0110
0000
0100
1000
,  // measure 23
1001
0000
0000
0001
0020
0000
0032
0000
,  // measure 24
2003
0000
0000
0000
0000
0000
3010
0000
1000
0000
0000
0010
0100
0000
0001
0000
,  // measure 25
1000
0100
0000
1000
0001
0000
0010
0100
,  // measure 26
1000
0000
0001
0100
0001
0000
0010
0100
,  // measure 27
1000
0001
0000
0010
0001
0000
1000
0010
,  // measure 28
1000
0000
0100
0010
0001
0000
1000
0010
,  // measure 29
0100
0001
0000
0010
0100
0000
1000
0010
,  // measure 30
1000
0000
0001
0010
0001
0000
1000
0010
,  // measure 31
0000
1000
0010
0100
0002
0000
0000
0000
,  // measure 32
0023
0230
1300
0200
,  // measure 33
0320
0000
0030
0001
0100
0010
0001
0010
,  // measure 34
0200
0302
1003
0200
,  // measure 35
0320
0000
0030
0100
1000
0001
0100
0010
,  // measure 36
2000
3002
0103
0020
,  // measure 37
0230
0000
0300
0001
0010
1000
0010
0100
,  // measure 38
2000
3200
2300
3002
,  // measure 39
0100
1000
0013
0200
,  // measure 40
0000
1300
0100
0010
0002
0000
2003
0000
,  // measure 41
3000
1000
0100
0010
0002
0000
2003
0000
,  // measure 42
3000
0010
1000
0001
0200
0000
0320
0000
,  // measure 43
0030
1000
0001
0100
0002
0000
0023
0000
,  // measure 44
0030
0100
0010
0001
2000
0000
3020
0000
,  // measure 45
0030
0100
0001
0010
0002
0000
2003
0000
,  // measure 46
3010
1000
0001
0100
0101
0000
2000
0000
,  // measure 47
3100
1000
0001
0100
0101
0000
0002
0000
,  // measure 48
0013
0000
0100
0000
1000
0001
0000
0001
,  // measure 49
0201
0000
0000
0310
0110
0000
0010
1000
,  // measure 50
0001
0010
0011
0000
1100
0000
1000
0010
,  // measure 51
0100
0001
1000
0000
1010
0000
0101
0000
,  // measure 52
0002
0000
0000
0000
0013
0000
0100
0000
2000
0000
3000
0000
0000
0001
0010
0000
,  // measure 53
0011
0000
0001
0000
1000
0000
0010
0000
0100
0000
0000
0000
0001
0010
0000
0000
,  // measure 54
0011
0000
1000
0000
1100
1000
0001
0100
,  // measure 55
0010
1000
0001
0010
0100
0000
0010
0000
,  // measure 56
0002
0000
0100
0000
2003
0000
3100
1000
,  // measure 57
0000
0001
0000
0100
0001
0000
0010
0200
,  // measure 58
0000
0302
0000
0103
2000
0000
3001
0200
,  // measure 59
0000
0302
0000
0000
2003
0000
3200
0000
,  // measure 60
0310
0000
0100
1000
0001
0000
0100
0020
,  // measure 61
0000
0230
0000
0301
0010
0000
0001
2000
,  // measure 62
0000
3200
0000
0301
0200
0000
1300
0002
,  // measure 63
0000
0203
0000
0000
0302
0000
0000
2003
,  // measure 64
0000
0000
3000
0000
;

//---------------dance-single - ----------------
#NOTEDATA:;
#CHARTNAME:X-Scale 6;
#STEPSTYPE:dance-single;
#DESCRIPTION:;
#CHARTSTYLE:;
#DIFFICULTY:Easy;
#METER:4;
#RADARVALUES:0.263021,0.342790,0.049538,0.082563,0.000000,223.000000,217.000000,6.000000,10.000000,0.000000,0.000000,0.000000,0.000000,0.000000,0.263021,0.342790,0.049538,0.082563,0.000000,223.000000,217.000000,6.000000,10.000000,0.000000,0.000000,0.000000,0.000000,0.000000;
#CREDIT:iamthek3n;
#NOTES:
// measure 0
0000
0000
0000
0000
,  // measure 1
0000
0000
0000
0000
,  // measure 2
0000
0000
0000
0000
,  // measure 3
0000
0000
0000
0000
,  // measure 4
0000
0000
0000
0000
,  // measure 5
0000
0000
0000
0000
,  // measure 6
0000
0000
0000
0000
,  // measure 7
0000
0000
0000
0000
,  // measure 8
1000
0000
0000
0000
0010
0000
0000
1000
,  // measure 9
0000
0001
0000
0000
0010
0000
0000
0100
,  // measure 10
0000
1000
0000
0000
0001
0000
0000
0100
,  // measure 11
0000
0001
0000
0000
1000
0000
1000
0000
,  // measure 12
0001
0000
0000
0000
0100
0000
0000
0010
,  // measure 13
0000
0100
0000
0000
0001
0000
0000
1000
,  // measure 14
0000
0100
0000
0000
1000
0000
0000
0001
,  // measure 15
0000
0100
0000
0000
0101
0000
0000
0000
,  // measure 16
0001
1000
0002
0010
,  // measure 17
1003
0000
0000
0100
0010
0000
0100
0000
,  // measure 18
1000
0000
1000
0000
0001
0000
0000
0100
,  // measure 19
0001
0000
0000
0010
0100
0000
0100
0000
,  // measure 20
2000
0000
0010
0000
3001
0000
0000
1000
,  // measure 21
0010
0000
0000
0100
0010
0000
0100
0000
,  // measure 22
0001
0000
0000
0010
0001
0000
0000
1000
,  // measure 23
0010
0000
0000
0100
0001
0000
0001
0000
,  // measure 24
0010
0000
0100
0000
1000
0000
0000
0001
,  // measure 25
0000
0100
0000
0001
0010
0000
0100
0000
,  // measure 26
1000
0000
0010
0000
1000
0000
0000
0001
,  // measure 27
0000
0100
0000
0001
1000
0000
0010
0000
,  // measure 28
0100
0000
0001
0000
0010
0000
0000
0100
,  // measure 29
0000
0010
0000
0100
1000
0000
0001
0000
,  // measure 30
0100
0000
0001
0000
1000
0000
0000
0010
,  // measure 31
0000
0100
0010
0200
0000
0000
0000
0000
,  // measure 32
0301
0010
0000
0001
,  // measure 33
0010
0000
0000
0100
1000
0000
0001
0100
,  // measure 34
0001
1000
0000
0001
,  // measure 35
1000
0000
0000
0010
0100
0000
0010
1000
,  // measure 36
0100
0010
0000
0100
,  // measure 37
0010
0000
0000
0001
0100
0000
0001
1000
,  // measure 38
0001
0010
0001
0200
,  // measure 39
0010
0000
0000
0002
0300
0000
0000
0003
,  // measure 40
0001
0010
0100
0010
0001
0000
1000
0010
,  // measure 41
0000
1000
0000
0001
0100
0000
0001
0000
,  // measure 42
1000
0010
0100
0001
1000
0001
0000
0010
,  // measure 43
0000
0100
0000
0010
0001
0000
1000
0000
,  // measure 44
0010
0100
0001
0010
0001
0000
1000
0100
,  // measure 45
0000
1000
0000
0010
1000
0000
0001
0000
,  // measure 46
0010
0001
1000
0001
0100
0010
0000
1000
,  // measure 47
0000
0001
0010
0200
0000
0000
0000
0000
,  // measure 48
1300
0001
1000
0001
,  // measure 49
2001
0000
0000
3100
1100
0000
1000
0000
,  // measure 50
0001
0000
0010
0000
0001
0000
0100
0001
,  // measure 51
2000
0000
0000
3100
1100
0000
0200
0000
,  // measure 52
0310
0000
0100
1000
0001
0000
0000
0000
,  // measure 53
2001
0000
0000
3010
1010
0000
0010
0100
,  // measure 54
0001
0000
1000
0000
0100
0000
0010
0001
,  // measure 55
0100
0000
0001
1000
0001
0000
0010
0000
,  // measure 56
0100
0000
0000
0000
1000
0000
0000
0001
,  // measure 57
0000
0100
0000
0000
0001
0000
0000
0010
,  // measure 58
0000
0100
0000
0000
1000
0000
0000
0001
,  // measure 59
0000
0100
0000
0000
0000
0000
0000
0000
,  // measure 60
0001
0000
0000
0000
1000
0000
0000
0100
,  // measure 61
0000
0010
0000
0000
0001
0000
0000
0100
,  // measure 62
0000
0010
0000
0000
1000
0000
0000
0001
,  // measure 63
0000
0100
0000
0000
0001
0000
0000
0100
;

//---------------dance-single - ----------------
#NOTEDATA:;
#CHARTNAME:X-Scale 2;
#STEPSTYPE:dance-single;
#DESCRIPTION:;
#CHARTSTYLE:;
#DIFFICULTY:Beginner;
#METER:1;
#RADARVALUES:0.090819,0.156044,0.016513,0.000000,0.000000,77.000000,75.000000,2.000000,0.000000,0.000000,0.000000,0.000000,0.000000,0.000000,0.090819,0.156044,0.016513,0.000000,0.000000,77.000000,75.000000,2.000000,0.000000,0.000000,0.000000,0.000000,0.000000,0.000000;
#CREDIT:iamthek3n;
#NOTES:
// measure 0
0000
0000
0000
0000
,  // measure 1
0000
0000
0000
0000
,  // measure 2
0000
0000
0000
0000
,  // measure 3
0000
0000
0000
0000
,  // measure 4
0000
0000
0000
0000
,  // measure 5
0000
0000
0000
0000
,  // measure 6
0000
0000
0000
0000
,  // measure 7
0000
0000
0000
0000
,  // measure 8
0001
0000
0000
0000
,  // measure 9
0000
0000
0000
0000
,  // measure 10
1000
0000
0000
0000
,  // measure 11
0000
0000
0000
0000
,  // measure 12
0001
0000
1000
0000
,  // measure 13
0010
0000
1000
0000
,  // measure 14
0001
0000
1000
0000
,  // measure 15
0010
0000
1000
0000
,  // measure 16
0001
0000
0000
0000
,  // measure 17
1001
0000
1000
0000
,  // measure 18
0100
0000
1000
0000
,  // measure 19
0001
0000
0100
0000
,  // measure 20
0001
0000
0010
0000
,  // measure 21
0100
0000
1000
0000
,  // measure 22
0010
0000
0100
0000
,  // measure 23
0001
0000
1000
0000
,  // measure 24
0001
0000
0000
0000
,  // measure 25
0010
0000
0000
0000
,  // measure 26
0100
0000
0000
0000
,  // measure 27
1000
0000
0000
0000
,  // measure 28
0010
0000
0000
0000
,  // measure 29
0100
0000
0000
0000
,  // measure 30
0001
0000
0000
0000
,  // measure 31
1000
0000
0000
0000
,  // measure 32
0100
0000
1000
0000
,  // measure 33
0100
0000
0010
0000
,  // measure 34
0100
0000
1000
0000
,  // measure 35
0001
0000
0100
0000
,  // measure 36
0001
0000
1000
0000
,  // measure 37
0100
0000
0010
0000
,  // measure 38
0001
0000
0100
0000
,  // measure 39
0010
0000
1000
0000
,  // measure 40
0001
0000
0000
0000
,  // measure 41
0010
0000
0000
0000
,  // measure 42
0001
0000
0000
0000
,  // measure 43
1000
0000
0000
0000
,  // measure 44
0001
0000
0000
0000
,  // measure 45
0100
0000
0000
0000
,  // measure 46
0001
0000
0000
0000
,  // measure 47
0010
0000
0000
0000
,  // measure 48
0100
0000
0000
0000
,  // measure 49
1001
0000
1000
0000
,  // measure 50
0001
0000
1000
0000
,  // measure 51
0010
0000
1000
0000
,  // measure 52
0001
0000
0010
0000
,  // measure 53
0001
0000
1000
0000
,  // measure 54
0100
0000
1000
0000
,  // measure 55
0001
0000
0010
0000
,  // measure 56
0001
0000
0000
0000
,  // measure 57
0000
0000
0000
0000
,  // measure 58
0000
0000
0000
0000
,  // measure 59
0000
0000
0000
0000
,  // measure 60
1000
0000
0000
0000
,  // measure 61
0000
0000
0000
0000
,  // measure 62
0000
0000
0000
0000
,  // measure 63
0001
0000
0000
0000
;

//---------------dance-single - ----------------
#NOTEDATA:;
#CHARTNAME:X-Scale 14;
#STEPSTYPE:dance-single;
#DESCRIPTION:;
#CHARTSTYLE:;
#DIFFICULTY:Challenge;
#METER:9;
#RADARVALUES:0.459992,0.585783,0.503633,0.635733,0.033025,390.000000,329.000000,61.000000,77.000000,72.000000,0.000000,0.000000,29.000000,0.000000,0.459992,0.585783,0.503633,0.635733,0.033025,390.000000,329.000000,61.000000,77.000000,72.000000,0.000000,0.000000,29.000000,0.000000;
#CREDIT:iamthek3n;
#NOTES:
// measure 0
0000
0000
0000
0000
,  // measure 1
0000
0000
0000
0000
,  // measure 2
0000
0000
0000
0000
,  // measure 3
0000
0000
0000
0000
,  // measure 4
0000
0000
0000
0000
,  // measure 5
0000
0000
0000
0000
,  // measure 6
0000
0000
0000
0000
,  // measure 7
0000
0000
0000
0000
,  // measure 8
2000
0000
3001
0100
0020
0000
1030
0200
,  // measure 9
0300
2L00
3000
L002
0000
0003
1000
0100
,  // measure 10
00M0
0100
0001
0010
0020
0000
0130
2000
,  // measure 11
0000
3002
0000
0203
0020
0330
0200
0000
,  // measure 12
1300
0100
0001
1000
0100
1000
0001
0200
,  // measure 13
0300
0L20
0030
01L0
0110
0000
0010
1000
,  // measure 14
0001
0000
0010
0000
0100
0010
0001
0000
0011
0000
0010
0000
0M00
0000
0010
0000
,  // measure 15
1000
0100
0010
0001
0022
0000
0033
00MM
,  // measure 16
1000
MMMM
1000
MMMM
1000
0000
0001
0100
,  // measure 17
0202
0000
0303
0M0M
1001
1000
0001
0100
,  // measure 18
0010
0000
0220
0330
2MM2
0000
3003
M00M
,  // measure 19
2020
0000
3030
M0M0
1001
M00M
0011
0000
,  // measure 20
0010
0100
1000
0100
0001
0100
1000
0100
,  // measure 21
0220
0000
0000
0000
0330
0000
0MM0
0000
0022
0000
0033
0000
0001
0010
0100
0000
,  // measure 22
1100
1000
0100
0001
0100
0010
0001
1000
,  // measure 23
2020
0000
3030
M0M0
2001
3000
L002
0003
,  // measure 24
010L
0001
1000
0100
1100
0000
1000
0002
,  // measure 25
0003
020L
0300
0L01
0020
0000
0130
0010
,  // measure 26
0001
1000
0100
1000
0001
0100
00M0
0100
,  // measure 27
1000
0002
0003
010L
0020
0000
1030
0100
,  // measure 28
1000
0001
0010
0100
0010
0002
0003
200L
,  // measure 29
3000
L200
0300
0L20
0001
0000
0130
0010
,  // measure 30
0001
1000
0010
0100
0001
0100
00M0
0100
,  // measure 31
1000
0001
0100
0002
0000
0000
0000
0000
,  // measure 32
1003
MMMM
1000
MMMM
1000
0001
0020
0000
,  // measure 33
0031
0100
00M0
0100
1000
0000
0010
1000
,  // measure 34
0001
MMMM
0001
MMMM
0001
0010
0100
2000
,  // measure 35
3000
L020
0030
10L0
1010
0000
0100
0001
,  // measure 36
1000
MMMM
1000
MMMM
1000
0001
0200
0000
,  // measure 37
0301
0010
0M00
0010
1000
0000
0100
1000
,  // measure 38
0001
MMMM
0001
MMMM
0001
MMMM
0001
MMMM
,  // measure 39
0001
0100
0010
1000
2001
0000
0000
3000
,  // measure 40
L100
1000
0001
1000
0010
0000
1000
0100
,  // measure 41
00M0
0100
0001
1000
0100
0000
1000
0010
,  // measure 42
0001
1000
0100
0010
1000
0001
0000
0011
,  // measure 43
0000
0010
0100
1000
0200
0000
0301
0100
,  // measure 44
1000
0010
0100
0001
1000
0000
0001
0100
,  // measure 45
00M0
0100
1000
0001
0100
0000
0010
0100
,  // measure 46
0001
0000
0010
0000
0100
0000
0010
0000
0001
1000
0001
0000
0000
0000
1001
0000
,  // measure 47
1000
0100
0000
0000
1000
0000
0001
0000
0011
0000
0010
0000
0200
0000
0000
0000
,  // measure 48
0301
0100
1000
0001
0011
0010
0200
1000
,  // measure 49
2300
0000
0001
0000
3001
0000
0100
0000
0001
1000
0000
0020
0000
0000
0001
0000
,  // measure 50
0031
0010
0110
0010
1010
0001
1000
0100
,  // measure 51
1100
1000
0001
0100
0110
0010
2001
0000
,  // measure 52
3200
0000
0301
0100
2000
0000
3000
0000
,  // measure 53
1001
0000
0001
0000
1000
0000
0010
0000
1010
0000
0000
0000
1000
0010
0000
0000
,  // measure 54
1001
0000
0001
0000
0010
0100
0010
0000
0101
0000
0001
0000
1000
0000
0100
0000
,  // measure 55
0110
0010
0100
1000
2010
0000
3002
0003
,  // measure 56
001L
0100
0010
0001
2000
0000
3010
0200
,  // measure 57
0300
0L02
0003
100L
0002
0000
0013
0200
,  // measure 58
0300
0L20
0030
00L1
2000
0000
3010
2000
,  // measure 59
3000
L002
0000
0000
0023
0000
1030
0010
,  // measure 60
0001
0100
0010
1000
0200
0000
1300
0002
,  // measure 61
0003
200L
3000
L010
0200
0000
0301
0020
,  // measure 62
0030
00L2
0003
100L
0200
0000
0310
0002
,  // measure 63
0003
200L
0000
3000
L020
0000
0000
0200
,  // measure 64
0000
0000
0000
0330
0LL0
0000
0000
0000
;
