#TITLE:Cyberpet;
#SUBTITLE:;
#ARTIST:PUTOCHINOMARICÓN, Rakky Ripper & eurosanto;
#TITLETRANSLIT:;
#SUBTITLETRANSLIT:;
#ARTISTTRANSLIT:;
#GENRE:Hyperpop;
#CREDIT:;
#BANNER:Cyberpet-bn.png;
#BACKGROUND:Cyberpet-bg.png;
#LYRICSPATH:;
#CDTITLE:cdtitle.png;
#MUSIC:Cyberpet.ogg;
#OFFSET:-0.004000;
#SAMPLESTART:38.403999;
#SAMPLELENGTH:15.360000;
#SELECTABLE:YES;
#BPMS:0.000000=124.999992
;
#STOPS:
;
#BGCHANGES:;
#KEYSOUNDS:;
#ATTACKS:;

//---------------dance-single - ----------------
#NOTES:
     dance-single:
     X-Scale 6:
     Easy:
     4:
     0.271532,0.349644,0.167971,0.061884,0.000000,215.000000,196.000000,19.000000,7.000000,0.000000,0.000000,0.271532,0.349644,0.167971,0.061884,0.000000,215.000000,196.000000,19.000000,7.000000,0.000000,0.000000:
// measure 0
0000
0000
0000
0000
,  // measure 1
0000
0000
0000
0000
,  // measure 2
0000
0000
0000
0000
,  // measure 3
0000
0000
0000
0000
,  // measure 4
0001
0000
1000
0000
0000
0001
1000
0000
,  // measure 5
0100
0000
0010
0000
0000
0100
0010
0000
,  // measure 6
0001
0000
0100
0000
0000
0001
0100
0000
,  // measure 7
0001
0000
1000
0000
0000
0001
1000
0000
,  // measure 8
0100
0000
0010
0000
0000
0100
0010
0000
,  // measure 9
0100
0000
1000
0000
0000
0100
1000
0000
,  // measure 10
0001
0000
0100
0000
0000
0001
0100
0000
,  // measure 11
0001
0000
1000
0000
0000
0001
1000
0000
,  // measure 12
0100
0000
0010
0100
1000
0000
1100
0000
,  // measure 13
0001
0000
1000
0010
0100
0000
0110
0000
,  // measure 14
0001
0000
1000
0001
0100
0000
0101
0000
,  // measure 15
0001
0000
0010
0100
1000
0000
1100
0000
,  // measure 16
0100
1000
0001
1000
,  // measure 17
0100
1000
0001
1000
,  // measure 18
0100
1000
0100
1000
0001
0100
0001
0100
,  // measure 19
0020
0000
0130
0000
,  // measure 20
1001
0000
0001
0000
1000
0000
0100
1000
,  // measure 21
0001
0000
0100
0001
1000
0000
0100
1000
,  // measure 22
0002
0000
0103
0000
0001
0000
0010
0100
,  // measure 23
1000
0000
0100
0010
0001
0000
0010
0100
,  // measure 24
2000
0000
3001
0000
1000
0000
0100
0010
,  // measure 25
0001
0000
0010
0100
1000
0000
0010
1000
,  // measure 26
0001
0100
0001
1000
,  // measure 27
0100
0000
0010
0100
1000
0000
0001
0000
,  // measure 28
1001
0000
0001
0000
1000
0000
0010
1000
,  // measure 29
0001
0000
0010
0000
0100
0000
0010
0100
,  // measure 30
1000
0000
0001
0000
1000
0000
0010
1000
,  // measure 31
0001
0000
0100
0000
0001
0000
1000
0100
,  // measure 32
0010
0000
0100
0000
1000
0000
0001
0100
,  // measure 33
0010
0000
0100
0000
0001
0000
0010
0100
,  // measure 34
1000
0000
0100
0000
0010
0000
0100
0010
,  // measure 35
0001
0000
0000
0000
,  // measure 36
1001
0000
0000
0000
,  // measure 37
0110
0000
0000
0000
,  // measure 38
0000
0000
0000
0000
,  // measure 39
0000
0000
0000
2000
,  // measure 40
3001
0000
0000
0000
,  // measure 41
0110
0000
0101
0002
,  // measure 42
0003
1000
0100
1000
0100
0000
0000
0000
,  // measure 43
1100
0000
0001
1001
,  // measure 44
0000
0001
0100
0001
0100
0000
0020
0000
,  // measure 45
1030
0000
0000
0001
,  // measure 46
1000
0001
1000
0000
,  // measure 47
1001
0000
0010
1010
,  // measure 48
0000
1000
0010
1000
0010
0000
0000
0000
,  // measure 49
1010
0000
0001
0000
,  // measure 50
1000
0100
1100
0000
,  // measure 51
1001
0000
0001
0000
,  // measure 52
0100
0000
0000
0001
0100
0000
0000
0000
,  // measure 53
0101
0000
1000
0000
,  // measure 54
0100
0000
1000
0000
,  // measure 55
0001
0000
0101
0002
,  // measure 56
0000
0000
0003
0000
;

//---------------dance-single - ----------------
#NOTES:
     dance-single:
     X-Scale 11:
     Medium:
     8:
     0.479916,0.579499,0.300579,0.159130,0.291739,380.000000,346.000000,34.000000,18.000000,0.000000,0.000000,0.479916,0.579499,0.300579,0.159130,0.291739,380.000000,346.000000,34.000000,18.000000,0.000000,0.000000:
// measure 0
0000
0000
0000
0000
,  // measure 1
0000
0000
0000
0000
,  // measure 2
0000
0000
0000
0000
,  // measure 3
0000
0000
0000
0000
,  // measure 4
1001
0000
0001
0000
1000
0100
0001
0100
,  // measure 5
1000
0000
1100
0000
0001
0100
1000
0100
,  // measure 6
0001
0000
0102
0000
2003
0100
3100
0000
,  // measure 7
1000
0100
0001
0100
1000
0000
1100
0000
,  // measure 8
0001
0100
1000
0100
0001
0000
0101
1000
,  // measure 9
1000
0000
1010
0010
1000
0001
0010
0001
,  // measure 10
1000
0000
2001
0000
3002
0010
0013
0001
,  // measure 11
1000
0100
0001
0100
2000
0000
3001
0000
,  // measure 12
1000
0000
0100
0000
0001
0000
0100
0000
1000
0000
0000
0001
0000
0000
0001
0000
,  // measure 13
0100
0000
1000
0000
0001
0000
0010
0000
1000
0000
0000
0100
0000
0000
0100
0000
,  // measure 14
0010
0001
1000
0100
0001
0100
1000
0001
,  // measure 15
0100
0000
0010
0000
0100
0000
0001
0000
0100
0000
0000
0001
0000
0000
0001
0000
,  // measure 16
1000
1000
0001
0001
,  // measure 17
0100
0100
0010
0010
,  // measure 18
1000
0100
0010
0001
1000
0100
0010
0001
,  // measure 19
1000
0001
1000
0001
1000
0001
1000
0000
1001
0000
0002
0000
0013
0100
1000
0000
,  // measure 20
1100
0000
0000
0000
0101
0000
0100
0001
0000
0001
0000
0000
1000
0000
0010
0000
,  // measure 21
1000
0000
0000
0000
1010
0000
0010
1000
0000
1000
0000
0000
0100
0000
0010
0000
,  // measure 22
0001
0000
0000
0000
0011
0000
0010
0001
0000
0001
0000
0000
0010
0000
0100
0000
,  // measure 23
0010
0000
0000
0000
0110
0000
0100
1000
0000
1000
0000
0000
0001
0000
0010
0000
,  // measure 24
0100
0000
0000
0000
1001
0000
1000
0001
0000
0001
0100
0010
1000
0000
0001
0000
,  // measure 25
1000
0000
0100
0010
0001
0000
1000
0000
0001
0000
0100
0010
1000
0000
0002
0000
,  // measure 26
0100
0000
0003
0000
0101
0000
0100
0001
0000
0001
0000
0000
0010
0000
0100
0000
,  // measure 27
1000
0000
0100
0000
0001
0000
0100
0000
1000
0000
0000
0001
0100
0000
0001
0000
,  // measure 28
0101
0000
0000
0001
1000
0000
0010
0000
1000
0000
0000
0100
0010
0000
0100
0000
,  // measure 29
1000
0000
0000
0100
0001
0000
0100
0000
1000
0000
0000
0001
0100
0000
0001
0000
,  // measure 30
1000
0000
0000
0100
0010
0000
0100
1000
0000
1000
0000
1000
0001
0000
0100
0000
,  // measure 31
0001
0000
0000
0010
0100
0000
0010
0000
0001
0000
0000
1000
0010
0000
1000
0000
,  // measure 32
0100
0000
0000
1000
0001
0000
0010
0000
0001
0000
0000
0010
0100
0000
0010
0000
,  // measure 33
0001
0000
0000
0010
0100
0000
1000
0000
0001
0000
0000
1000
0100
0000
1000
0000
,  // measure 34
0001
0000
0000
0010
0100
0000
1000
0001
0000
0001
0000
0001
0100
0000
0001
0000
,  // measure 35
0101
0000
0100
0000
0001
0000
1000
0000
0100
0000
0000
1000
0000
0000
0001
0000
,  // measure 36
1001
0000
0000
0000
,  // measure 37
0120
0000
0000
0000
0000
0000
0030
2000
,  // measure 38
0000
0000
0000
0000
0000
0000
3000
0002
,  // measure 39
0000
0000
0000
0000
0000
0000
0023
0200
,  // measure 40
0030
0000
0300
2000
,  // measure 41
3001
0000
0000
0000
0001
0000
0000
1000
0000
1000
0000
0000
1001
0000
0000
0000
,  // measure 42
1000
0000
0100
0000
0001
0000
0100
0000
1000
0000
0000
0001
0000
0000
0100
0000
,  // measure 43
0101
0000
0000
0000
0001
0000
0000
1000
0000
1000
0000
0000
1100
0000
0000
0000
,  // measure 44
0001
0000
0100
0000
1000
0000
0100
0000
0001
0000
0000
1000
0000
0000
0001
0000
,  // measure 45
1001
0000
0000
0000
1000
0000
0000
0100
0000
0100
0000
0000
1100
0000
0000
0000
,  // measure 46
0001
0000
0000
0000
0001
0000
0000
0000
0001
0000
0000
0000
1000
0001
1000
0001
,  // measure 47
1000
0000
0000
0000
0100
0000
0100
1000
0100
1000
0000
0000
1002
0000
0000
0000
,  // measure 48
0103
0000
0001
0100
0001
0000
0001
0000
0101
0000
0000
0000
1000
0000
0000
0000
,  // measure 49
1100
0000
0100
0000
1000
0000
0001
0000
1000
0000
0100
0010
0100
0000
0100
0010
,  // measure 50
0100
0000
1000
0000
0001
0000
0100
0000
0001
0000
0000
0010
0000
0000
0000
0000
,  // measure 51
0011
0000
0001
0000
0100
0000
0010
0000
1000
0000
0000
0001
0000
0000
1000
0010
,  // measure 52
1000
0000
0100
0000
0001
0000
0100
0000
1000
0000
0000
0001
0000
0000
0000
0000
,  // measure 53
1010
0000
0001
0000
1000
0000
0100
0000
0010
0000
0000
0001
0000
0011
0000
0000
,  // measure 54
1010
0000
0010
0000
1000
0000
0001
0000
0010
0000
0001
0000
0000
0001
0000
0000
,  // measure 55
0011
0000
0010
0000
0001
0000
1000
0000
1001
0000
0000
0001
0000
0000
0000
0000
,  // measure 56
0000
0000
1000
0000
0001
0000
0100
0000
0020
0000
0030
2000
0000
3000
2002
0000
,  // measure 57
3003
0000
0000
0000
;

//---------------dance-single - ----------------
#NOTES:
     dance-single:
     X-Scale 13:
     Hard:
     9:
     0.597369,0.699288,0.344782,0.132608,0.521593,473.000000,434.000000,39.000000,15.000000,0.000000,0.000000,0.597369,0.699288,0.344782,0.132608,0.521593,473.000000,434.000000,39.000000,15.000000,0.000000,0.000000:
// measure 0
0000
0000
0000
0000
,  // measure 1
0000
0000
0000
0000
,  // measure 2
0000
0000
0000
0000
,  // measure 3
0000
0000
0000
0000
,  // measure 4
1100
0000
0000
0000
0001
0000
0001
1000
0000
0001
0000
0000
0001
0000
1000
0000
,  // measure 5
0100
0000
0000
0000
1100
0000
1000
0001
0000
0001
4000
3000
1000
0000
0100
0010
,  // measure 6
0001
0000
0000
0000
0011
0000
0001
1000
0000
1000
0001
0000
0100
0000
0100
0000
,  // measure 7
0100
0000
0000
0000
0101
0000
0001
1000
0000
0100
0010
0000
0100
0000
1000
0001
,  // measure 8
0100
0000
0000
0000
0101
0000
1000
0100
0000
1000
0001
0000
0010
0000
0001
0000
,  // measure 9
1000
0000
0000
0000
1001
0000
1000
0100
0000
0100
1000
0000
1002
0000
0013
0001
,  // measure 10
1000
0000
0000
0000
1001
0000
0100
0001
0000
0001
0100
0000
0010
0000
0100
0000
,  // measure 11
0001
0000
0000
0000
1001
0000
0100
1000
0000
0001
1000
0000
0100
0000
0010
0100
,  // measure 12
1000
0000
0100
0000
0001
0000
0100
0000
1000
0000
0000
0001
0000
0000
0001
0000
,  // measure 13
0100
0000
1000
0000
0001
0000
0010
0000
1000
0000
0000
0100
0000
0000
0010
0100
,  // measure 14
1000
0010
0100
0001
0010
0100
1000
0100
,  // measure 15
0001
0000
0100
0000
1000
0000
0001
0000
0010
0000
0000
0001
0000
0000
1000
0001
,  // measure 16
0100
0010
1000
0001
0010
0100
1000
0000
,  // measure 17
1001
1000
0010
1000
0001
0010
1000
0010
,  // measure 18
0001
0100
0010
1000
0001
0010
0100
1000
,  // measure 19
0100
0010
0100
0010
0100
0010
0100
0000
0110
0000
4000
0000
3001
1000
0001
0000
,  // measure 20
1001
0000
0000
0000
0110
0000
0000
0000
0001
0100
1000
0100
0001
0000
1000
0000
,  // measure 21
0001
0100
1000
0100
0001
0000
1000
0000
0001
0100
1000
0100
0001
0000
0010
0000
,  // measure 22
0011
0000
0000
0000
1010
0000
0000
0000
1000
0100
0001
0100
1000
0000
0001
0000
,  // measure 23
1000
0100
0001
0100
1000
0000
0001
0000
1000
0100
0001
0100
1000
0000
0010
0000
,  // measure 24
1010
0000
0000
0000
0011
0000
0000
0000
0001
0100
1000
0100
0001
0000
1000
0000
,  // measure 25
0100
0000
0010
0100
1000
0000
0001
0000
0100
0000
1000
0100
0001
0000
1000
0000
,  // measure 26
1001
0000
0000
0000
1100
0000
1000
0002
0003
0002
0000
0003
0011
0000
0010
0000
,  // measure 27
0100
0000
0001
0000
1000
0000
0010
0000
0200
0000
0300
2000
0000
3000
0002
0003
,  // measure 28
1001
0000
1000
0001
1000
0000
0100
0100
0000
0100
0000
0010
0100
0000
1000
0000
,  // measure 29
0001
0000
0100
0001
0100
0000
0010
0000
1000
0000
0000
0100
0010
0000
0100
0000
,  // measure 30
1000
0000
0001
0100
0001
0000
0010
0010
0000
0010
0000
0001
0010
0000
0001
0000
,  // measure 31
1000
0000
0100
0010
0001
0000
1000
0000
0001
0000
0000
0010
0100
0000
1000
0000
,  // measure 32
0001
0000
0100
0010
1000
0000
0100
0100
0000
0100
0000
0010
0100
0000
1000
0000
,  // measure 33
0001
0000
0100
0010
1000
0000
0001
0000
0100
0000
0000
0100
0001
0000
1000
0000
,  // measure 34
1100
0000
0100
1000
0001
0000
0010
0010
0000
0010
0000
0100
0010
0000
0001
0000
,  // measure 35
0100
0000
1000
0000
0100
0000
0001
0100
0000
0100
0000
0001
1000
0000
0100
0000
,  // measure 36
2200
0000
0000
0000
0000
0000
0000
3300
,  // measure 37
1001
0000
0000
0000
0001
0000
0001
0100
0000
0100
0000
0000
0001
1000
0001
1000
,  // measure 38
0001
0100
1000
0010
,  // measure 39
0001
0000
0000
0000
1000
0000
0100
0010
0000
0010
0000
0000
0001
0010
0001
0010
,  // measure 40
0001
0100
1000
0040
,  // measure 41
0031
0000
0000
0000
0001
0000
1000
1000
0000
1000
0000
0000
0100
1000
0001
0100
,  // measure 42
0000
0000
1001
0000
0110
0000
0000
0000
0101
0000
0000
0001
0000
0000
1000
0000
,  // measure 43
1100
0000
0000
0000
0001
0000
1000
1000
0000
1000
0000
0000
2001
0000
0000
0000
,  // measure 44
3100
0000
0010
0100
1000
0000
1000
0000
1001
0000
0000
0000
0004
0000
0000
0000
,  // measure 45
1003
0000
0000
0000
1000
0000
0100
0010
0000
0100
0000
0000
1000
0010
0100
0001
,  // measure 46
2000
0000
3000
0000
2000
0000
3000
0000
2000
0000
3000
0000
0001
0100
0010
1000
,  // measure 47
0100
0010
0001
0100
0001
1000
0100
0010
0100
1000
0000
0000
1001
0000
1000
0100
,  // measure 48
0010
0001
0100
0010
1000
0001
0010
0100
1000
0000
0000
0000
0002
0000
0000
0000
,  // measure 49
1003
0000
0100
0000
0001
0000
0100
0000
1100
0000
1000
0100
1000
0000
0001
0100
,  // measure 50
0001
0000
0100
0000
1001
0000
0100
0000
0110
0000
0000
0100
0001
0000
1000
0100
,  // measure 51
0010
0000
0100
0000
1000
0000
0001
0000
0101
0000
0000
0001
1000
0000
0100
0010
,  // measure 52
0100
0000
0010
0000
0001
0000
1000
0000
1001
0000
0000
0001
0010
0000
0100
0010
,  // measure 53
0001
0000
1000
0000
0010
0000
0100
0010
1000
0000
0000
0001
0010
0001
0000
0000
,  // measure 54
0011
0000
0010
0000
0001
0000
1000
0000
0100
0000
2000
3000
0000
2000
3000
0000
,  // measure 55
1100
0000
0100
0000
1000
0000
0001
0000
0101
0000
0000
4000
0004
0000
0000
0000
,  // measure 56
0000
0000
3003
0000
;

//---------------dance-single - ----------------
#NOTES:
     dance-single:
     X-Scale 12 (DANCERUSH Special):
     Challenge:
     8:
     0.370041,0.427386,0.150290,0.406666,0.163550,293.000000,276.000000,17.000000,46.000000,119.000000,0.000000,0.370041,0.427386,0.150290,0.406666,0.163550,293.000000,276.000000,17.000000,46.000000,119.000000,0.000000:
// measure 0
0000
0000
0000
0000
,  // measure 1
0000
0000
0000
0000
,  // measure 2
0000
0000
0000
0000
,  // measure 3
0000
0000
0000
0000
,  // measure 4
0001
MMMM
0001
MMMM
,  // measure 5
0001
0000
0100
0010
0100
0000
0110
0000
,  // measure 6
1000
MMMM
1000
MMMM
,  // measure 7
1000
0000
0010
0100
0010
0000
0110
0000
,  // measure 8
0001
MMMM
0001
MMMM
,  // measure 9
0001
0000
0010
0100
0010
0000
0110
0000
,  // measure 10
1000
MMMM
1000
MMMM
,  // measure 11
1000
0000
0100
0010
0100
0000
1001
0000
,  // measure 12
0001
0000
0000
0000
1000
0000
0100
0000
0010
0000
0000
0M10
0000
0000
0000
0000
,  // measure 13
1000
0000
0000
0000
0001
0000
0100
0000
0010
0000
0000
0M10
0000
0000
0000
0000
,  // measure 14
0001
0010
1000
0000
0001
0100
1000
0000
,  // measure 15
0010
0000
1000
0000
0001
0000
1000
0000
0100
0000
0000
01M0
0000
0000
0000
0000
,  // measure 16
0001
0000
0010
0000
1000
0010
0001
0000
,  // measure 17
1000
0000
0100
0000
0001
0100
0010
0100
,  // measure 18
1000
0010
0100
0001
0010
0100
1000
0001
,  // measure 19
0200
0020
0000
0000
0000
0000
0330
0000
0LL0
0000
0000
0000
MMMM
0000
0000
0000
,  // measure 20
1000
MMMM
1000
MMMM
1000
0000
0010
0100
,  // measure 21
0001
MMMM
0001
MMMM
0001
0000
0010
0100
,  // measure 22
1000
MMMM
1000
MMMM
1000
0000
0010
0100
,  // measure 23
0001
MMMM
0001
MMMM
0001
0000
0010
0100
,  // measure 24
1000
MMMM
1000
MMMM
1000
0000
0001
0010
,  // measure 25
0M00
0010
1000
0100
00M0
0100
0001
2000
,  // measure 26
0000
0000
3000
0000
1001
0000
0000
1000
0000
0100
0000
0000
01M0
0000
0000
0001
,  // measure 27
0000
0000
0010
0000
0M10
0000
0100
0000
01M0
0000
0000
1000
0000
0000
0001
0000
,  // measure 28
2000
0000
3000
0000
2000
0000
3001
0010
0M00
0010
0000
0000
2000
0000
0010
0000
,  // measure 29
3001
0000
0000
0000
1000
0000
0100
0000
0002
0000
0003
0200
0000
0300
2000
0000
,  // measure 30
3002
0000
0003
0000
0002
0000
1003
0100
00M0
0100
0000
0000
0002
0000
0100
0000
,  // measure 31
1003
0000
0000
0000
0001
0000
0010
0000
2000
0000
3000
0020
0000
0030
0002
0000
,  // measure 32
2003
0000
3000
0000
2000
0000
3001
0100
00M0
0100
0000
0000
2000
0000
0100
0000
,  // measure 33
3001
0000
0000
0000
1000
0000
0100
0000
0002
0000
0003
0200
0000
0300
2000
0000
,  // measure 34
3002
0000
0003
0000
0002
0000
1003
0010
0M00
0010
0000
0000
0002
0000
0010
0000
,  // measure 35
1003
0000
0010
0000
0100
0000
0001
0000
1000
0000
0000
0001
0000
0000
1000
0000
,  // measure 36
2002
0000
0000
0000
0000
0000
3003
MMMM
,  // measure 37
0220
0000
0000
0000
0000
0330
MMMM
0002
,  // measure 38
0100
0000
1000
0000
0100
0000
1003
2000
,  // measure 39
0100
0000
0001
0000
0100
0000
3001
0020
,  // measure 40
0100
0001
0130
0LL0
,  // measure 41
2000
0000
3000
0000
2000
0000
3001
0100
00M0
0100
0000
0000
2000
0000
0000
0000
,  // measure 42
3000
0001
0100
0001
0101
0000
MMMM
0000
,  // measure 43
2100
0000
3000
0000
2000
0000
3001
0100
00M0
0100
0000
0000
2000
0000
0000
0000
,  // measure 44
3000
1000
0010
1000
1010
0000
MMMM
0000
,  // measure 45
0012
0000
0003
0000
0002
0000
1003
0100
00M0
0100
0000
0000
0001
0000
1000
0000
,  // measure 46
0001
MMMM
0001
MMMM
0001
0000
0000
0000
,  // measure 47
2001
0000
3000
0000
2000
0000
3001
0100
00M0
0100
0000
0000
2000
0000
0000
0000
,  // measure 48
3000
0000
0100
0000
0000
0000
0010
0000
0000
0001
0000
0000
1000
0000
0000
0000
,  // measure 49
0001
0100
1000
0100
0001
0100
01M0
1000
,  // measure 50
0001
0000
0100
0000
1000
0000
0100
0000
0001
0000
0000
1000
0000
0000
0000
0000
,  // measure 51
1000
0000
0100
0000
0001
0000
0100
0000
1000
0000
0000
0001
0100
0000
01M0
0000
,  // measure 52
1000
0000
0001
0000
0100
0000
0010
0000
1000
0000
0000
1000
0000
0000
0000
0000
,  // measure 53
0010
0000
1000
0000
0001
0000
1000
0000
0010
0000
0000
1000
0000
1010
0000
0000
,  // measure 54
0011
0000
0010
0000
0001
0000
1000
0000
0010
0000
0100
0000
0000
01M0
0000
0000
,  // measure 55
1000
0000
0100
0000
0001
0000
0100
0000
1000
0000
0000
0020
0200
0000
0000
0000
,  // measure 56
0000
0000
0000
0000
0000
0000
0330
0000
0002
0000
0000
2000
0000
3003
L00L
0000
;
