#VERSION:0.83;
#TITLE:Crossing the Valley;
#SUBTITLE:;
#ARTIST:Huong Thanh;
#TITLETRANSLIT:;
#SUBTITLETRANSLIT:;
#ARTISTTRANSLIT:;
#GENRE:Contemporary Jazz;
#ORIGIN:;
#CREDIT:;
#BANNER:Crossing the Valley-bn.png;
#BACKGROUND:Crossing the Valley-bg.png;
#PREVIEWVID:;
#JACKET:Crossing the Valley-jacket.png;
#CDIMAGE:;
#DISCIMAGE:;
#LYRICSPATH:;
#CDTITLE:cdtitle.png;
#MUSIC:Crossing the Valley.ogg;
#OFFSET:-0.225000;
#SAMPLESTART:28.669001;
#SAMPLELENGTH:13.759000;
#SELECTABLE:YES;
#BPMS:0.000=135.000;
#STOPS:;
#DELAYS:;
#WARPS:;
#TIMESIGNATURES:0.000=4=4;
#TICKCOUNTS:0.000=4;
#COMBOS:0.000=1;
#SPEEDS:0.000=1.000=0.000=0;
#SCROLLS:0.000=1.000;
#FAKES:;
#LABELS:0.000=Song Start;
#BGCHANGES:;
#KEYSOUNDS:;
#ATTACKS:
;

//---------------dance-single - ----------------
#NOTEDATA:;
#CHARTNAME:X-Scale 11;
#STEPSTYPE:dance-single;
#DESCRIPTION:;
#CHARTSTYLE:;
#DIFFICULTY:Hard;
#METER:8;
#RADARVALUES:0.533677,0.615539,0.054593,0.436746,0.284665,479.000000,472.000000,7.000000,56.000000,0.000000,0.000000,0.000000,0.000000,0.000000,0.533677,0.615539,0.054593,0.436746,0.284665,479.000000,472.000000,7.000000,56.000000,0.000000,0.000000,0.000000,0.000000,0.000000;
#CREDIT:iamthek3n;
#NOTES:
// measure 0
0000
0000
0000
0000
,  // measure 1
0000
0000
0000
0000
,  // measure 2
0000
0000
0000
0000
,  // measure 3
0000
0000
0000
0000
,  // measure 4
0001
0000
0000
0100
0000
0000
0010
0000
0000
0100
0000
0000
0001
0000
0100
0001
,  // measure 5
0100
0000
0000
0001
1000
0000
0100
0000
0000
1000
0000
0000
0010
0000
0100
0000
,  // measure 6
0001
0000
0000
0010
0000
0000
1000
0000
0000
0010
0000
0000
0001
0000
0010
0100
,  // measure 7
0010
0000
0000
0100
1000
0000
0001
0000
0000
0100
0000
0000
0001
0000
1000
0000
,  // measure 8
0001
0000
0000
0100
0000
0000
0010
0000
0000
1000
0000
0000
0100
0000
1000
0100
,  // measure 9
1000
0000
0000
0001
0100
0000
0001
0000
0000
1000
0000
0000
0010
0000
0100
0000
,  // measure 10
0010
0000
0000
1000
0000
0000
0001
0000
0000
0100
0000
0000
0001
0000
0010
0100
,  // measure 11
0010
0000
0000
0100
1000
0000
0001
0100
0000
0001
0100
0000
0001
0000
0010
0000
,  // measure 12
0011
0000
0001
2000
0000
3000
0001
0100
0002
0000
0000
0000
2003
0000
0000
0000
,  // measure 13
3010
0000
1000
0200
0000
0300
1000
0010
2000
0000
0000
0000
3001
0000
0100
0000
,  // measure 14
0001
0000
0010
0002
0000
0003
0100
0010
0200
0000
0000
0000
0302
0000
0000
0000
,  // measure 15
0013
0000
0200
0000
0300
0000
1000
0001
0020
0000
0030
0100
0020
0000
0030
0000
,  // measure 16
0101
0100
0001
0000
1000
0010
0001
1000
,  // measure 17
0001
0010
1000
0000
0001
0010
0000
0001
,  // measure 18
1000
0010
0100
0000
0001
0010
1000
0010
,  // measure 19
0100
1000
0001
0000
1000
0010
0001
1000
,  // measure 20
0001
0010
1000
0000
0002
0000
0100
0000
,  // measure 21
2003
0000
0010
0000
3001
1000
0000
0100
,  // measure 22
0010
0001
1000
0000
0002
0000
0100
0000
,  // measure 23
2003
0000
0010
0000
3001
1000
0001
0010
,  // measure 24
0001
1000
0100
0000
0010
0100
0000
0100
,  // measure 25
1000
0001
0100
0000
0001
0010
0000
0001
,  // measure 26
1000
0100
1000
0000
0100
0010
0001
1000
,  // measure 27
0010
0100
0001
0000
0010
0100
1000
0001
,  // measure 28
1000
0100
0010
0000
0001
0100
0000
0010
,  // measure 29
0100
0001
0010
0000
0100
1000
0000
0001
,  // measure 30
1000
0000
0001
2000
0000
3000
0010
0100
0020
0000
0000
0000
0032
0000
0000
0000
,  // measure 31
0013
0000
1000
0020
0000
0030
1000
0010
2000
0000
0000
0000
3001
0000
0100
0000
,  // measure 32
0001
0000
0010
0200
0000
0300
1000
0100
2000
0000
0000
0000
3002
0000
0000
0000
,  // measure 33
0013
0000
0002
0000
0003
0000
0100
0001
0200
0000
0300
0010
0200
0000
0300
0000
,  // measure 34
0110
0010
0100
0001
0010
0001
1000
0010
,  // measure 35
1000
0000
0000
0100
0000
0000
1000
0000
0001
0000
0000
0000
0010
0000
0001
0000
,  // measure 36
0100
0010
0100
0010
1000
0100
1000
0100
,  // measure 37
0010
0001
0010
0001
0100
0010
0100
0010
,  // measure 38
1001
0000
0000
1000
0010
0000
1000
0000
0001
0000
0000
0000
0100
0000
0010
0000
,  // measure 39
1000
0000
0000
0001
0100
0000
0001
0000
1000
0000
0000
0000
0010
0000
0100
0000
,  // measure 40
0001
0000
0000
1000
0010
0000
1000
0000
0001
0000
0000
0000
0010
0000
0100
0000
,  // measure 41
1000
0001
0000
0001
0100
0000
0010
0100
,  // measure 42
0001
0000
0000
1000
0100
0000
1000
0000
0100
0000
0000
0000
0010
0000
0100
0000
,  // measure 43
2000
0000
0000
3002
0000
0000
0023
0000
0000
0000
0032
0000
0000
0000
0003
0000
,  // measure 44
0100
0000
0000
0001
1000
0000
0010
0000
1000
0000
0000
0000
0100
0000
0010
0100
,  // measure 45
0010
0000
0000
0001
0010
0000
0001
0000
2000
0000
0000
0000
3002
0000
0000
0000
,  // measure 46
1003
0000
0100
0010
0000
0000
0200
0000
0000
0000
2300
0000
0000
0000
3010
0000
,  // measure 47
1000
0000
0000
0001
1000
0000
0001
0000
0200
0000
0000
0000
1300
0000
0100
0000
,  // measure 48
0010
0000
0000
0100
0001
0000
1000
0000
0001
0000
0000
0000
0010
0000
0100
0010
,  // measure 49
0100
1000
0001
1000
0010
0100
0002
0000
,  // measure 50
1003
0000
0000
1000
0010
0000
1000
0000
0100
0000
0000
0000
0010
0000
0100
0000
,  // measure 51
1000
0000
0000
0001
0100
0000
0001
0000
1000
0000
0000
0000
0010
0000
1000
0000
,  // measure 52
0001
0000
0010
0002
0000
0003
0100
0001
0200
0000
0000
0000
0320
0000
0000
0000
,  // measure 53
1030
0000
0010
0200
0000
0300
0001
0100
0002
0000
0000
0000
2003
0000
0000
0000
,  // measure 54
3100
0000
0010
0002
0000
0003
0010
0100
0020
0000
0000
0000
0032
0000
0000
0000
,  // measure 55
1003
0000
0020
0000
0031
0000
0010
0100
0020
0000
0030
1000
0020
0000
0030
0000
,  // measure 56
1010
0000
0000
1000
0010
0000
1000
0000
0001
0000
0000
0000
0010
0000
0100
0010
,  // measure 57
0100
1000
0100
1000
0002
0000
0103
0001
,  // measure 58
0010
0000
0000
0100
0010
0000
0100
0000
1000
0000
0001
0000
0100
0000
0001
0100
,  // measure 59
0001
0000
0000
0010
0001
0000
0010
0000
0100
0000
1000
0000
0010
0000
0100
0000
,  // measure 60
0001
0000
0000
1000
0001
0000
0100
0000
0010
0000
0001
0000
0010
0000
0100
0000
,  // measure 61
0010
1000
0001
0100
0200
0000
0302
0000
,  // measure 62
1003
0001
1000
0001
0010
0100
0010
0100
,  // measure 63
1000
0010
1000
0010
0100
0001
0100
0001
,  // measure 64
2002
0000
3003
0001
0010
1000
0010
0100
,  // measure 65
1000
0000
0000
1000
0010
0001
1000
0100
,  // measure 66
0001
0000
0100
0010
0000
0000
0100
0000
0001
0000
0010
0000
0100
0000
1000
0100
,  // measure 67
1000
0000
0001
0100
0001
0000
0010
0100
0010
0000
0001
0010
0001
0000
1000
0000
,  // measure 68
2002
0000
3003
0001
0010
1000
0010
0100
,  // measure 69
1000
0000
0000
1000
0100
0001
1000
0010
,  // measure 70
0001
0000
0000
0001
0100
0000
0001
0000
0000
0000
1000
0000
0010
0000
1000
0000
,  // measure 71
0001
0000
0000
0001
0000
0000
0010
0000
0020
0000
0000
0000
0030
0000
0000
0000
;

//---------------dance-single - ----------------
#NOTEDATA:;
#CHARTNAME:X-Scale 9;
#STEPSTYPE:dance-single;
#DESCRIPTION:;
#CHARTSTYLE:;
#DIFFICULTY:Medium;
#METER:6;
#RADARVALUES:0.386609,0.447665,0.031196,0.686315,0.105287,347.000000,343.000000,4.000000,88.000000,0.000000,0.000000,0.000000,0.000000,0.000000,0.386609,0.447665,0.031196,0.686315,0.105287,347.000000,343.000000,4.000000,88.000000,0.000000,0.000000,0.000000,0.000000,0.000000;
#CREDIT:iamthek3n;
#NOTES:
0000
0000
0000
0000
,
0000
0000
0000
0000
,
0000
0000
0000
0000
,
0000
0000
0000
0000
,
0002
0023
2030
3020
,
0032
0000
0000
0100
0000
0000
0103
0001
,
2000
3200
2300
3020
,
0230
0000
0000
1000
0000
0000
0310
0100
,
0002
2003
3020
0230
,
0320
0000
0000
1000
2030
0000
3002
0000
,
0100
2003
3200
2300
,
3002
0000
0023
0100
0000
0000
0100
0000
,
0031
0010
0000
0100
2000
0000
3002
0000
,
1003
0010
0000
0100
0002
0000
2003
0000
,
3010
1000
0000
0001
0020
0000
0032
0000
,
0103
0010
0000
1000
0002
0000
0023
0000
,
0230
0000
0000
0010
0000
0000
1000
0000
2300
0000
0000
0000
0010
0000
0000
0000
,
3200
0000
0000
1000
0000
0000
0010
0000
0000
0000
0000
0000
1000
0000
0000
0000
,
1300
0000
0100
0000
0020
0000
0000
0000
0000
0001
0000
0000
0032
0000
0000
0000
,
0023
0000
0100
0100
0000
0000
0001
0000
,
0031
0000
0010
0100
2000
0000
0010
0000
,
3002
0000
0100
0000
1003
0001
0000
0010
,
0100
1000
0001
0000
0200
0000
1000
0000
,
0320
0000
0001
0000
0130
0010
1000
0001
,
0020
0000
0000
0100
0000
0000
0030
0200
0000
0000
0000
0000
0001
0000
0000
0000
,
2300
0000
0000
0010
0000
0000
0010
0000
0000
0000
3000
0000
0002
0000
0000
0000
,
2003
0000
0000
0001
0000
0000
0100
0000
3200
0000
0000
0000
0010
0000
0000
0000
,
2300
0000
0010
3010
2000
0000
3002
0000
,
0203
0000
0000
0001
0000
0000
0010
0000
0320
0000
0000
0000
1000
0000
0000
0000
,
0230
0000
0000
1000
0000
0000
0010
0000
0000
0001
0000
0000
0010
0000
0000
0000
,
0301
0000
0000
0100
0000
0000
0001
0000
0000
0100
0000
0000
0001
0000
0010
0000
,
0100
0000
0000
1000
0000
0000
0100
0000
0000
1000
0000
0000
0100
0000
0010
0000
,
0001
0000
0000
1000
0000
0000
0010
0000
0000
1000
0000
0000
0001
0000
0010
0000
,
0100
0000
0000
0010
0000
0000
0001
0000
0000
1000
0000
0000
0010
0000
1000
0000
,
1010
0000
0000
0010
1000
0000
0001
0100
,
0001
0000
0000
1000
0010
0000
1000
0100
,
0010
0000
0000
0001
0100
0000
0001
1000
,
0010
1000
0000
1000
0200
0000
0320
0000
,
0031
0000
0000
0010
0000
0000
0010
0000
0200
0000
0000
0000
0001
0000
0000
0000
,
1300
0002
0000
0010
0010
0000
0100
0000
,
1000
0000
0000
1000
0003
0000
1000
0000
0200
0000
0000
0000
0320
0000
0000
0000
,
0031
0200
0000
0000
0310
0000
0100
0010
,
1000
0000
0000
0001
0000
0000
1000
0000
0100
0000
0000
0000
0010
0000
0100
0000
,
2000
0000
0000
3002
0000
0000
0203
0000
0000
0000
0320
0000
0000
0000
0030
0000
,
2001
0000
0000
0010
3010
0000
1000
0100
,
0120
0000
0000
0001
0032
0000
1003
0001
,
0010
0000
0000
0001
0000
0000
0100
0000
0001
0000
0000
0000
1000
0000
0001
0000
,
0100
0000
0010
1000
0001
0000
2000
0000
,
3200
0320
0032
0100
,
0023
2030
3200
0302
,
2003
0000
0000
0000
3010
0000
0000
2000
0000
0000
0000
0000
0001
0000
0000
0000
,
3200
0000
0000
0010
0010
0000
1000
0000
,
0310
0000
0100
1000
0001
0000
0100
0010
,
0100
0001
0000
1000
0010
0100
0010
1000
,
0010
0000
0100
0001
1000
0000
0001
0010
,
0001
1000
0000
0010
1000
0100
0001
0100
,
2000
0010
3002
0100
,
2003
3200
0000
2300
,
3002
0000
0103
0020
1000
0000
0100
0000
,
2030
0000
0000
0100
0100
0000
3001
1000
,
0002
0010
2003
0100
,
3001
0010
0000
0001
1000
0000
0010
1000
,
0001
0100
0000
0010
0100
0000
0001
0010
,
0100
0000
0000
1000
0000
0000
0100
0000
1000
0000
0000
0000
0001
0000
0000
0000
,
1001
1000
0010
0000
1000
0100
0000
0010
,
0001
1000
0001
0000
0010
0100
1000
0001
,
1000
0010
0001
0010
1000
0100
0001
0100
,
1000
0010
1000
0000
0001
0100
0000
0001
,
1000
0001
0100
0000
0010
0100
0000
0001
,
0010
0001
1000
0000
0100
0010
0100
1000
,
0100
0000
0000
1000
0000
0000
0001
0000
0000
0000
0100
0000
0000
0000
0001
0000
,
1000
0000
0000
1000
0000
0000
0100
0000
0020
0000
0000
0000
0030
0000
0000
0000
;

//---------------dance-single - ----------------
#NOTEDATA:;
#CHARTNAME:X-Scale 5;
#STEPSTYPE:dance-single;
#DESCRIPTION:;
#CHARTSTYLE:;
#DIFFICULTY:Easy;
#METER:3;
#RADARVALUES:0.266281,0.334579,0.015598,0.194976,0.000000,239.000000,237.000000,2.000000,25.000000,0.000000,0.000000,0.000000,0.000000,0.000000,0.266281,0.334579,0.015598,0.194976,0.000000,239.000000,237.000000,2.000000,25.000000,0.000000,0.000000,0.000000,0.000000,0.000000;
#CREDIT:iamthek3n;
#NOTES:
0000
0000
0000
0000
,
0000
0000
0000
0000
,
0000
0000
0000
0000
,
0000
0000
0000
0000
,
1000
0000
0001
0010
,
0001
0000
0000
0100
0000
0000
0001
0000
,
1000
0000
0010
1000
,
0010
0000
0000
0100
0000
0000
0001
0000
,
0010
0000
0001
1000
,
0001
0000
0000
0010
0000
0000
0100
0000
,
1000
0000
0100
0010
,
0100
0000
0000
1000
0000
0000
0001
0000
,
1000
0100
0000
0000
1000
0000
0001
0000
,
0100
0001
0000
0000
0010
0000
0100
0000
,
0010
0100
0000
0000
1000
0000
0001
0000
,
1000
0100
0000
0000
0010
0000
0100
0000
,
2000
0000
3002
0000
,
2003
0000
0000
0010
0000
0000
0001
0000
,
3001
0020
0000
0230
,
0320
0000
0000
0001
0000
0000
0100
0000
,
0130
0000
0000
1000
0000
0000
0001
0000
,
0010
0000
0000
0001
0000
0000
1000
0000
,
0010
0000
0000
1000
0000
0000
0001
0000
,
0100
0000
0000
0001
0000
0000
0010
0000
,
0100
0000
0000
1000
0000
0000
0001
0000
,
1000
0000
0000
0010
0000
0000
1000
0000
,
0002
0000
2003
0000
,
3002
0003
0200
0320
,
2030
0000
3002
0000
,
2003
0000
0000
0010
0000
0000
0001
0000
,
0001
0000
3000
1000
0000
0000
0010
0000
,
1000
0000
0000
0100
0000
0000
0010
0000
,
0001
0000
0000
0100
0000
0000
0001
0000
,
1000
0000
0000
0010
0000
0000
1000
0000
,
1001
0000
0000
1000
0010
0000
1000
0010
,
1000
0000
0000
0001
0010
0000
0001
0010
,
0001
0000
0000
0100
0010
0000
0100
0010
,
0100
0001
0000
0001
1000
0000
0100
0000
,
1000
0000
0000
0010
0100
0000
0001
0000
,
1000
0000
0000
1000
0100
0000
1000
0000
,
0001
0000
0000
0010
0100
0000
0010
0000
,
0001
0000
0000
0100
0001
0000
1000
0000
,
0001
0000
0000
0010
0100
0000
0010
0000
,
0001
0000
0000
0100
0001
0000
1000
0000
,
0010
0000
0000
0100
0010
0000
0100
0000
,
0001
0000
0000
0010
0100
0000
0010
0000
,
0001
0000
0000
1000
0001
0000
1000
0000
,
0010
0000
0000
0100
0010
0000
0100
0000
,
0001
0000
0000
0010
0100
0000
1000
0000
,
0001
1000
0000
0010
1000
0000
0001
0000
,
0100
0000
0000
0010
0100
0000
0001
0000
,
0010
0000
0000
0001
0010
0000
0100
0010
,
0100
0000
1000
0010
1000
0000
0001
0000
,
0100
0000
0010
0100
0010
0000
1000
0000
,
0001
0000
0010
0001
0010
0000
0100
0000
,
1000
0000
0010
1000
0010
0000
0100
0000
,
0002
0000
0023
0000
,
0032
2003
0010
3020
,
2030
0000
3100
0020
0000
0000
0001
0000
,
0032
0000
0000
1000
0000
0000
0013
0000
,
0200
0000
2300
0000
,
3002
0000
0100
0000
,
1000
0000
0000
0010
0000
0000
1000
0000
,
1000
0000
0000
0100
0103
0000
0001
0000
,
0101
0000
0000
0001
0000
0000
1000
0010
,
1000
0000
0000
0100
0000
0000
0010
0001
,
0010
0000
0100
0000
,
1000
0000
0001
0000
,
0100
0000
0000
0001
0000
0000
1000
0001
,
1000
0000
0000
0100
0000
0000
0010
0100
,
0010
0000
0001
0000
,
1000
0000
0001
0000
;

//---------------dance-single - ----------------
#NOTEDATA:;
#CHARTNAME:X-Scale 2;
#STEPSTYPE:dance-single;
#DESCRIPTION:;
#CHARTSTYLE:;
#DIFFICULTY:Beginner;
#METER:2;
#RADARVALUES:0.120328,0.166119,0.038995,0.000000,0.000000,108.000000,103.000000,5.000000,0.000000,0.000000,0.000000,0.000000,0.000000,0.000000,0.120328,0.166119,0.038995,0.000000,0.000000,108.000000,103.000000,5.000000,0.000000,0.000000,0.000000,0.000000,0.000000,0.000000;
#CREDIT:iamthek3n;
#NOTES:
0000
0000
0000
0000
,
0000
0000
0000
0000
,
0000
0000
0000
0000
,
0000
0000
0000
0000
,
1000
0000
0000
0000
,
0001
0000
0000
0000
,
1000
0000
0000
0000
,
0001
0000
0000
0000
,
0010
0000
0000
0000
,
0100
0000
0000
0000
,
0010
0000
0000
0000
,
0100
0000
0000
0000
,
1000
0000
0000
0000
,
0010
0000
0000
0000
,
0100
0000
0000
0000
,
0001
0000
0000
0000
,
1000
0000
0001
0000
,
1000
0000
0000
0000
,
0100
0000
0010
0000
,
0001
0000
0000
0000
,
0100
0000
0001
0000
,
1000
0000
0000
0000
,
0100
0000
0001
0000
,
1000
0000
0000
0000
,
0001
0000
0000
0000
,
0100
0000
0000
0000
,
0001
0000
1000
0000
,
0001
0000
0000
0000
,
0001
0000
1000
0000
,
0001
0000
0000
0000
,
0100
0000
0010
0000
,
1000
0000
0001
0000
,
0100
0000
0010
0000
,
1000
0000
0001
0000
,
1001
0000
0000
0000
,
0001
0000
0000
0000
,
1000
0000
0100
0000
,
1000
0000
0001
0000
,
0010
0000
0100
0000
,
1000
0000
0010
0000
,
1000
0000
0001
0000
,
0100
0000
0001
0000
,
1000
0000
0010
0000
,
0100
0000
0001
0000
,
1001
0000
0000
0000
,
0110
0000
0000
0000
,
1001
0000
0000
0000
,
0110
0000
0000
0000
,
0100
0000
0001
0000
,
1000
0000
0001
0000
,
0010
0000
0100
0000
,
1000
0000
0010
0000
,
1000
0000
0001
0000
,
0100
0000
0001
0000
,
1000
0000
0001
0000
,
0010
0000
0100
0000
,
1000
0000
0010
0000
,
1000
0000
0000
0000
,
0010
0000
0100
0000
,
0010
0000
0000
0000
,
1000
0000
0001
0000
,
1000
0000
0000
0000
,
0001
0000
0010
0000
,
0001
0000
1000
0000
,
0010
0000
1000
0000
,
0100
0000
0010
0000
,
0001
0000
0000
0000
,
1000
0000
0000
0000
,
0001
0000
0010
0000
,
0100
0000
0010
0000
,
0001
0000
0000
0000
,
1000
0000
0000
0000
;
