#VERSION:0.83;
#TITLE:Cool for the Summer;
#SUBTITLE:(Rich Edwards Remix);
#ARTIST:Demi Lovato;
#TITLETRANSLIT:;
#SUBTITLETRANSLIT:;
#ARTISTTRANSLIT:;
#GENRE:Commercial House;
#ORIGIN:;
#CREDIT:;
#BANNER:c4ts_re-bn.png;
#BACKGROUND:c4ts_re-bg.png;
#PREVIEWVID:;
#JACKET:c4ts_re-jacket.png;
#CDIMAGE:;
#DISCIMAGE:;
#LYRICSPATH:;
#CDTITLE:cdtitle.png;
#MUSIC:c4ts-re.ogg;
#OFFSET:-0.196000;
#SAMPLESTART:67.699997;
#SAMPLELENGTH:15.000000;
#SELECTABLE:YES;
#BPMS:0.000=64.000,
20.000=128.000,
52.000=64.000,
56.000=128.000,
116.000=64.000,
118.000=128.000,
146.000=64.000,
148.000=128.000,
180.000=64.000;
#STOPS:;
#DELAYS:;
#WARPS:;
#TIMESIGNATURES:0.000=4=4;
#TICKCOUNTS:0.000=4;
#COMBOS:0.000=1;
#SPEEDS:0.000=1.000=0.000=0;
#SCROLLS:0.000=1.000;
#FAKES:;
#LABELS:0.000=Song Start;
#BGCHANGES:;
#KEYSOUNDS:;
#ATTACKS:
;

//---------------dance-single - ----------------
#NOTEDATA:;
#CHARTNAME:X-Scale 12;
#STEPSTYPE:dance-single;
#DESCRIPTION:;
#CHARTSTYLE:;
#DIFFICULTY:Hard;
#METER:8;
#RADARVALUES:0.531942,0.613298,0.123802,0.228558,0.371407,391.000000,378.000000,13.000000,24.000000,0.000000,0.000000,2.000000,0.000000,0.000000,0.531942,0.613298,0.123802,0.228558,0.371407,391.000000,378.000000,13.000000,24.000000,0.000000,0.000000,2.000000,0.000000,0.000000;
#CREDIT:;
#NOTES:
// measure 0
0000
0000
0000
0000
,  // measure 1
1000
0100
0010
0001
1000
0000
0010
0100
0001
0000
0001
0010
0100
0100
0100
0000
,  // measure 2
1000
0010
0001
1000
0100
0001
0100
0000
0001
0000
1000
0001
1000
0000
0010
0000
,  // measure 3
1000
0001
0010
0100
1000
0000
0010
0100
1000
0000
1000
0100
0001
0001
0001
0000
,  // measure 4
1000
0010
0100
1000
0100
0010
1000
0000
0001
0000
0100
0010
0100
0000
0001
0100
,  // measure 5
0101
0000
0001
0100
0010
1000
0001
1000
,  // measure 6
0010
0100
0001
1000
0001
0000
1000
0100
,  // measure 7
0001
0000
0001
0100
1000
0010
1000
0100
,  // measure 8
0010
0001
1000
0100
2000
0000
0001
0000
,  // measure 9
3001
0000
0000
0000
1000
0000
0000
0000
0010
0000
1000
0010
0100
0010
1000
0000
,  // measure 10
0001
0000
0000
0000
1000
0000
0000
0000
0001
0000
0100
0001
1000
0100
0000
0000
,  // measure 11
0010
0000
0000
0000
0100
0000
0000
0000
1000
0000
0001
1000
0100
1000
0000
0000
,  // measure 12
0010
0000
0000
0000
0100
0000
0010
0000
0100
0000
0001
1000
0001
1000
0000
0000
,  // measure 13
1001
0000
0000
0000
0001
0000
0000
0000
0010
0000
0000
0000
0100
0000
0000
0000
1000
0000
0000
0000
0100
0000
0000
0000
1000
0000
1000
0100
1000
0100
0000
0000
,  // measure 14
1100
0000
1000
0000
0001
0010
1000
0010
,  // measure 15
0001
0100
0010
0100
0001
0010
0100
0000
,  // measure 16
1000
0000
0010
0000
1000
0100
0001
0100
,  // measure 17
1000
0010
0100
1000
0100
0010
0200
0000
,  // measure 18
1000
0000
0302
0000
0103
0001
1000
0010
,  // measure 19
1000
0001
0010
0100
1000
0001
0100
0000
,  // measure 20
0010
0000
1000
0010
0001
0010
1000
0000
,  // measure 21
0001
0000
0000
0000
1000
0000
0100
0000
0010
0000
0001
0100
0001
1000
0000
0000
,  // measure 22
1001
1000
0010
0100
1000
0100
0010
1000
,  // measure 23
0001
0000
0010
0000
0001
0000
1000
0000
0100
1000
0100
1000
0100
0010
0100
0010
,  // measure 24
0100
0010
0001
1000
0001
0100
0010
1000
,  // measure 25
0001
0000
0100
0000
0010
0000
1000
0000
0001
0010
0001
0010
0100
0010
0100
0010
,  // measure 26
0002
0000
1003
0002
0003
0010
0100
1000
,  // measure 27
0020
0000
1030
0020
0030
1000
0002
0000
,  // measure 28
1003
0001
1000
0001
1000
0001
1000
0001
0040
0400
0000
0000
0000
0000
0000
0000
,  // measure 29
0330
0000
0000
0000
0000
0000
0001
0000
0010
0000
0001
0100
0010
1000
0000
0000
1200
0000
0000
0000
0000
0000
0000
0000
1300
0000
0000
0000
0001
0000
0000
0000
,  // measure 30
1000
0100
0010
0001
2000
0000
3001
1000
,  // measure 31
0001
0010
0100
0010
0200
0000
1300
0100
,  // measure 32
0001
0100
1000
0010
0200
0000
0310
0100
,  // measure 33
1000
0100
0102
0000
2003
0000
3100
1000
,  // measure 34
0001
1000
0100
0010
0002
0000
0013
0001
,  // measure 35
1000
0100
0010
0100
0020
0000
0031
0100
,  // measure 36
0001
0000
0000
0000
1000
0000
0000
0000
0001
0000
0000
0000
0100
0000
0000
0000
0001
0000
1000
0000
0001
0000
1000
0100
0010
0001
1000
0100
0010
0001
0000
0000
,  // measure 37
1010
0000
0000
0000
1000
0000
0100
0000
1000
0000
0001
1000
0001
1000
0000
0000
,  // measure 38
1001
0000
0000
0000
0001
0000
0010
0000
0001
0000
0100
0001
0100
0001
0000
0000
,  // measure 39
0101
0000
0000
0000
0100
0000
0010
0000
0100
0000
0010
1000
0010
1000
0000
0000
,  // measure 40
1010
0000
0000
0000
1000
0000
0001
0000
1000
0000
0010
0100
0010
0100
0000
0000
,  // measure 41
0110
0000
0000
0000
0010
0000
1000
0000
0001
0000
0100
0001
0100
0001
0000
0000
,  // measure 42
0101
0000
0000
0000
1000
0000
0001
0000
0010
0000
0100
0010
0100
0010
0000
0000
,  // measure 43
0110
0000
0000
0000
0010
0000
0001
0000
1000
0000
0010
1000
0010
1000
0000
0000
,  // measure 44
0001
0100
0001
0100
0010
1000
0010
1000
0100
0010
0100
0010
0001
1000
0001
1000
,  // measure 45
0020
0032
0023
2030
3002
0023
0032
2003
,  // measure 46
3000
0000
0000
0000
;

//---------------dance-single - ----------------
#NOTEDATA:;
#CHARTNAME:X-Scale 9;
#STEPSTYPE:dance-single;
#DESCRIPTION:;
#CHARTSTYLE:;
#DIFFICULTY:Medium;
#METER:6;
#RADARVALUES:0.387733,0.459974,0.047616,0.352361,0.090471,285.000000,280.000000,5.000000,37.000000,0.000000,0.000000,0.000000,0.000000,0.000000,0.387733,0.459974,0.047616,0.352361,0.090471,285.000000,280.000000,5.000000,37.000000,0.000000,0.000000,0.000000,0.000000,0.000000;
#CREDIT:;
#NOTES:
// measure 0
0000
0000
0000
0000
,  // measure 1
1000
0000
0010
0100
0010
0000
1000
0100
1000
0000
0001
0010
0200
0000
0000
0300
,  // measure 2
1000
0000
0001
0000
1000
0001
0200
0000
0310
0000
1000
0000
0001
0000
0100
0000
,  // measure 3
0001
0000
1000
0010
1000
0000
0001
0010
0001
0000
1000
0100
0020
0000
0000
0030
,  // measure 4
0001
0000
0100
0000
0010
1000
0002
0000
1003
0000
0100
0000
1000
0000
0001
0000
,  // measure 5
1002
0000
0100
0000
1000
0000
0013
0200
,  // measure 6
0001
0000
0010
0000
1000
0000
0010
0300
,  // measure 7
1000
0001
1000
0001
,  // measure 8
1000
0010
0100
0001
2000
0000
0001
0000
,  // measure 9
3001
0000
0100
0000
0010
0000
1000
0100
,  // measure 10
0010
0001
0100
0010
,  // measure 11
1000
0001
0100
0010
,  // measure 12
2000
0001
3200
0000
,  // measure 13
0310
0000
0010
0000
0100
0000
0100
0000
1000
0000
1000
0000
0002
0000
0000
0003
,  // measure 14
0101
0000
0100
0000
0010
1000
0001
1000
,  // measure 15
0010
0000
0100
0000
0001
0010
0200
0000
,  // measure 16
1300
0000
0001
0000
1000
0100
0010
0100
,  // measure 17
1000
0000
0001
0000
0100
0010
2000
0000
,  // measure 18
0100
0000
0001
0000
3010
0000
1000
0001
,  // measure 19
1000
0000
0100
0000
0010
0001
2000
0000
,  // measure 20
3010
0000
1000
0100
0010
0001
0200
0000
,  // measure 21
0301
0000
0000
0000
0010
0000
0000
0000
0001
0000
0000
0000
1000
0001
0000
0000
,  // measure 22
1002
0000
1003
0020
0030
1000
0010
1000
,  // measure 23
0002
0000
0013
0200
0300
1000
0200
0000
,  // measure 24
0320
0000
0031
2000
3000
0001
1000
0010
,  // measure 25
2000
0000
3001
0020
0030
0100
2000
0000
,  // measure 26
3001
1000
0000
0000
0001
1000
0000
0000
0001
1000
0000
0000
0001
1000
0000
0000
,  // measure 27
0001
1000
0000
0000
0100
0000
0010
0000
0001
0000
1000
0000
0001
1000
0000
0000
,  // measure 28
0020
0001
0100
1000
,  // measure 29
2030
0000
0000
3001
1001
0000
1000
0010
,  // measure 30
1000
0100
0010
0100
2000
0000
3001
1000
,  // measure 31
0000
0001
1000
0001
0010
0000
0100
1000
,  // measure 32
0001
1000
0100
0010
0002
0000
0103
0001
,  // measure 33
0000
0100
0002
0000
1003
0000
0010
0100
,  // measure 34
0001
0010
0100
1000
0200
0000
1300
0010
,  // measure 35
0000
1000
0100
1000
0001
0000
0010
0100
,  // measure 36
1000
0000
0001
0000
1000
0000
0010
0000
0100
0000
0010
1000
0000
0001
1000
0000
,  // measure 37
1001
0000
1000
0010
1000
0001
1000
0010
,  // measure 38
1000
0000
0001
0100
1000
0100
0002
0000
,  // measure 39
0013
0000
0100
1000
0001
1000
0100
1000
,  // measure 40
0001
0000
1000
0100
0010
0100
2000
0000
,  // measure 41
3100
0000
1000
0010
0100
0001
0100
0010
,  // measure 42
1000
0000
0001
0010
0100
0010
0002
0000
,  // measure 43
1003
0001
1000
0001
0010
0100
0010
0100
,  // measure 44
1000
0000
0000
0000
0010
0000
1000
0000
0001
0000
1000
0010
1000
0010
0000
0000
,  // measure 45
2000
0001
3002
1000
2003
0001
3002
1000
,  // measure 46
0003
0000
0000
0000
;

//---------------dance-single - ----------------
#NOTEDATA:;
#CHARTNAME:X-Scale 5;
#STEPSTYPE:dance-single;
#DESCRIPTION:;
#CHARTSTYLE:;
#DIFFICULTY:Easy;
#METER:3;
#RADARVALUES:0.235361,0.261414,0.114279,0.171419,0.009523,173.000000,161.000000,12.000000,18.000000,0.000000,0.000000,0.000000,0.000000,0.000000,0.235361,0.261414,0.114279,0.171419,0.009523,173.000000,161.000000,12.000000,18.000000,0.000000,0.000000,0.000000,0.000000,0.000000;
#CREDIT:;
#NOTES:
// measure 0
0000
0000
0000
0000
,  // measure 1
0002
0000
0000
0000
0000
0000
0003
2000
0000
0000
0000
0000
0000
0000
0000
3000
,  // measure 2
0200
0000
0000
0000
0000
0000
0000
0300
,  // measure 3
0020
0000
0000
0000
0000
0000
0030
0002
0000
0000
0000
0000
0000
0000
0000
0003
,  // measure 4
0200
0000
0000
0000
0000
0000
0000
0300
,  // measure 5
0101
1000
0001
1000
,  // measure 6
0100
0010
0100
1000
,  // measure 7
0001
0100
0001
0010
,  // measure 8
0100
1000
0002
1000
,  // measure 9
1003
0000
0001
0000
1000
0000
0100
0010
,  // measure 10
0100
1000
0001
0100
,  // measure 11
0001
1000
0100
0010
,  // measure 12
0001
0000
0010
0000
,  // measure 13
0011
0000
0000
0000
,  // measure 14
1010
0000
0001
0000
1000
0000
0001
0100
,  // measure 15
0001
0100
0010
1000
,  // measure 16
0100
0010
0100
1000
,  // measure 17
0001
0100
0001
1000
,  // measure 18
0010
0000
0100
0000
0010
0000
1000
0010
,  // measure 19
1000
0001
0010
0001
,  // measure 20
0100
0010
0100
0001
,  // measure 21
1000
0100
1000
0001
,  // measure 22
1001
1000
0100
0010
,  // measure 23
0001
0000
1000
0010
2000
0000
0000
0000
,  // measure 24
3001
1000
0001
0100
,  // measure 25
0010
0000
1000
0100
0020
0000
0000
0000
,  // measure 26
0031
0010
0100
1000
,  // measure 27
0001
0100
0010
1000
,  // measure 28
0002
0000
0000
0000
,  // measure 29
0000
0000
0000
0003
0011
0000
1000
0000
,  // measure 30
0001
1000
0100
0010
,  // measure 31
0001
0010
0002
0000
1003
0000
0010
0000
,  // measure 32
0100
0010
1000
0001
,  // measure 33
1000
0100
2000
0000
3001
0000
1000
0000
,  // measure 34
0100
1000
0001
0010
,  // measure 35
0100
1000
0200
0000
0310
0000
0001
0000
,  // measure 36
1000
0000
0001
0000
0020
0000
0000
0030
,  // measure 37
0110
0100
0010
0001
,  // measure 38
1001
1000
0010
0100
,  // measure 39
0110
0010
1000
0100
,  // measure 40
1100
0001
1000
0010
,  // measure 41
1010
0001
0010
0001
,  // measure 42
0101
0100
0010
1000
,  // measure 43
1020
0000
0030
2000
0000
0000
0000
3000
,  // measure 44
0002
0000
0003
0020
0000
0000
0000
0030
,  // measure 45
0001
0010
0100
1000
;

//---------------dance-single - ----------------
#NOTEDATA:;
#CHARTNAME:X-Scale 1;
#STEPSTYPE:dance-single;
#DESCRIPTION:;
#CHARTSTYLE:;
#DIFFICULTY:Beginner;
#METER:1;
#RADARVALUES:0.121082,0.149991,0.009523,0.000000,0.000000,89.000000,88.000000,1.000000,0.000000,0.000000,0.000000,0.000000,0.000000,0.000000,0.121082,0.149991,0.009523,0.000000,0.000000,89.000000,88.000000,1.000000,0.000000,0.000000,0.000000,0.000000,0.000000,0.000000;
#CREDIT:;
#NOTES:
// measure 0
0000
0000
0000
0000
,  // measure 1
0001
0000
0000
0000
,  // measure 2
1000
0000
0000
0000
,  // measure 3
0001
0000
0000
0000
,  // measure 4
1000
0000
0100
0000
,  // measure 5
1000
0000
0001
0000
,  // measure 6
1000
0000
0100
0000
,  // measure 7
0010
0000
0100
0000
,  // measure 8
1000
0000
0001
0000
,  // measure 9
1000
0000
0010
0000
,  // measure 10
0100
0000
0010
0000
,  // measure 11
1000
0000
0001
0000
,  // measure 12
1000
0000
0100
0000
,  // measure 13
0010
0000
0000
0000
,  // measure 14
0001
0000
0100
0000
,  // measure 15
0001
0000
1000
0000
,  // measure 16
0001
0000
0010
0000
,  // measure 17
0100
0000
1000
0000
,  // measure 18
0001
0000
0100
0000
,  // measure 19
0010
0000
0100
0000
,  // measure 20
0001
0000
1000
0000
,  // measure 21
0010
0000
1000
0000
,  // measure 22
0001
0000
0010
0000
,  // measure 23
0001
0000
0010
0000
,  // measure 24
0100
0000
1000
0000
,  // measure 25
0100
0000
1000
0000
,  // measure 26
0001
0000
1000
0000
,  // measure 27
0001
0000
1000
0000
,  // measure 28
0100
0000
0010
0000
,  // measure 29
0001
0000
1001
0000
,  // measure 30
1000
0000
0001
0000
,  // measure 31
0010
0100
0010
0000
,  // measure 32
0001
0000
1000
0000
,  // measure 33
0001
0010
0001
0000
,  // measure 34
1000
0000
0100
0000
,  // measure 35
1000
0001
1000
0000
,  // measure 36
0010
0000
0100
0000
,  // measure 37
0001
0000
1000
0000
,  // measure 38
0001
0000
1000
0000
,  // measure 39
0100
0000
0010
0000
,  // measure 40
0100
0000
0010
0000
,  // measure 41
0001
0000
0100
0000
,  // measure 42
0001
0000
0100
0000
,  // measure 43
0010
0000
1000
0000
,  // measure 44
0010
0000
1000
0000
,  // measure 45
0001
0000
0000
0000
;
