#TITLE:Come Back Around;
#SUBTITLE:;
#ARTIST:Eli & Fur;
#TITLETRANSLIT:;
#SUBTITLETRANSLIT:;
#ARTISTTRANSLIT:;
#GENRE:Deep House;
#CREDIT:cdtitle.png;
#BANNER:Come Back Around-bn.png;
#BACKGROUND:Come Back Around-bg.png;
#LYRICSPATH:;
#CDTITLE:cdtitle.png;
#MUSIC:Come Back Around.ogg;
#OFFSET:-0.121000;
#SAMPLESTART:67.320999;
#SAMPLELENGTH:15.360000;
#SELECTABLE:YES;
#BPMS:0.000000=124.999992
;
#STOPS:
;
#BGCHANGES:-0.120=Come Back Around.avi=1.000=0=0=0=StretchNoLoop====,
99999=-nosongbg-=1.000=0=0=0 // don't automatically add -songbackground-
;
#KEYSOUNDS:;
#ATTACKS:;

//---------------dance-single - ----------------
#NOTES:
     dance-single:
     X-Scale 2:
     Beginner:
     1:
     0.095456,0.149708,0.008458,0.000000,0.000000,79.000000,78.000000,1.000000,0.000000,0.000000,0.000000,0.095456,0.149708,0.008458,0.000000,0.000000,79.000000,78.000000,1.000000,0.000000,0.000000,0.000000:
0000
0000
0000
0000
,
0000
0000
0000
0000
,
0000
0000
0000
0000
,
0000
0000
0000
0000
,
0000
0000
0000
0000
,
1000
0000
0000
0000
,
0001
0000
0000
0000
,
1000
0000
0000
0000
,
0001
0000
0000
0000
,
0010
0000
0000
0000
,
0100
0000
0000
0000
,
0010
0000
0000
0000
,
0100
0000
0000
0000
,
1000
0000
0000
0000
,
0001
0000
0000
0000
,
1000
0000
0000
0000
,
0001
0000
0000
0000
,
0010
0000
0000
0000
,
0100
0000
0000
0000
,
1000
0000
0000
0000
,
0001
0000
0000
0000
,
1000
0000
0000
0000
,
0100
0000
0000
0000
,
0010
0000
0000
0000
,
0100
0000
0000
0000
,
1000
0000
0000
0000
,
0001
0000
0000
0000
,
0100
0000
0000
0000
,
0001
0000
0000
0000
,
1000
0000
0000
0000
,
0010
0000
0000
0000
,
0100
0000
0000
0000
,
0001
0000
0000
0000
,
1000
0000
0000
0000
,
0000
0000
0000
0000
,
1001
0000
0001
0000
,
1000
0000
0001
0000
,
0100
0000
0001
0000
,
1000
0000
0100
0000
,
0010
0000
0100
0000
,
1000
0000
0001
0000
,
0010
0000
0100
0000
,
0010
0000
0001
0000
,
1000
0000
0001
0000
,
1000
0000
0010
0000
,
1000
0000
0001
0000
,
0010
0000
0100
0000
,
1000
0000
0010
0000
,
1000
0000
0100
0000
,
0010
0000
0001
0000
,
1000
0000
0001
0000
,
0100
0000
0001
0000
,
1000
0000
0100
0000
,
0010
0000
0100
0000
,
1000
0000
0001
0000
,
0010
0000
0100
0000
,
0010
0000
0001
0000
,
1000
0000
0001
0000
,
0100
0000
0001
0000
,
1000
0000
0000
0000
;

//---------------dance-single - ----------------
#NOTES:
     dance-single:
     X-Scale 6:
     Easy:
     4:
     0.254951,0.274465,0.025374,0.202994,0.000000,211.000000,208.000000,3.000000,24.000000,0.000000,0.000000,0.254951,0.274465,0.025374,0.202994,0.000000,211.000000,208.000000,3.000000,24.000000,0.000000,0.000000:
0000
0000
0000
0000
,
0000
0000
0000
0000
,
0000
0000
0000
0000
,
0000
0000
0000
0000
,
0000
0000
0000
0000
,
0000
0001
0000
0001
0000
0000
0000
1000
,
0000
1000
0000
0000
0010
0000
0100
0000
,
0010
1000
0000
1000
0000
0000
0000
0100
,
0000
0100
0000
0000
0010
0000
0001
0000
,
0011
0000
1000
0000
0001
0000
1000
0100
,
0000
0100
0010
0000
0001
0000
0010
0000
,
0100
1000
0000
1000
0001
0000
0100
0001
,
0000
0001
1000
0000
0100
0000
0010
0000
,
0001
0100
0000
0100
0001
0000
0010
0001
,
0000
0001
1000
0000
0001
0000
0100
0000
,
0010
0100
0000
0100
0000
0000
0001
1000
,
0000
1000
0000
0000
0100
0000
0010
0000
,
1001
0001
0000
1000
,
0000
0001
0000
1000
,
0000
0010
0000
0100
,
0000
0010
0000
0100
,
0000
0001
0000
0010
,
0000
0001
0000
0010
,
0000
0100
0000
1000
,
0000
0100
0000
1000
,
0000
0001
0000
0001
0000
0000
0000
1000
,
0000
1000
0000
0000
0010
0000
0100
0000
,
0010
1000
0000
1000
0000
0000
0000
0001
,
0000
0001
0000
0000
0010
0000
0100
0000
,
0010
0001
0000
0001
0000
0000
0000
1000
,
0000
1000
0000
0000
0100
0000
0010
0000
,
0100
1000
0000
1000
0000
0000
0000
0000
,
0001
0020
0000
0032
0000
1003
0100
0020
,
0000
0030
0000
0000
,
0000
0000
0000
0000
,
1100
0000
1000
0000
0001
0000
1000
0010
,
0100
0002
0000
0023
0000
0230
0000
2300
,
0000
0001
0000
3001
0000
0000
0100
0000
,
0001
0200
0000
0320
0000
0130
0001
2000
,
0000
0100
0000
3100
0000
0000
0010
0001
,
1000
0002
0000
0203
0000
0302
0000
0023
,
0000
0100
0000
0130
0000
0000
1000
0001
,
0010
0002
0000
2003
0000
3010
0100
0002
,
0000
1000
0000
1003
0000
0000
0001
0000
,
0010
0100
1000
0001
,
1000
0010
0100
0001
,
1000
0100
0010
0001
,
0010
0000
0100
0000
1000
0000
0001
0100
,
0001
2000
0000
3200
0000
2300
0000
3002
,
0000
0100
0000
0103
0000
0000
0001
0100
,
0010
0200
0000
0302
0000
1003
0100
0020
,
0000
0001
0000
0031
0000
0000
1000
0100
,
0000
0100
0010
0000
0001
0000
1000
0000
,
0001
0010
0000
0010
0100
0000
1000
0010
,
0000
0010
0100
0000
0001
0000
1000
0000
,
0001
0100
0000
0100
0001
0000
1000
0100
,
0000
0100
1000
0000
0001
0000
0100
0000
,
0001
0010
0000
0010
0100
0000
1000
0001
,
0000
0001
0100
0000
0001
0000
1000
0000
,
0001
0000
0000
0000
;

//---------------dance-single - ----------------
#NOTES:
     dance-single:
     X-Scale 8:
     Medium:
     6:
     0.383031,0.424173,0.042290,0.169162,0.164933,317.000000,312.000000,5.000000,20.000000,0.000000,0.000000,0.383031,0.424173,0.042290,0.169162,0.164933,317.000000,312.000000,5.000000,20.000000,0.000000,0.000000:
0000
0000
0000
0000
,
0000
0000
0000
0000
,
0000
0000
0000
0000
,
0000
0000
0000
0000
,
0000
0000
0000
0000
,
0001
0100
0000
0100
0010
0000
1000
0100
,
0000
0000
0100
0000
0010
0000
0000
0000
0001
0000
0000
0010
0000
0000
0100
0000
,
1000
0010
0000
0010
0100
0000
0001
0010
,
0000
0000
0010
0000
0000
0000
0000
0000
0100
0000
0000
0100
0000
0000
1000
0000
,
0100
0001
1000
0010
0001
0000
0010
0100
,
1000
0000
0001
0000
1000
0000
0000
0000
0010
0000
0000
0100
0000
0000
0010
0000
,
0001
0010
0100
0010
1000
0000
0001
0010
,
0100
0000
0010
0000
0001
0000
0000
0000
1000
0000
0000
0010
0000
0000
0001
0000
,
0010
1000
0001
1000
0100
0000
0001
0100
,
0010
0000
0001
0000
1000
0000
0000
0000
0010
0000
0000
0100
0000
0000
0001
0000
,
1000
0010
0000
0010
0000
0000
1000
0001
,
0000
0000
0001
0000
0000
0000
0000
0000
0010
0000
0000
0100
0000
0000
1000
0000
,
1100
0000
0000
0100
0000
0000
1000
0000
0000
0000
0001
0000
0100
0000
0000
0000
,
0001
0000
0000
0001
0000
0000
1000
0000
0000
0000
0010
0000
0100
0000
0000
0000
,
0001
0000
0000
0001
0000
0000
1000
0000
0000
0000
0010
0000
1000
0000
0000
0000
,
0100
0000
0000
0100
0000
0000
0010
0000
0000
0000
0001
0000
0100
0000
0000
0000
,
0001
0000
0000
0001
0000
0000
0010
0000
0000
0000
0100
0000
1000
0000
0000
0000
,
0010
0000
0000
0010
0000
0000
1000
0000
0000
0000
0100
0000
0010
0000
0000
0000
,
0100
0000
0000
0100
0000
0000
1000
0000
0000
0000
0001
0000
1000
0000
0000
0000
,
0001
0000
0000
0001
0000
0000
0010
0000
0000
0000
0100
0000
1000
0000
0000
0000
,
0001
0010
0000
0010
0000
0000
0100
0010
,
0100
2000
0000
3020
0000
0230
0000
0302
,
0000
1000
0003
1000
0000
1000
0010
0100
,
0001
2000
0000
3200
0000
0301
0100
2000
,
0000
0001
3000
0001
0000
0001
0100
1000
,
0100
0002
0000
2003
0000
3200
0000
0320
,
0000
0031
0010
0100
,
1000
0020
0000
0230
0000
1300
0100
0002
,
2000
0003
0000
0000
,
3000
0000
0000
0002
0000
0103
0010
1000
,
1001
1000
0010
1000
0001
0000
0001
0100
,
1000
0000
0100
0000
0001
0000
0000
0000
1000
0000
0000
0010
0000
0000
0100
0000
,
0001
1000
0001
0100
0001
0000
1000
0100
,
0001
0000
0100
0000
1000
0000
0000
0000
0001
0000
0000
0100
0000
0000
1000
0000
,
0100
0010
0100
0001
1000
0000
0001
0010
,
1000
0000
0010
0000
0001
0000
0000
0000
1000
0000
0000
0010
0000
0000
1000
0000
,
0001
0100
1000
0100
0001
0000
0100
0010
,
1000
0000
0001
0000
0010
0000
0000
0000
0001
0000
0000
0010
0000
0000
0100
0000
,
1000
0000
0001
0000
1000
0000
0100
0000
1000
0000
0000
0000
1001
0000
0000
0100
,
0000
0001
0000
1000
0000
0010
0000
0100
0000
0001
0000
0010
0000
0000
0100
0000
,
0000
0000
1000
0000
0100
0000
1000
0000
0001
0000
0000
0000
0101
0000
0000
0001
,
0000
1000
0000
0010
0000
1000
0000
0100
0000
0001
0000
0100
0000
1000
0000
0000
,
0001
0010
0100
0010
0001
0000
1001
0000
,
0100
0000
0001
0000
1000
0000
0000
0000
0010
0000
0000
0100
0010
0000
0100
0000
,
0001
0010
0100
0010
0001
0000
1000
0010
,
0001
0000
0010
0000
1000
0000
0000
0000
0001
0000
0000
0010
0100
0000
0010
0000
,
0001
1000
0010
1000
0001
0000
0010
0100
,
1000
0000
0001
0000
1000
0000
0000
0000
0100
0000
0000
0010
0000
0000
0001
0000
,
0100
1000
0001
0010
1000
0000
0010
0100
,
1000
0000
0100
0000
0010
0000
0000
0000
1000
0000
0000
0100
0000
0000
0010
0000
,
0001
1000
0001
0010
0001
0000
0010
0100
,
1000
0000
0001
0000
1000
0000
0000
0000
0010
0000
0000
0100
0000
0000
0001
0000
,
0010
0100
0001
0100
1000
0000
0001
0100
,
1000
0000
0100
0000
0002
0000
0000
0000
0200
0000
0300
2000
0000
3000
0020
0000
,
0033
0000
0000
0000
;

//---------------dance-single - ----------------
#NOTES:
     dance-single:
     X-Scale 11:
     Hard:
     8:
     0.442237,0.449125,0.067665,0.262201,0.308720,366.000000,358.000000,8.000000,31.000000,0.000000,0.000000,0.442237,0.449125,0.067665,0.262201,0.308720,366.000000,358.000000,8.000000,31.000000,0.000000,0.000000:
// measure 0
0000
0000
0000
0000
,  // measure 1
0000
0000
0000
0000
,  // measure 2
0000
0000
0000
0000
,  // measure 3
0000
0000
0000
0000
,  // measure 4
0000
0000
0000
0000
,  // measure 5
1000
0001
0100
0001
1000
0000
0001
0010
,  // measure 6
1000
0000
0010
0000
0001
0000
0000
0000
1000
0000
0000
1000
0010
0000
1000
0000
,  // measure 7
0100
0001
0100
0010
0001
0000
1000
0010
,  // measure 8
0100
0000
0001
0000
0000
0000
1000
0100
0000
0100
0001
0000
0100
0000
1000
0000
,  // measure 9
1100
0100
1000
0001
0100
0000
0001
0010
,  // measure 10
1000
0000
0010
0000
0001
0000
0000
0000
0100
0000
0000
0100
0001
0000
1000
0000
,  // measure 11
0100
0001
1000
0010
0001
0000
1000
0100
,  // measure 12
0001
0000
0100
0000
1000
0000
0000
0000
0010
0000
0000
0010
0100
0000
0010
0000
,  // measure 13
1000
0001
0100
0001
1000
0000
0001
0100
,  // measure 14
1000
0000
0100
0000
0001
0000
1000
0001
1000
0000
0000
1000
0100
0000
0010
0000
,  // measure 15
0001
0000
1000
0000
0000
0000
0001
0100
0000
0100
1000
0000
0100
0000
0001
0000
,  // measure 16
1000
0020
0000
2030
0000
3100
0010
0100
,  // measure 17
2001
0000
0000
0001
0000
0000
0000
0000
0000
0000
0000
0000
3001
0000
0000
1000
,  // measure 18
0000
0010
0000
0001
0000
1000
0000
0100
0000
0001
0000
2000
0000
3000
0001
0000
,  // measure 19
0002
0000
0000
1000
0000
0000
0000
0000
0000
0000
0000
0000
1003
0000
0000
0001
,  // measure 20
0000
0100
0000
1000
0000
0001
0000
0010
0000
1000
0000
0001
0000
2000
0000
0000
,  // measure 21
3200
0000
0000
0010
0000
0000
0000
0000
0000
0000
0000
0000
0310
0000
0000
0100
,  // measure 22
0000
0010
0000
1000
0000
0010
0000
0001
0000
0100
0000
0002
0000
0003
2000
0000
,  // measure 23
3200
0000
0000
0010
0000
0000
0000
0000
0000
0000
0000
0000
0310
0000
0000
0100
,  // measure 24
0000
1000
0000
0001
0000
0010
0000
1000
0000
0010
0000
0001
0000
0020
0000
0000
,  // measure 25
0230
0000
1300
0000
0100
1000
0001
0000
,  // measure 26
0010
0000
0001
0000
1000
0000
0000
0000
0100
0000
0000
0100
0000
0000
0010
0000
,  // measure 27
0001
0000
1000
0001
0100
0000
0010
0100
,  // measure 28
0001
0000
0000
0000
1000
0000
0000
0000
0001
0000
0000
0001
0000
0000
0100
0000
,  // measure 29
0001
0000
0010
0100
1000
0000
0010
0100
,  // measure 30
0001
0000
0000
0000
1000
0000
0000
0000
0100
0000
0000
0100
0000
0000
0010
0000
,  // measure 31
0100
0010
0001
1000
0010
1000
0100
0010
,  // measure 32
0100
1000
0001
2002
3003
1000
0100
0020
,  // measure 33
0002
0030
0000
0000
,  // measure 34
0023
0200
0330
2200
3300
1000
0001
1000
,  // measure 35
1100
1000
0001
1000
0010
0000
1000
0010
,  // measure 36
0001
0000
0010
0000
1000
0000
0000
0000
0001
0000
0000
0010
0100
0000
0010
0000
,  // measure 37
0001
0100
1000
0100
0001
0000
1000
0010
,  // measure 38
1000
0000
0001
0000
0010
0000
0001
1000
0000
1000
0001
0000
0100
0000
0010
0000
,  // measure 39
0001
0010
1000
0010
0100
0000
0001
0100
,  // measure 40
1000
0000
0100
0000
0001
0000
0000
0000
1000
0000
0000
1000
0001
0000
0100
0000
,  // measure 41
0010
0100
0001
0010
0100
0000
0010
0001
,  // measure 42
1000
0000
0001
0000
0010
0000
0001
0100
0000
0100
1000
0000
0100
0000
0001
0000
,  // measure 43
0100
0000
0010
0000
0100
0000
0001
0000
0000
0000
1000
0000
0001
0000
0010
0001
,  // measure 44
0000
0100
0000
1000
0000
0100
0000
0001
0000
1000
0000
0020
0000
0030
0200
0000
,  // measure 45
0000
0000
1300
0000
0100
0000
0001
0000
0000
0000
1000
0000
0001
0000
1000
0010
,  // measure 46
0000
0100
0000
0001
0000
0100
0000
1000
0000
0100
0000
0001
0000
2000
0000
0000
,  // measure 47
3100
0001
0100
1000
0000
0001
0010
1000
,  // measure 48
0010
0001
0000
0022
0033
0220
0330
2020
,  // measure 49
0030
3001
1000
0010
0000
0010
0100
0001
,  // measure 50
1000
0000
0010
0000
1000
0000
0001
0010
0000
0010
0100
0000
0010
0000
0001
0000
,  // measure 51
1000
0100
0001
0100
1000
0000
0001
0100
,  // measure 52
1000
0000
0100
0000
0001
0000
0000
0000
0100
0000
0000
0100
0010
0000
0100
0000
,  // measure 53
0001
0010
1000
0010
0001
0000
1000
0100
,  // measure 54
0001
0000
0100
0000
1000
0000
0000
0000
0001
0000
0000
0001
0100
0000
0001
0000
,  // measure 55
1000
0010
0100
0010
1000
0000
0001
0100
,  // measure 56
1000
0000
0100
0000
0001
0000
0000
0000
0100
0000
0000
0100
0010
0000
1000
0000
,  // measure 57
0100
0001
0100
0010
0001
0000
1000
0100
,  // measure 58
0001
0000
0100
0000
1000
0000
0000
0000
0100
0000
0000
0100
0020
0000
0002
0000
,  // measure 59
0033
0000
0000
0000
;
