#TITLE:Coconut Tree feat. Nicole Scherzinger;
#SUBTITLE:;
#ARTIST:Mohombi;
#TITLETRANSLIT:;
#SUBTITLETRANSLIT:;
#ARTISTTRANSLIT:;
#GENRE:Dancehall;
#CREDIT:;
#BANNER:Coconut Tree feat. Nicole Scherzinger-bn.png;
#BACKGROUND:Coconut Tree feat. Nicole Scherzinger-bg.png;
#LYRICSPATH:;
#CDTITLE:cdtitle.png;
#MUSIC:Coconut Tree.ogg;
#OFFSET:-0.001000;
#SAMPLESTART:36.924000;
#SAMPLELENGTH:14.769000;
#SELECTABLE:YES;
#BPMS:0.000000=130.000000
;
#STOPS:
;
#BGCHANGES:0.000=Coconut Tree feat. Nicole Scherzinger.avi=1.000=1=0=0=StretchNoLoop==CrossFade==,
99999=-nosongbg-=1.000=0=0=0 // don't automatically add -songbackground-
;
#KEYSOUNDS:;
#ATTACKS:;

//---------------dance-single - ----------------
#NOTES:
     dance-single:
     X-Scale 12:
     Hard:
     8:
     0.545870,0.496969,0.074437,0.206769,0.268799,462.000000,453.000000,9.000000,25.000000,0.000000,0.000000,0.545870,0.496969,0.074437,0.206769,0.268799,462.000000,453.000000,9.000000,25.000000,0.000000,0.000000:
// measure 0
0000
0000
0000
0000
,  // measure 1
0000
0000
0000
0000
,  // measure 2
1000
0000
0000
1000
0000
0000
1000
0000
0001
0000
0000
0000
0000
0000
0000
0000
,  // measure 3
0100
0000
0000
0100
0000
0000
0100
0000
0010
0000
1000
0000
0001
0000
0200
0000
,  // measure 4
0300
0100
0020
0000
2030
0000
3001
0020
,  // measure 5
0100
0000
0000
0100
0030
0000
0100
0000
1000
0000
0001
0000
1000
0000
0020
0000
,  // measure 6
0030
0100
0002
0000
0023
0000
0130
2000
,  // measure 7
0001
0000
0000
0001
3000
0000
0001
0000
0010
0000
1000
0000
0010
0000
0001
0000
,  // measure 8
1000
0010
1000
0001
0020
0000
0130
1000
,  // measure 9
0001
0100
0001
1000
0200
0000
0301
0100
,  // measure 10
1000
0001
0100
0010
0200
0000
0301
0020
,  // measure 11
0100
0000
0000
0100
0000
0000
0130
0000
0010
0000
0001
0000
1000
0000
0100
0000
,  // measure 12
1100
0000
0000
0100
0010
0000
0100
0000
1000
0000
0000
0001
0100
0000
0001
0000
,  // measure 13
1000
0000
0001
0000
0010
0000
0000
0100
0010
0000
0001
0000
1000
0000
0010
1000
,  // measure 14
0001
0000
0010
0000
0100
0000
1000
0001
0100
0000
0010
0000
1000
0000
0002
0000
,  // measure 15
0000
1003
0100
0001
0100
0010
0100
1000
,  // measure 16
1000
0000
0000
0010
1000
0000
0001
0000
0100
0000
0000
0010
1000
0000
0001
0000
,  // measure 17
1000
0000
0000
0001
1000
0000
0100
0000
0001
0000
0000
0100
0010
0000
0100
0000
,  // measure 18
1000
0010
1000
0001
0100
0010
1000
0002
,  // measure 19
0000
0103
0001
1000
0100
0010
0001
0010
,  // measure 20
0011
0000
0000
0001
1000
0000
0001
0000
0010
0000
0000
0100
0010
0000
0001
0000
,  // measure 21
1000
0100
0010
0000
0100
0000
1000
0000
0001
0000
0000
0100
0001
0000
1000
0000
,  // measure 22
0010
0000
0100
0000
0001
0000
1000
0000
0001
0000
0000
1000
0010
0000
1000
0000
,  // measure 23
0001
0100
0001
0200
0000
0310
2000
3000
,  // measure 24
1001
0000
0000
1000
0100
0000
0010
0000
0001
0000
0000
0100
0010
0000
1000
0100
,  // measure 25
0010
0100
1000
0001
0100
1000
0100
0010
,  // measure 26
0100
0000
0001
0000
0010
0000
0001
0000
1000
0000
0000
0010
1000
0000
0001
0000
,  // measure 27
0010
1000
0010
0002
1000
1003
0100
1000
,  // measure 28
0001
0000
0000
0001
0000
0000
0001
0000
1000
0000
0000
0000
1000
0000
0100
0000
,  // measure 29
0010
0000
0000
0010
0000
0000
0010
0000
0001
0000
1000
0000
0010
0000
0100
0000
,  // measure 30
0001
0000
0000
0001
0000
0000
0001
0000
0100
0000
0000
0000
0001
0000
1000
0000
,  // measure 31
0010
0000
0000
0010
0000
0000
0010
0000
1000
0000
0100
0000
0010
0000
0001
0000
,  // measure 32
0011
0000
0000
0001
0010
0000
0001
0000
1000
0000
0000
0100
0000
0000
1000
0000
,  // measure 33
0001
0000
0000
0100
0001
0000
0010
0000
0100
0000
0000
0010
0000
0000
0001
0000
,  // measure 34
1000
0000
0000
0010
1000
0000
0001
0000
0100
0000
0000
0001
0000
0000
0010
0000
,  // measure 35
0100
0000
0000
1000
0010
0000
0100
0000
0001
0000
0010
0000
0100
0000
1000
0000
,  // measure 36
1100
0000
0000
1000
0100
0000
1000
0000
0001
0000
0100
0000
1000
0000
0100
0000
,  // measure 37
0001
0000
0000
1000
0010
0000
0100
0000
0001
0000
0010
0000
1000
0000
0010
0000
,  // measure 38
0001
0000
0000
1000
0100
0000
1000
0000
0001
0000
0100
0000
0001
0000
0010
0000
,  // measure 39
0100
0000
0000
0010
0001
0000
1000
0000
0100
0000
0001
0000
0100
0000
0010
0000
,  // measure 40
0001
0000
0000
0100
0001
0000
1000
0000
0001
0000
0010
0000
1000
0000
0010
0000
,  // measure 41
0001
0000
0000
0100
0001
0000
1000
0000
0100
0000
1000
0000
0001
0000
1000
0000
,  // measure 42
0010
0000
0000
0100
0010
0000
0100
0000
0001
0000
0010
0000
0100
0000
1000
0000
,  // measure 43
0001
0000
0000
1000
0010
0000
1000
0000
0100
0000
0001
0000
0100
0000
0010
0000
,  // measure 44
0011
0000
0000
0001
1000
0000
0001
0000
0100
0000
0000
0010
0100
0000
0001
0000
,  // measure 45
1000
0100
0010
0000
0100
0000
1000
0000
0001
0000
0100
0000
0001
0000
1000
0000
,  // measure 46
0010
0000
0100
0000
0001
0000
1000
0000
0001
0000
0000
0010
0100
0000
0010
0000
,  // measure 47
0001
1000
0001
0020
0000
0031
0020
0030
,  // measure 48
1010
0000
0000
1000
0001
0000
0010
0000
0100
0000
0000
0010
0001
0000
1000
0010
,  // measure 49
1000
0001
0010
0100
0001
0100
1000
0001
,  // measure 50
0100
0000
0001
0000
1000
0000
0001
0000
0010
0000
0000
0100
1000
0000
0001
0000
,  // measure 51
0010
1000
0010
0002
0000
0013
0200
0300
,  // measure 52
0110
0000
0000
0010
0001
0000
1000
0000
0001
0000
0100
0000
1000
0000
0100
0000
,  // measure 53
0001
0000
0000
1000
0010
0000
1000
0000
0001
0000
0100
0000
0001
0000
1000
0000
,  // measure 54
0010
0000
0000
0100
0001
0000
0010
0000
0100
0000
0001
0000
0100
0000
2000
0000
,  // measure 55
0000
3002
0010
0000
1003
0100
0001
0100
,  // measure 56
1000
0000
0000
0001
0100
0000
0001
0000
0010
0000
1000
0000
0010
0000
0100
0000
,  // measure 57
1000
0000
0000
0100
0010
0000
0100
0000
1000
0000
0001
0000
0100
0000
0001
0000
,  // measure 58
1000
0000
0000
0010
0100
0000
0001
0000
1000
0000
0001
0000
0100
0000
0020
0000
,  // measure 59
0000
2030
0001
0000
3100
1000
0001
0010
,  // measure 60
0011
0000
0000
0000
0000
0000
0000
0000
0000
0000
0000
0000
0000
0000
0000
0000
0000
0000
0010
0000
0000
0000
0000
0000
0001
0000
0000
1000
0000
0000
0000
0000
0001
0000
0000
0000
0000
0000
0100
0000
0000
0000
0001
0000
0000
0000
0000
0000
,  // measure 61
0000
0000
0000
0000
0000
0000
0000
0000
0000
0010
0000
0000
0100
0000
1000
0000
0000
0000
0000
0000
0000
0001
0000
0000
,  // measure 62
0100
0000
0000
0000
0001
0000
0000
0000
1000
0000
0000
0000
0000
0000
0000
0000
0000
0000
0000
0000
0000
0000
0000
0000
0000
0000
0000
0000
0000
0000
0000
0000
0000
0001
0000
0000
0010
0000
0000
0000
0000
0000
0100
0000
0000
0000
0000
0000
,  // measure 63
1000
0001
0000
0100
0001
0000
0000
0000
0000
0000
0000
0000
0000
0000
0000
0000
;

//---------------dance-single - ----------------
#NOTES:
     dance-single:
     X-Scale 10:
     Medium:
     7:
     0.434805,0.476395,0.057895,0.281206,0.165415,368.000000,361.000000,7.000000,34.000000,0.000000,0.000000,0.434805,0.476395,0.057895,0.281206,0.165415,368.000000,361.000000,7.000000,34.000000,0.000000,0.000000:
// measure 0
0000
0000
0000
0000
,  // measure 1
0000
0000
0000
0000
,  // measure 2
0001
0000
0000
0001
0000
0000
0000
0000
0001
0000
0000
0000
0000
0000
0000
0000
,  // measure 3
1000
0000
0000
1000
0000
0000
0000
0000
1000
0000
0000
0000
0000
0000
0000
0000
,  // measure 4
1001
0001
2000
0000
3200
0000
0310
0002
,  // measure 5
1000
0000
0000
1000
0003
0000
0000
0000
0001
0000
0000
0100
0010
0000
0100
0000
,  // measure 6
0001
0000
0000
0001
0000
0000
1000
0000
0100
0000
0000
0100
0010
0000
0200
0000
,  // measure 7
1000
0000
0000
1000
0300
0000
0000
0000
0100
0000
0000
1000
0000
0000
0001
0000
,  // measure 8
1000
0000
0000
0100
0000
0000
0010
0000
1000
0000
0000
0010
0000
0000
0001
0000
,  // measure 9
0100
0000
0000
0010
0000
0000
0100
0000
0001
0000
0000
1000
0000
0000
0001
0000
,  // measure 10
0010
1000
0010
0100
2000
0000
3100
0020
,  // measure 11
0001
0000
0000
0001
0000
0000
0030
0000
0010
0000
0000
0000
0100
0000
0000
0000
,  // measure 12
0110
0000
0100
0000
1000
0001
0100
0001
,  // measure 13
1000
0000
0100
0000
0010
0100
1000
0001
,  // measure 14
0100
0000
0010
0000
0100
0001
1000
0001
,  // measure 15
0010
0000
0100
0000
1000
0100
0001
0100
,  // measure 16
1000
0000
0000
0010
1000
0000
0001
0000
0100
0000
0010
0000
0100
0000
0001
0000
,  // measure 17
0010
0000
0000
0100
1000
0000
0001
0000
1000
0000
0100
0000
0001
0000
0100
0000
,  // measure 18
1000
0000
0000
0010
1000
0000
0001
0000
0100
0000
0010
0000
0100
0000
0001
0000
,  // measure 19
0010
0000
0000
0100
0010
0000
0100
0000
1000
0000
0001
0000
0100
0000
0010
0000
,  // measure 20
2010
0000
3001
0020
0002
0030
0103
0010
,  // measure 21
1000
0000
0000
0100
0010
0000
0100
0000
1000
0000
0000
0001
0100
0000
0001
0000
,  // measure 22
1000
0001
0020
0000
1000
0000
0031
0010
,  // measure 23
1000
0010
0100
2000
0000
3001
0200
0300
,  // measure 24
0002
0000
0000
0000
1003
0000
2000
0000
0200
0000
3000
0000
0310
0000
0001
0100
,  // measure 25
0001
1000
0010
0100
0010
0001
0010
0100
,  // measure 26
0010
1000
0020
0000
0001
0000
1030
0010
,  // measure 27
1000
0001
0100
0002
0000
0013
0200
0300
,  // measure 28
1000
0000
0000
1000
0000
0000
1000
0000
1000
0000
0000
0000
0000
0000
0000
0000
,  // measure 29
0001
0000
0000
0001
0000
0000
0001
0000
0001
0000
0000
0000
0000
0000
0000
0000
,  // measure 30
0010
0000
0000
0010
0000
0000
0010
0000
0010
0000
0000
0000
0000
0000
0000
0000
,  // measure 31
0100
0000
0000
0100
0000
0000
0100
0000
0100
0000
0000
0000
0000
0000
0000
0000
,  // measure 32
1010
0000
1000
0010
0100
0000
0001
0010
,  // measure 33
0100
0000
0010
0001
1000
0000
0010
1000
,  // measure 34
0001
0000
0100
0010
1000
0000
0100
0020
,  // measure 35
0001
0000
1000
0000
0031
0010
0001
0100
,  // measure 36
0000
0100
1000
0000
0001
0100
0010
0100
,  // measure 37
0001
0000
1000
0000
0100
0010
0001
1000
,  // measure 38
0001
0000
0100
0000
0010
0100
1000
0100
,  // measure 39
0010
0000
1000
0000
0001
0100
0010
2000
,  // measure 40
0000
3001
0010
0100
2000
0000
3100
0010
,  // measure 41
0001
0010
1000
0010
0002
0000
0100
0000
,  // measure 42
1003
0000
0100
0000
1000
0010
0100
0010
,  // measure 43
1000
0000
0001
0000
1000
0010
1000
0001
,  // measure 44
1001
0000
0000
1000
0100
0000
0100
0000
0010
0000
0000
0001
0100
0000
0001
0000
,  // measure 45
1000
0000
0000
0010
1000
0000
0001
0000
0100
0000
0000
0001
0010
0000
0001
0000
,  // measure 46
1000
0000
0100
0000
0010
0000
0000
0000
0001
0000
0000
0100
0001
0000
1000
0000
,  // measure 47
0010
0100
0001
0020
0000
0130
2000
3000
,  // measure 48
0100
0000
0000
0010
0100
0000
0010
0000
0001
0000
0000
1000
0010
0000
1000
0000
,  // measure 49
0001
0000
0000
0010
0100
0000
0010
0000
0001
0000
0000
1000
0001
0000
0010
0000
,  // measure 50
1000
0000
0010
0000
0100
0000
1000
0000
0001
0000
0000
0100
0010
0000
0100
0000
,  // measure 51
0001
1000
0100
0020
0000
0031
0200
0300
,  // measure 52
0110
0000
0000
0001
0000
0000
0001
0000
1000
0000
0000
0000
0010
0000
1000
0000
,  // measure 53
0001
0000
0000
0100
0000
0000
0100
0000
0010
0000
0000
0000
1000
0000
0001
0000
,  // measure 54
0010
0000
0000
0001
0000
0000
0001
0000
0100
0000
0000
0000
0010
0000
0100
0000
,  // measure 55
0001
1000
0100
2000
0000
3001
0020
0030
,  // measure 56
0110
0000
0000
1000
0000
0000
1000
0000
0001
0000
0000
0000
0100
0000
0001
0000
,  // measure 57
1000
0000
0000
0100
0000
0000
0100
0000
0010
0000
0000
0000
0001
0000
0100
0000
,  // measure 58
0001
0000
0000
0010
0000
0000
0010
0000
0100
0000
0000
0000
1000
0000
0001
0000
,  // measure 59
0100
0010
1000
0002
0000
0013
0200
0300
,  // measure 60
2000
0000
0000
0000
,  // measure 61
3002
0000
0000
0000
,  // measure 62
0203
0000
0000
0000
,  // measure 63
0302
0000
0000
0000
,  // measure 64
0003
0000
0000
0000
;

//---------------dance-single - ----------------
#NOTES:
     dance-single:
     X-Scale 6:
     Easy:
     4:
     0.297747,0.364740,0.082708,0.223310,0.000000,252.000000,242.000000,10.000000,27.000000,0.000000,0.000000,0.297747,0.364740,0.082708,0.223310,0.000000,252.000000,242.000000,10.000000,27.000000,0.000000,0.000000:
// measure 0
0000
0000
0000
0000
,  // measure 1
0000
0000
0000
0000
,  // measure 2
1000
0000
0001
0000
,  // measure 3
0100
0000
0010
0000
,  // measure 4
1001
0000
1000
0000
,  // measure 5
0100
0000
0010
0000
,  // measure 6
0001
0000
0100
0000
,  // measure 7
0010
0000
1000
0000
,  // measure 8
0001
0010
0002
0003
,  // measure 9
1000
0100
2000
3000
,  // measure 10
0001
0000
0100
0000
0020
0000
1030
0002
,  // measure 11
0010
0000
0000
0003
1000
0000
0000
0000
,  // measure 12
0101
0001
1000
0001
,  // measure 13
0010
0100
0010
0001
,  // measure 14
1000
0010
1000
0001
,  // measure 15
0100
0010
1000
0100
,  // measure 16
0010
0100
1000
0001
,  // measure 17
0100
0001
1000
0100
,  // measure 18
0010
0001
0100
0010
,  // measure 19
1000
0001
0000
0000
,  // measure 20
1001
0000
1000
0100
1000
0000
0001
0100
,  // measure 21
0001
0010
0100
1000
,  // measure 22
0001
1000
0002
0000
0010
0000
1003
0000
,  // measure 23
0010
0100
0010
0200
0000
0301
0020
0030
,  // measure 24
0011
0000
0010
0100
0010
0000
0001
0010
,  // measure 25
0001
1000
0010
1000
,  // measure 26
0001
0100
0002
0000
0010
0000
1003
0000
,  // measure 27
0100
0010
0100
0020
0000
0031
2000
3000
,  // measure 28
0100
0000
1000
0000
,  // measure 29
0001
0000
1000
0000
,  // measure 30
0010
0000
0100
0000
,  // measure 31
0001
0000
1000
0000
,  // measure 32
1001
0000
0001
0100
0002
0000
0003
0020
,  // measure 33
0000
0130
1000
0001
0200
0000
0000
0300
,  // measure 34
0001
0000
1000
0010
2000
0000
3100
0020
,  // measure 35
0001
0000
0130
0000
,  // measure 36
1001
0001
1000
0001
,  // measure 37
0100
0001
1000
0100
,  // measure 38
0010
0001
1000
0001
,  // measure 39
0010
0100
1000
0010
,  // measure 40
1000
0001
0010
0100
,  // measure 41
0010
0001
1000
0100
,  // measure 42
1000
0001
0100
0010
,  // measure 43
0100
0001
0000
0000
,  // measure 44
0110
0000
0100
0010
0100
0000
0001
0010
,  // measure 45
0001
0000
1000
0000
0010
0100
1000
0100
,  // measure 46
0010
1000
0002
0000
0010
0000
1003
0000
,  // measure 47
0001
0100
0001
0200
0000
0310
2000
3000
,  // measure 48
1010
0000
1000
0100
1000
0000
0001
0100
,  // measure 49
0001
0000
0010
0000
0100
0010
0001
1000
,  // measure 50
0010
1000
0002
0000
0010
0000
1000
0003
,  // measure 51
0001
0010
0001
0020
0000
0130
0020
0030
,  // measure 52
0011
0000
0001
0000
1000
0000
0010
1000
,  // measure 53
0001
0000
0010
0000
0100
0000
1000
0100
,  // measure 54
0010
0000
0001
0000
0100
0010
1000
0002
,  // measure 55
0003
0020
0000
0000
0130
0000
0010
0100
,  // measure 56
1000
0000
0001
0000
0100
0000
0010
0100
,  // measure 57
0001
0000
0010
0000
0100
0000
1000
0100
,  // measure 58
0010
0000
0001
0000
1000
0010
0100
0020
,  // measure 59
0030
2000
0000
0002
3000
0013
0200
0300
,  // measure 60
0110
0000
0000
0000
,  // measure 61
0010
0000
0000
0000
,  // measure 62
0001
0000
0000
0000
,  // measure 63
1000
0000
0000
0000
;

//---------------dance-single - ----------------
#NOTES:
     dance-single:
     X-Scale 2:
     Beginner:
     2:
     0.118154,0.156317,0.016542,0.000000,0.000000,100.000000,98.000000,2.000000,0.000000,0.000000,0.000000,0.118154,0.156317,0.016542,0.000000,0.000000,100.000000,98.000000,2.000000,0.000000,0.000000,0.000000:
// measure 0
0000
0000
0000
0000
,  // measure 1
0000
0000
0000
0000
,  // measure 2
0000
0000
0000
0000
,  // measure 3
0000
0000
0000
0000
,  // measure 4
0001
0000
0000
0000
,  // measure 5
0010
0000
0000
0000
,  // measure 6
0100
0000
0000
0000
,  // measure 7
1000
0000
0000
0000
,  // measure 8
0001
0000
0000
0000
,  // measure 9
0100
0000
0000
0000
,  // measure 10
0010
0000
0000
0000
,  // measure 11
1000
0000
0000
0000
,  // measure 12
0001
0000
1000
0000
,  // measure 13
0001
0000
0010
0000
,  // measure 14
0001
0000
1000
0000
,  // measure 15
0010
0000
1000
0000
,  // measure 16
0001
0000
1000
0000
,  // measure 17
0010
0000
0100
0000
,  // measure 18
0001
0000
1000
0000
,  // measure 19
0001
0000
0000
0000
,  // measure 20
1001
0000
1000
0000
,  // measure 21
0100
0000
1000
0000
,  // measure 22
0001
0000
0100
0000
,  // measure 23
0001
0000
0010
0000
,  // measure 24
0100
0000
0010
0000
,  // measure 25
0001
0000
1000
0000
,  // measure 26
0001
0000
0100
0000
,  // measure 27
0010
0000
0100
0000
,  // measure 28
0001
0000
0000
0000
,  // measure 29
0010
0000
0000
0000
,  // measure 30
0100
0000
0000
0000
,  // measure 31
1000
0000
0000
0000
,  // measure 32
0001
0000
0000
0000
,  // measure 33
1000
0000
0000
0000
,  // measure 34
0010
0000
0000
0000
,  // measure 35
0100
0000
0000
0000
,  // measure 36
0001
0000
1000
0000
,  // measure 37
0001
0000
0100
0000
,  // measure 38
0010
0000
1000
0000
,  // measure 39
0001
0000
1000
0000
,  // measure 40
0100
0000
1000
0000
,  // measure 41
0001
0000
0100
0000
,  // measure 42
0010
0000
0100
0000
,  // measure 43
0001
0000
0000
0000
,  // measure 44
1001
0000
1000
0000
,  // measure 45
0001
0000
0100
0000
,  // measure 46
0001
0000
1000
0000
,  // measure 47
0100
0000
1000
0000
,  // measure 48
0001
0000
0100
0000
,  // measure 49
0001
0000
0010
0000
,  // measure 50
0100
0000
0010
0000
,  // measure 51
0001
0000
1000
0000
,  // measure 52
0001
0000
0100
0000
,  // measure 53
0001
0000
1000
0000
,  // measure 54
0010
0000
1000
0000
,  // measure 55
0100
0000
0010
0000
,  // measure 56
0100
0000
1000
0000
,  // measure 57
0001
0000
0010
0000
,  // measure 58
0001
0000
1000
0000
,  // measure 59
0100
0000
1000
0000
,  // measure 60
0001
0000
0000
0000
,  // measure 61
0010
0000
0000
0000
,  // measure 62
0100
0000
0000
0000
,  // measure 63
1000
0000
0000
0000
;
