#TITLE:Cobra;
#SUBTITLE:;
#ARTIST:That Kid;
#TITLETRANSLIT:;
#SUBTITLETRANSLIT:;
#ARTISTTRANSLIT:;
#GENRE:Electropop;
#CREDIT:;
#BANNER:Cobra-bn.png;
#BACKGROUND:Cobra-bg.png;
#LYRICSPATH:;
#CDTITLE:cdtitle.png;
#MUSIC:Cobra.ogg;
#OFFSET:-0.003000;
#SAMPLESTART:26.304001;
#SAMPLELENGTH:13.151000;
#SELECTABLE:YES;
#BPMS:0.000000=146.000000
;
#STOPS:
;
#BGCHANGES:0.000=Cobra.avi=1.000=1=0=0=StretchNoLoop==CrossFade==,
99999=-nosongbg-=1.000=0=0=0 // don't automatically add -songbackground-
;
#KEYSOUNDS:;
#ATTACKS:;

//---------------dance-single - ----------------
#NOTES:
     dance-single:
     X-Scale 5:
     Beginner:
     3:
     0.186984,0.297475,0.007933,0.000000,0.000000,165.000000,164.000000,1.000000,0.000000,0.000000,0.000000,0.186984,0.297475,0.007933,0.000000,0.000000,165.000000,164.000000,1.000000,0.000000,0.000000,0.000000:
0000
0000
0000
0000
,
0000
0000
0000
0000
,
0000
0000
0000
0000
,
0000
0000
0000
0000
,
0000
0000
0000
0000
,
0000
0000
0000
0000
,
0000
0000
0000
0000
,
0000
0000
0000
0000
,
0000
0000
0001
0000
,
0000
0000
0000
0000
,
0000
0000
0100
0000
,
0000
0000
0000
0000
,
0000
0000
0010
0000
,
0000
0000
0000
0000
,
0000
0000
1000
0000
,
0000
0000
0000
0000
,
0001
0000
1000
0000
,
0000
0000
0010
0000
,
1000
0000
0000
0001
,
0000
0000
0100
0000
,
0001
0000
0100
0000
,
0000
0000
0010
0000
,
1000
0000
0010
0000
,
0000
0000
1000
0000
,
0001
0000
1000
0000
,
0000
0000
1000
0001
,
0100
0000
0010
0000
,
0100
0000
0001
0010
,
0100
0000
1000
0000
,
0001
0000
1000
0010
,
0100
0000
0001
0000
,
1000
0000
0100
0010
,
0001
0000
0000
0000
,
1000
0000
0010
0000
,
1000
0000
0000
0000
,
0001
0000
0100
0000
,
0001
0000
0000
0000
,
0100
0000
0010
0000
,
0100
0000
0000
0000
,
0001
0000
1000
0000
,
0001
0000
1000
0000
0000
1000
0010
0000
,
1000
0000
0100
0000
0000
0100
0010
0000
,
0001
0000
1000
0000
0000
1000
0001
0000
,
0100
0000
0001
0000
0000
0001
0010
0000
,
0100
0000
1000
0000
0000
1000
0001
0000
,
0100
0000
0001
0000
0000
0001
1000
0000
,
0100
0000
0010
0000
0000
0010
0001
0000
,
1000
0000
0001
0000
0000
0001
0100
0000
,
0001
0000
0010
0100
,
1000
0000
0010
1000
,
0001
0000
1000
0100
,
0010
0000
0100
0010
,
0001
0000
1000
0001
,
0100
0000
0010
0100
,
0001
0000
1000
0001
,
0100
0000
0001
0010
,
0100
0000
1000
0000
0000
0100
1000
0000
,
0001
0000
0100
0000
0000
0010
0100
0000
,
0001
0000
1000
0100
0000
0100
0010
0000
,
0001
0000
1000
0000
0000
0001
0100
0000
,
0001
0000
0010
0000
0000
0010
0100
0000
,
1000
0000
0001
0000
0000
0100
0001
0000
,
1000
0000
0100
0010
0000
0010
0001
0000
,
0100
0000
0000
0000
,
1001
0000
0000
0001
0100
0000
0000
0000
,
0001
0000
0000
0100
0010
0000
0000
0000
,
1000
0000
0000
0010
0100
0000
0000
0000
,
0001
0000
0000
0010
0001
0000
1000
0000
,
0001
0000
0000
0010
0100
0000
0000
0000
,
1000
0000
0000
0010
1000
0000
0000
0000
,
0001
0000
0000
0100
0001
0000
0000
0000
,
1000
0000
0000
0100
0010
0000
0001
0000
,
1000
0000
0000
0000
,
0100
0000
0000
0000
,
0010
0000
0000
0000
,
0001
0000
0000
0000
;

//---------------dance-single - ----------------
#NOTES:
     dance-single:
     X-Scale 7:
     Easy:
     5:
     0.334305,0.386718,0.047596,0.063461,0.000000,295.000000,289.000000,6.000000,8.000000,0.000000,0.000000,0.334305,0.386718,0.047596,0.063461,0.000000,295.000000,289.000000,6.000000,8.000000,0.000000,0.000000:
0000
0000
0000
0000
,
0000
0000
0000
0000
,
0000
0000
0000
0000
,
0000
0000
0000
0000
,
0000
0000
0000
0000
,
0000
0000
0000
0000
,
0000
0000
0000
0000
,
0000
0000
0000
0000
,
0000
0000
1000
0000
,
0001
0000
0100
0001
,
0010
0000
0100
0000
,
1000
0000
0001
0010
,
0100
0000
1000
0000
,
0001
0000
0100
0001
,
1000
0000
0010
0000
,
1000
0000
0100
0010
,
1001
0000
0000
0001
0100
0000
0001
0000
,
1000
0100
0000
0100
0010
0000
0001
0000
,
1000
0000
0000
0001
0100
0000
0001
0000
,
0010
0100
0010
0000
0110
0000
1001
0000
,
0110
0000
0000
0010
1000
0000
0001
0000
,
1000
0001
0000
0001
0100
0000
0001
0000
,
0010
0000
0000
0100
0010
0000
0001
0000
,
1000
0010
1000
0010
,
2010
0000
3001
0010
,
0100
0000
1000
0001
0200
0000
0302
0000
,
0013
0000
0000
0010
0100
0000
1000
0000
,
0001
0000
0100
0001
2000
0000
3200
0000
,
0310
0001
0020
0000
0130
0000
0010
0000
,
0001
0000
1000
0001
0100
0000
0001
0000
,
0010
0000
0010
0000
0100
0010
0001
0000
,
1000
0000
0001
0010
0200
0000
2300
0000
,
3001
0000
0000
0100
0001
0000
1000
0000
,
0001
0010
0000
0010
0100
1000
0001
0000
,
0100
0000
0000
0001
1000
0000
0100
0000
,
0010
0100
0010
0000
0001
0000
1000
0000
,
0001
0100
0000
0100
0010
0000
1000
0000
,
0100
0010
0001
0000
1000
0000
0001
0000
,
0010
0000
0000
0100
0010
0000
0001
0000
,
1000
0001
1000
0001
,
0100
0000
0001
0010
0100
0000
0010
0000
,
0001
0000
1000
0001
0100
0000
0001
0000
,
1000
0000
0010
1000
0001
0000
0100
0000
,
0001
0000
0010
0100
1000
0000
0001
0000
,
1000
0000
0100
0010
0001
0000
1000
0000
,
0001
0000
0010
0100
1000
0000
0001
0000
,
0100
0000
0010
0100
0001
0000
0010
0000
,
0100
0000
0010
0100
1000
0000
0001
0000
,
0100
0000
0001
0000
1000
0010
1000
0000
,
0100
0000
0010
0000
0001
0010
0001
0000
,
0100
0000
0001
0000
0010
0100
0010
0000
,
0001
0000
1000
0000
0010
0100
0010
0000
,
1000
0000
0100
0000
0010
0100
0010
0000
,
0001
0000
1000
0000
0001
0100
0001
0000
,
0010
0000
0100
0000
1000
0100
1000
0000
,
0001
0000
0100
0000
0010
0100
0010
0000
,
1000
0000
0001
0000
0100
0001
1000
0000
,
0100
0000
0010
0000
0100
0010
0001
0000
,
1000
0000
0001
0100
0000
0001
0100
0000
,
0010
0000
1000
0000
0001
1000
0100
0000
,
0010
0000
0001
0000
1000
0001
0100
0000
,
0001
0000
0010
0000
0100
0010
0001
0000
,
1000
0000
0100
0010
0000
0100
0010
0000
,
0001
0000
1000
0000
,
1001
0000
0001
0000
0100
0001
1000
0000
,
0010
0000
0100
0010
1000
0000
0001
0000
,
0010
0000
0100
0000
0010
0100
1000
0000
,
0001
0000
0100
0001
1000
0000
0100
0000
,
0010
0000
0001
0000
1000
0001
0100
0000
,
0001
0000
0010
0100
1000
0000
0001
0000
,
1000
0000
0010
0000
1000
0100
0010
0000
,
0001
0000
0010
0100
1000
0000
0001
0000
,
0100
0000
0000
0000
,
0001
0000
0000
0000
,
1000
0000
0000
0000
,
0100
0000
0000
0000
;

//---------------dance-single - ----------------
#NOTES:
     dance-single:
     X-Scale 11:
     Medium:
     8:
     0.448762,0.542594,0.166586,0.452162,0.107091,396.000000,375.000000,21.000000,57.000000,0.000000,0.000000,0.448762,0.542594,0.166586,0.452162,0.107091,396.000000,375.000000,21.000000,57.000000,0.000000,0.000000:
0000
0000
0000
0000
,
0000
0000
0000
0000
,
0000
0000
0000
0000
,
0000
0000
0000
0000
,
0000
0000
0000
0000
,
0000
0000
0000
0000
,
0000
0000
0000
0000
,
0000
0000
0000
0000
,
0000
0000
1100
0000
,
0001
1000
0010
1000
0200
0000
0320
0000
,
0030
0000
0000
0000
0001
0000
0100
0010
,
0001
0000
0001
0010
2000
0000
3002
0000
,
0003
0000
0000
0000
0010
0100
0001
0000
,
1000
0000
0100
0010
0002
0000
0203
0000
,
0300
0000
0001
0000
1000
0001
0200
0000
,
0310
1000
1010
0000
0002
0000
0020
0033
,
0011
0000
0001
0000
1000
0000
0010
1000
,
0200
0000
0320
0000
1030
0010
0002
0000
,
0203
0000
0000
0010
0310
0000
0100
0001
,
2000
0000
3200
0000
0301
0100
2000
0000
,
3002
0000
0000
0100
0103
0000
0001
0000
,
0100
0010
1000
0000
1010
0000
0001
0000
,
0021
0000
0000
0000
0000
0000
0100
0000
0130
0000
0010
0001
0010
0000
0100
0000
,
2000
0000
3001
1000
0020
0000
0230
0000
,
0302
0000
2000
3000
0103
0001
0020
0000
,
1030
0010
0100
0010
0002
0000
2003
0000
,
3010
0000
1000
0001
0100
0000
0001
0000
,
0100
0000
0001
0010
0200
0000
2300
0000
,
3010
0000
1000
0010
0001
1000
0100
0001
,
2000
0000
0000
0000
3100
0010
0000
0000
0012
0000
0000
0000
2003
0000
0000
0000
,
3010
0100
0010
0100
1000
0100
0002
0000
,
1003
0010
0001
0010
2000
0000
3002
0000
,
0013
0000
0100
0000
1001
0000
0001
1000
,
0020
0000
0031
0010
1000
0001
2000
0000
,
3200
0000
0000
0010
0310
0000
0100
1000
,
0020
0000
0032
0000
0013
1000
0002
0000
,
0203
0000
0000
0010
0310
0000
0100
0001
,
1000
0000
0100
0000
0010
0000
0100
0000
1000
0000
0000
0000
0001
0000
0100
0001
,
2000
0000
0000
0000
0000
0000
0100
0000
3100
0000
1000
0001
1000
0000
0010
0000
,
2000
0000
3001
0010
0200
0000
0320
0000
,
0031
0000
0101
0100
0000
0100
1001
0000
,
1000
0000
0000
0100
0010
0000
0001
0000
1000
0000
0001
0000
1001
0000
0000
0000
,
1000
0000
1100
0001
0000
0001
1001
0000
,
0001
0000
0000
0100
0001
0000
1000
0000
0001
0000
0000
0000
1000
0000
0001
1000
,
0001
0010
0011
0010
0000
0010
0110
0000
,
1000
0000
0000
0001
1000
0000
0010
0000
1000
0000
0100
0000
0010
0000
0100
0010
,
0100
0000
1001
0010
0000
0010
0011
0000
,
0010
0000
0000
0001
1000
0000
0010
0000
0001
0000
0000
0000
1000
0000
0100
0000
,
0001
0000
1001
0000
0010
0001
1000
0000
,
0001
0000
0000
0001
0100
0000
0010
0000
1000
0000
0001
0000
0010
0000
0000
0000
,
0100
0000
1100
0000
0001
1000
0100
0000
,
0010
0000
0000
0010
0001
0000
1000
0000
0001
0000
0010
0000
0100
0000
1000
0100
,
1000
0000
1100
0000
0001
1000
0010
0000
,
0100
0000
0000
0100
0010
0000
0100
0000
1000
0000
0100
0000
0001
0000
0000
0000
,
1000
0000
1001
0000
0010
1000
0001
0000
,
0010
0000
0000
0010
0100
0000
1000
0000
0001
0000
1000
0000
0100
0000
0000
0000
,
1001
0000
1000
0000
0001
0010
0100
0000
,
1000
0000
0000
1000
0010
0000
1000
0000
0001
0000
0100
0000
0002
0000
0000
0000
,
0203
0000
0010
0010
0300
0100
0100
0001
,
1000
0000
0000
0100
0010
0000
0100
0000
1000
0000
0001
0000
0020
0000
0000
0000
,
0032
0000
1000
0000
0013
0001
1000
0000
,
0010
0100
1000
0100
0020
0000
2030
0000
,
3200
0000
0000
0000
0010
0000
0010
0000
0300
0000
0100
1000
0100
0000
1000
0000
,
0002
0023
0230
0000
,
1300
0000
0000
0100
0000
0000
0010
0000
0001
0000
1000
0000
0001
0000
0000
0000
,
0010
0000
0000
0100
0000
0000
1000
0000
0010
0000
1000
0000
0001
0000
0000
0000
,
0100
0000
0000
0001
0000
0000
1000
0000
0010
0000
1000
0000
0001
0000
0000
0000
,
0010
0000
0000
0100
0000
0000
1000
0000
0100
0000
0010
0000
0001
0000
1000
0001
,
1000
0000
0000
0001
0000
0000
1000
0000
0010
0000
1000
0000
0001
0000
0000
0000
,
0010
0000
0000
0100
0000
0000
0001
0000
0100
0000
1000
0000
0001
0000
0000
0000
,
0010
0000
0000
0001
0000
0000
0100
0000
0001
0000
1000
0000
0001
0000
0000
0000
,
0100
0000
0000
0010
0000
0000
0100
0000
1000
0000
0100
0000
0001
0000
0000
0000
,
1000
0000
0001
0010
,
0100
0000
1000
0001
,
0100
0000
0010
0100
,
0001
0000
2000
0200
,
3300
0000
0000
0000
;

//---------------dance-single - ----------------
#NOTES:
     dance-single:
     X-Scale 14:
     Hard:
     9:
     0.576818,0.663171,0.269711,0.325239,0.230047,509.000000,475.000000,34.000000,41.000000,0.000000,0.000000,0.576818,0.663171,0.269711,0.325239,0.230047,509.000000,475.000000,34.000000,41.000000,0.000000,0.000000:
// measure 0
0000
0000
0000
0000
,  // measure 1
0000
0000
0000
0000
,  // measure 2
0000
0000
0000
0000
,  // measure 3
0000
0000
0000
0000
,  // measure 4
0000
0000
0000
0000
,  // measure 5
0000
0000
0000
0000
,  // measure 6
0000
0000
0000
0000
,  // measure 7
0000
0000
0000
0000
,  // measure 8
0000
0000
0000
0000
0001
0100
2000
3000
,  // measure 9
0001
0010
1000
0010
0200
0000
0302
0000
,  // measure 10
0003
0000
0000
0000
1000
0001
0100
0010
,  // measure 11
0002
0000
0013
1000
0200
0000
0320
0000
,  // measure 12
0034
0000
4003
0000
3100
0010
0002
0000
,  // measure 13
1003
0010
0001
1000
0200
0000
0302
0000
,  // measure 14
0003
0000
0001
0100
0010
1000
0200
0000
,  // measure 15
0301
0100
1000
0010
0200
0000
0002
0303
,  // measure 16
0101
0000
1000
0010
1010
0000
1000
0001
,  // measure 17
0020
0000
0000
0000
1030
0010
0001
0000
1001
0000
0100
0000
0002
0000
0000
0000
,  // measure 18
2003
0000
0000
0000
3001
0000
0010
0100
1000
0000
0000
0000
0001
0000
1000
0000
,  // measure 19
0001
0010
0100
0000
0010
0100
1000
0000
1100
0000
1000
0000
0001
1000
0001
0000
,  // measure 20
1001
0000
0001
0100
0101
0000
0001
0000
,  // measure 21
1000
0000
0001
0000
0100
0000
0010
0000
0110
0000
0000
0000
1000
0000
0010
1000
,  // measure 22
0010
0000
0100
0000
0001
0000
1000
0000
0100
1000
0100
0010
0100
0000
0000
0000
,  // measure 23
1000
0000
1000
0000
0001
0000
0001
0000
1001
0000
0001
0000
0010
0001
0010
0000
,  // measure 24
0012
0000
0100
0000
1003
0001
0200
0340
,  // measure 25
1030
0000
0100
0000
0010
0100
1000
0001
0200
0000
0000
0000
0301
0000
0001
1000
,  // measure 26
0001
0000
0100
0001
1000
0100
0020
0000
,  // measure 27
1030
0010
0001
0100
0040
0000
4030
0000
,  // measure 28
3100
0000
2000
0000
3001
0200
0000
0300
,  // measure 29
0010
0100
0001
0000
1000
0100
0010
0001
0100
0010
1000
0000
0001
0000
0000
0000
,  // measure 30
0101
0000
1100
0000
1001
1000
0010
1000
,  // measure 31
0001
0100
0001
0000
1000
0100
1000
0000
0001
0000
1000
0000
0400
0000
0300
0000
,  // measure 32
1100
0000
1000
0001
0101
0000
0001
1000
,  // measure 33
0002
0000
0000
0000
0103
0001
0100
0000
0101
0000
0001
0000
2000
0000
0000
0000
,  // measure 34
3001
0010
0000
0010
1001
0000
0100
0001
,  // measure 35
1000
0001
0100
0000
0001
0010
0100
0000
0110
0000
1000
0000
0001
1000
0001
0000
,  // measure 36
1001
0000
0100
1000
1100
0000
1000
0100
,  // measure 37
0001
0100
0010
0100
0002
0000
0203
0000
,  // measure 38
2300
0000
0000
0000
3100
0000
0010
0000
0001
0100
0001
0100
0001
0000
0001
0000
,  // measure 39
0010
0000
0010
0000
0100
0000
0100
0000
1100
0000
0001
0000
1000
0001
0100
0000
,  // measure 40
0101
0000
1001
0000
0001
0100
0101
0000
,  // measure 41
1000
0000
0000
0100
1000
0000
0001
0000
0100
0000
0001
0000
1000
0000
0000
0000
,  // measure 42
0100
0000
1001
0100
0000
0001
1000
0010
,  // measure 43
1000
0000
0000
0100
0010
0000
0001
0000
0100
0000
0001
0000
0010
0001
1000
0001
,  // measure 44
0010
0000
0011
0010
0000
0100
1000
0001
,  // measure 45
0100
0000
0000
0100
0001
0000
1000
0000
0010
0000
1000
0000
0001
0000
0100
0010
,  // measure 46
1000
0000
1001
0100
0000
0001
1000
0100
,  // measure 47
0010
0000
0000
0010
0001
0000
0010
0000
1000
0000
0001
0000
0100
0000
0010
0000
,  // measure 48
0001
1000
0001
0100
0002
0010
2003
0000
,  // measure 49
3001
0000
0000
0100
0010
0000
1000
0000
0002
0000
0100
0000
2003
0000
0000
0000
,  // measure 50
3001
1000
0000
0000
1100
0000
0100
0000
1000
0000
0001
0000
0010
0000
0100
0000
,  // measure 51
1000
0100
0000
0100
0001
0000
0100
0000
1000
0000
0100
0000
1000
0001
0100
0001
,  // measure 52
1000
0000
0010
0100
0001
1000
1001
0000
,  // measure 53
1000
0000
0000
0010
1000
0000
0001
0000
0100
0000
0010
0000
2000
0000
0000
0000
,  // measure 54
3100
0000
0010
0000
0100
0000
0000
1000
0100
0010
0000
0000
0001
0020
0000
0000
,  // measure 55
1000
0000
0031
0000
0001
0010
0100
0000
,  // measure 56
1100
0000
0101
0000
1000
0001
0011
0000
,  // measure 57
0101
0000
0000
0001
1000
0000
0001
0000
0100
0000
1000
0000
0200
0000
0000
0000
,  // measure 58
0302
0000
0100
1000
0003
1000
0001
1000
,  // measure 59
0010
0000
0000
0010
0100
0000
0010
0000
0001
0000
0010
0000
1000
0010
1000
0100
,  // measure 60
0010
0000
0011
0000
0001
0010
0100
0000
,  // measure 61
0010
0000
0000
0010
0001
0000
1000
0000
0001
0000
0100
0000
0010
0000
0000
0000
,  // measure 62
2000
0000
0000
0000
0001
0000
3100
0000
0000
0000
0100
1000
0001
0000
1000
0000
,  // measure 63
0010
1000
0004
0100
,  // measure 64
1003
0000
0100
0010
0000
0000
0100
0000
1000
0000
0001
0000
0100
0000
1000
0000
,  // measure 65
0100
0000
0001
0100
0000
0000
0010
0000
0001
0000
0010
0000
0100
0000
0001
0000
,  // measure 66
1000
0000
0001
0100
0000
0000
0010
0000
1000
0000
0100
0000
0001
0000
1000
0000
,  // measure 67
0010
0000
0100
0010
0000
0000
0001
0000
1000
0000
0010
0000
1000
0001
1000
0001
,  // measure 68
1000
0000
0100
0010
0000
0000
1000
0000
0010
0000
0001
0000
0100
0000
0001
0000
,  // measure 69
0010
0000
0100
1000
0000
0000
0100
0000
0001
0000
0100
0000
1000
0000
0001
0000
,  // measure 70
1000
0000
0010
0100
0000
0000
0010
0000
0001
0000
0010
0000
1000
0000
0001
0000
,  // measure 71
0010
0000
0100
0001
0000
0000
0100
0000
1000
0000
0010
0000
1010
0000
1000
0000
,  // measure 72
0001
0100
0010
0001
0020
0000
2030
0000
,  // measure 73
3010
0100
1000
0100
0002
0000
2003
0000
,  // measure 74
3100
0000
1000
0000
0001
0010
1000
0000
,  // measure 75
0001
0000
0100
0010
0002
0000
2000
0000
,  // measure 76
3003
0000
0000
0000
;
