#TITLE:City Lights;
#SUBTITLE:;
#ARTIST:Blanche;
#TITLETRANSLIT:;
#SUBTITLETRANSLIT:;
#ARTISTTRANSLIT:;
#GENRE:Indie Pop;
#CREDIT:;
#BANNER:city lights-bn.png;
#BACKGROUND:city lights-bg.png;
#LYRICSPATH:;
#CDTITLE:cdtitle.png;
#MUSIC:city lights.ogg;
#OFFSET:-0.007000;
#SAMPLESTART:83.084000;
#SAMPLELENGTH:23.077000;
#SELECTABLE:YES;
#BPMS:0.000000=65.000000
,21.000000=130.000000
,151.000000=65.000000
,155.000000=130.000000
,213.000000=65.000000
;
#STOPS:
;
#BGCHANGES:0.000=city lights.avi=1.000=1=0=0=StretchNoLoop==CrossFade==,
99999=-nosongbg-=1.000=0=0=0 // don't automatically add -songbackground-
;
#KEYSOUNDS:;
#ATTACKS:;

//---------------dance-single - ----------------
#NOTES:
     dance-single:
     X-Scale 8:
     Medium:
     6:
     0.377946,0.403723,0.150925,0.257460,0.013317,298.000000,281.000000,17.000000,29.000000,0.000000,0.000000,0.377946,0.403723,0.150925,0.257460,0.013317,298.000000,281.000000,17.000000,29.000000,0.000000,0.000000:
0000
0000
0000
0000
,
0000
0000
0000
0000
,
0000
0000
0000
0000
,
0110
0100
0000
0010
1000
0001
0001
1000
,
0000
0100
0000
0010
0011
0001
0000
0010
,
0001
1000
1001
0000
0001
0000
1000
0001
,
0100
0000
0010
0000
1000
0000
0010
1000
,
0001
0000
0100
0000
0001
0000
1000
0010
,
0100
0000
0001
0000
1000
0000
0100
0010
,
0001
1000
0110
0000
0100
0010
1000
0000
,
0001
0000
0001
0100
0010
0000
0000
0010
,
1000
0002
1000
0003
0001
0010
0100
0010
,
0001
0000
1000
0010
0100
0000
0000
0001
,
0100
0000
0101
0000
0001
1000
0100
1000
,
0001
0000
0010
0100
0010
0000
0000
0010
,
0001
2000
0010
3000
1000
0001
0020
0000
,
0031
0200
0010
0300
0100
0001
2000
0000
,
3000
1000
1100
0000
1000
0100
0010
0000
,
0100
0010
0002
0000
0003
0001
1000
0000
,
1000
0000
0000
0010
0100
0000
0100
0001
,
1000
0000
1001
0000
0001
0010
0100
0000
,
0010
0100
2000
0000
3020
0000
2030
0000
,
0001
3000
1000
0010
1000
0000
0100
0010
,
0001
0000
0011
0000
0001
0010
1000
0000
,
1000
0010
0002
0000
0103
0001
1000
0000
,
1000
0000
0000
0010
0100
0000
0100
0010
,
1000
0000
1010
0000
1000
0100
0001
0000
,
0001
0100
2000
0000
3002
0000
2003
0000
,
0010
3000
0000
0100
0110
0000
0000
0001
,
0101
0000
0000
1000
0010
0100
0001
0010
,
0001
0010
0100
0000
0110
0000
0010
0001
,
1000
0000
0000
1000
0000
0000
0010
0000
0100
0000
0000
0000
0100
0000
0001
0000
,
1000
0000
0001
0010
0001
0000
1000
0000
,
0010
0000
0000
0100
0000
0000
0010
0000
1000
0000
0100
0000
1000
0000
0001
0000
,
1000
0010
0100
0000
0001
0000
1000
0001
,
1000
0000
0000
0010
0000
0000
0100
0000
0010
0000
2000
0000
0001
0000
3000
0000
,
1000
0100
0020
0000
0031
0200
0001
0300
,
0100
0010
0200
0000
0000
0310
0110
0100
,
0001
1000
0001
0010
0100
0010
0110
0000
,
0010
0001
0010
0000
0001
0010
1000
0000
,
0010
0100
1000
0010
0000
0100
0001
0000
,
1000
0100
0000
0010
0001
0000
1100
0000
,
0001
0010
0001
0000
1000
0010
2000
0000
,
3002
0000
2003
0001
3000
1000
0001
0000
,
0010
0100
0000
0010
0100
0000
0110
0000
,
0010
0001
1000
0000
0100
0010
0001
0000
,
0010
0001
0100
0001
0000
1000
0100
0000
,
0010
0001
0000
0100
0001
0000
1100
0000
,
1000
0001
0010
0000
0001
0010
0200
0000
,
0320
0000
0032
1000
0003
0001
1000
0000
,
0100
0010
0000
0100
0010
0001
2000
0000
,
3002
0000
2003
0010
3000
1000
0010
0000
,
0100
0010
0000
1000
0010
0100
0002
0000
,
0023
0230
0300
0000
;

//---------------dance-single - ----------------
#NOTES:
     dance-single:
     X-Scale 12:
     Hard:
     9:
     0.552968,0.712453,0.044390,0.142047,0.439457,436.000000,431.000000,5.000000,16.000000,0.000000,0.000000,0.552968,0.712453,0.044390,0.142047,0.439457,436.000000,431.000000,5.000000,16.000000,0.000000,0.000000:
0000
0000
0000
0000
,
0000
0000
0000
0000
,
0000
0000
0000
0000
,
1001
0000
0001
1000
0001
0000
1000
0100
0001
0000
0100
0010
0001
0000
1000
0000
,
0010
0000
0100
0000
0001
0000
0010
0000
0011
0000
0001
0010
0001
0000
1000
0100
,
1000
0000
0010
0000
1010
0000
1000
0001
1000
0000
0000
0001
0000
0001
0100
0000
,
0001
0000
0000
0000
0010
0000
0001
0100
0001
0000
0000
0100
0000
0100
0001
0000
,
1000
0000
0100
0000
1000
0000
0010
0100
0010
0000
0000
0100
0000
0100
0001
0000
,
1000
0000
0000
0000
0001
0000
1000
0001
1000
0000
0000
0100
0000
0100
0040
0000
,
0001
0000
0000
0000
0130
0000
0010
0000
0001
0000
1000
0100
0000
1000
0100
0000
,
0010
0000
0001
0000
1000
0001
0000
0100
0010
0000
0000
1000
0000
1000
0010
0000
,
0100
0000
0001
0000
1000
0000
0100
0000
0010
0000
0100
1000
0000
0100
1000
0000
,
0001
0000
0100
0000
0010
0100
0000
0001
0010
0000
0000
0100
0000
0100
1000
0000
,
0001
0000
1000
0000
0100
0000
0001
0000
0100
0000
1000
0010
0000
1000
0001
0000
,
1000
0000
0100
0000
0010
0001
0000
1000
0010
0000
0000
0100
0000
0100
0010
0000
,
1000
0000
0001
0000
0010
0000
0001
0000
1000
0000
0010
0100
0000
0010
0100
0000
,
0001
0000
1000
0000
0010
0100
0000
0100
0001
0000
0010
0000
0001
0010
0100
1000
,
0001
0010
0100
1000
0001
0000
1000
0000
0001
0000
0100
0000
1000
0000
0100
0000
,
0001
0000
0000
0010
0000
0000
0002
0000
0000
0000
0000
0000
1003
0000
0000
0001
0000
0000
1000
0000
0100
0000
0010
0000
,
0001
0100
0010
1000
0001
0100
0010
1000
0100
0010
0001
1000
,
0001
0000
1000
0100
1000
0000
0100
0000
0001
0000
0100
0000
0010
0000
0001
0000
,
0010
0100
2000
0000
3002
0000
2003
0000
,
0001
3000
1000
0010
1000
0000
0100
0010
,
0001
0000
0000
0010
0001
0010
0001
0000
0000
1000
0000
0000
0001
0000
0000
0010
0000
0000
1000
0000
0000
0010
0000
0000
,
0100
0000
0000
1000
0000
0000
0002
0000
0000
0000
0000
0000
0103
0000
0000
0001
0000
0000
1000
0000
0100
0000
0010
0000
,
0001
1000
0010
0100
0001
0010
0001
1000
0100
1000
0010
0100
,
0001
0000
0100
0010
0100
0000
0010
0000
0001
0000
0010
0000
1000
0000
0010
0000
,
0100
0010
2000
0000
3200
0000
0320
0000
,
0001
0030
0001
0010
0001
0000
1000
0010
,
1000
0000
0004
0000
0010
0000
0013
0001
,
1000
0001
0100
0001
0001
0000
0010
0001
,
1000
0000
1000
0010
0000
0000
1000
0000
0100
0000
0001
0000
0100
0000
0010
0000
,
0100
1000
0001
0100
0010
0001
0010
0100
,
0001
0000
1000
0010
0000
0000
1000
0000
0001
0000
0100
0000
1000
0000
0100
0000
,
0010
0100
0001
0010
0001
0000
1000
0001
,
1000
0000
0010
1000
0000
0000
0100
0000
0010
0000
0001
0000
1000
0000
0000
0000
,
0001
0100
0001
0000
1000
0010
1000
0000
,
0100
0000
0000
0000
0010
0000
0000
0000
0001
0000
0010
0000
0100
0000
1000
0000
0001
0000
0010
0000
0100
0000
1000
0000
0010
0100
0000
0001
0010
0000
0000
1000
,
0000
1000
0100
0000
1000
0000
0000
0000
0001
0100
0000
0001
0010
0000
0000
0100
0000
0100
1000
0000
0100
0000
0000
0000
1100
0000
0000
0000
1000
0000
0000
0000
,
0010
0001
0010
1000
0100
0010
0002
0000
,
0013
0001
1000
0010
1000
0100
0010
0100
,
1000
0000
0000
0000
0000
0000
0001
0000
0000
0100
0000
0000
0001
0000
0000
0000
0000
0000
0001
0000
0000
1000
0000
0000
0001
0000
0000
0000
0000
0000
0100
0000
0001
0000
0100
0000
0001
0000
0000
0000
0000
0000
0010
0000
0000
0000
0000
0000
,
0100
0010
0001
0100
0010
1000
0002
0000
,
0013
0001
0010
1000
0010
0001
1000
0100
,
1000
0000
0001
0100
0001
0000
0010
0100
0010
0000
0100
0000
0110
0000
0000
0000
,
0010
0001
1000
0001
0010
0100
2000
0000
,
3100
1000
0100
0001
1000
0010
0001
1000
,
0001
0000
0000
0000
0000
0000
0100
0000
0000
0001
0000
0000
0100
0000
0000
0000
0000
0000
0001
0000
0000
1000
0000
0000
0001
0000
0000
0000
0000
0000
1000
0000
0100
0000
1000
0000
0100
0000
0000
0000
0000
0000
0000
0000
0000
0000
0000
0000
,
0010
0100
1000
0100
0010
1000
0200
0000
,
2300
0000
0000
0000
3001
0000
1000
0000
0001
0000
0010
0001
0010
0000
0100
0000
,
1000
0000
0010
1000
0010
0000
0100
0010
0100
0000
0010
0000
0200
0000
0000
0000
,
0304
0000
1003
0100
0001
0100
0010
0001
,
1000
0000
0001
0100
0001
0000
1000
0100
1000
0000
0100
0000
0020
0000
0000
0000
,
0430
2300
3000
0000
;

//---------------dance-single - ----------------
#NOTES:
     dance-single:
     X-Scale 4:
     Easy:
     3:
     0.280289,0.332478,0.035512,0.381751,0.000000,221.000000,217.000000,4.000000,43.000000,0.000000,0.000000,0.280289,0.332478,0.035512,0.381751,0.000000,221.000000,217.000000,4.000000,43.000000,0.000000,0.000000:
// measure 0
0000
0000
0000
0000
,  // measure 1
0000
0000
0000
0000
,  // measure 2
0000
0000
0000
0000
,  // measure 3
2000
0000
0000
0000
3200
0000
2300
0001
,  // measure 4
0000
0100
0000
0001
3002
1000
0000
0100
,  // measure 5
0203
0001
0301
0000
1000
0000
0000
0000
,  // measure 6
0001
0010
0001
0000
,  // measure 7
1000
0010
1000
0000
,  // measure 8
0100
0000
0010
0000
0100
0000
0000
2000
,  // measure 9
0000
3010
1000
0000
,  // measure 10
0001
0010
0001
0000
,  // measure 11
1000
0100
1000
0000
,  // measure 12
0001
0100
0001
0000
,  // measure 13
0010
0100
0010
0000
,  // measure 14
0001
1000
0001
0000
,  // measure 15
1000
0200
0000
0000
1300
0000
0100
0000
,  // measure 16
0010
0002
0000
0000
1003
0000
0200
0000
,  // measure 17
0000
0310
0110
0000
0010
0000
0001
0000
,  // measure 18
1000
0010
0200
0000
0301
0010
0200
0000
,  // measure 19
1300
0100
1000
0001
,  // measure 20
1000
0001
0100
0010
,  // measure 21
1000
0100
0020
0000
0032
0000
2003
0000
,  // measure 22
3001
0010
0001
1000
,  // measure 23
0100
1000
0010
0100
,  // measure 24
0010
0100
0002
0000
1003
0100
0020
0000
,  // measure 25
0031
1000
0001
0010
,  // measure 26
0100
1000
0010
0100
,  // measure 27
0001
0010
0200
0000
2300
0000
3002
0000
,  // measure 28
1003
0100
1100
0010
,  // measure 29
0011
0000
0000
2000
0000
0000
3001
0000
,  // measure 30
1000
0000
0100
0010
0001
0000
1000
0000
,  // measure 31
0010
0000
0100
0001
1000
0000
0001
0000
,  // measure 32
0010
0000
0100
1000
0002
0000
1003
0000
,  // measure 33
0100
0000
0010
0001
1000
0000
0001
0000
,  // measure 34
0100
0000
0010
1000
0001
0000
1000
0000
,  // measure 35
0100
0000
0010
0001
1000
0002
0100
0003
,  // measure 36
0001
0100
0020
0000
1030
0020
0001
0030
,  // measure 37
0100
0010
2000
0000
0000
3002
2000
0003
,  // measure 38
0000
0000
0000
3100
,  // measure 39
1000
0000
0001
0000
1000
0100
0020
0000
,  // measure 40
0031
0100
0020
0000
1030
0000
0001
0000
,  // measure 41
0100
0010
0000
1000
0001
0000
1000
0000
,  // measure 42
0100
0000
1000
0000
0001
0010
0200
0000
,  // measure 43
0320
0032
1003
0010
,  // measure 44
0100
0001
0000
1000
0001
0000
1001
0000
,  // measure 45
0010
0000
1000
0000
0001
0100
0020
0000
,  // measure 46
1030
0100
0020
0000
0031
0000
1000
0000
,  // measure 47
0010
0100
0000
0001
0010
0000
0100
0000
,  // measure 48
1000
0000
0010
0000
0100
0001
2000
0000
,  // measure 49
3200
0320
0031
1000
,  // measure 50
0001
0000
0100
0000
0010
1000
0002
0000
,  // measure 51
0023
0230
1300
0001
,  // measure 52
0100
0000
0010
0000
1000
0100
0020
0000
,  // measure 53
0032
2003
3000
0000
;

//---------------dance-single - ----------------
#NOTES:
     dance-single:
     X-Scale 2:
     Beginner:
     1:
     0.124291,0.165462,0.008878,0.000000,0.000000,98.000000,97.000000,1.000000,0.000000,0.000000,0.000000,0.124291,0.165462,0.008878,0.000000,0.000000,98.000000,97.000000,1.000000,0.000000,0.000000,0.000000:
// measure 0
0000
0000
0000
0000
,  // measure 1
0000
0000
0000
0000
,  // measure 2
0000
0000
0000
0000
,  // measure 3
1000
0000
0000
0001
,  // measure 4
0000
0000
1000
0000
,  // measure 5
0000
0100
0000
0000
,  // measure 6
0000
1000
0000
0000
,  // measure 7
0000
0001
0000
0000
,  // measure 8
0000
0010
0000
0000
,  // measure 9
0000
0001
0000
0000
,  // measure 10
0000
1000
0000
0000
,  // measure 11
0000
0010
0000
0000
,  // measure 12
0000
1000
0000
0000
,  // measure 13
0000
0001
0000
0000
,  // measure 14
0000
0010
0000
0000
,  // measure 15
0000
0100
0000
0000
,  // measure 16
0000
1000
0000
0000
,  // measure 17
0000
0001
0000
0000
,  // measure 18
0000
1000
0000
0100
,  // measure 19
0100
0000
0010
0000
,  // measure 20
0001
0001
0000
0000
,  // measure 21
0000
1000
0000
0100
,  // measure 22
0100
0000
0010
0000
,  // measure 23
0001
0001
0000
0000
,  // measure 24
0000
1000
0000
0100
,  // measure 25
0100
0000
1000
0000
,  // measure 26
0001
0001
0000
0000
,  // measure 27
0000
0100
0000
0010
,  // measure 28
0010
0000
1000
0000
,  // measure 29
0001
0000
0000
1000
,  // measure 30
0000
0000
0001
1000
,  // measure 31
0001
0000
0010
0100
,  // measure 32
0010
0000
0001
0100
,  // measure 33
0001
0000
1000
0100
,  // measure 34
1000
0000
0010
0100
,  // measure 35
0010
0000
1000
0001
,  // measure 36
1000
0000
0001
0010
,  // measure 37
0001
0000
0000
1000
,  // measure 38
0000
0000
0000
0101
,  // measure 39
0000
0000
0000
0001
,  // measure 40
0000
1000
1000
0000
,  // measure 41
0010
0000
1000
1000
,  // measure 42
0000
0000
0000
0001
,  // measure 43
0100
0001
0001
0000
,  // measure 44
0010
0000
0100
0100
,  // measure 45
0000
0000
0000
1000
,  // measure 46
0000
0001
0001
0000
,  // measure 47
0100
0000
0010
0010
,  // measure 48
0000
0000
0000
1000
,  // measure 49
0100
1000
1000
0000
,  // measure 50
0010
0000
0100
0010
,  // measure 51
1000
0001
0001
0000
,  // measure 52
0010
0000
0100
1000
,  // measure 53
0001
1000
0000
0000
;
