#TITLE:Circle with Me;
#SUBTITLE:;
#ARTIST:Spiritbox;
#TITLETRANSLIT:;
#SUBTITLETRANSLIT:;
#ARTISTTRANSLIT:;
#GENRE:Metalcore;
#CREDIT:;
#BANNER:Circle with Me-bn.png;
#BACKGROUND:Circle with Me-bg.png;
#LYRICSPATH:;
#CDTITLE:cdtitle.png;
#MUSIC:Circle with Me.ogg;
#OFFSET:-0.007000;
#SAMPLESTART:65.567001;
#SAMPLELENGTH:18.732000;
#SELECTABLE:YES;
#BPMS:0.000000=102.500000
,138.000000=210.000000
,202.000000=105.000000
;
#STOPS:12.000000=1.756000,
105.000000=1.756000
;
#BGCHANGES:0.000=Circle with Me.avi=1.000=1=0=0=StretchNoLoop==CrossFade==,
99999=-nosongbg-=1.000=0=0=0 // don't automatically add -songbackground-
;
#KEYSOUNDS:;
#ATTACKS:;

//---------------dance-single - ----------------
#NOTES:
     dance-single:
     X-Scale 3:
     Beginner:
     2:
     0.123858,0.167982,0.017694,0.000000,0.000000,98.000000,96.000000,2.000000,0.000000,0.000000,0.000000,0.123858,0.167982,0.017694,0.000000,0.000000,98.000000,96.000000,2.000000,0.000000,0.000000,0.000000:
0000
0000
0000
0000
,
0000
0000
0000
0000
,
0000
0000
0000
0000
,
0000
0001
0000
1000
,
0000
0010
0000
1000
,
0000
0001
0000
0010
,
0000
0100
0000
0010
,
0000
0001
0000
1000
,
0000
0010
0000
1000
,
0000
0001
0000
1000
,
0000
0100
0000
0010
,
0000
0001
0000
0000
,
0000
0000
1000
0000
,
0100
0000
1000
0000
,
0001
0000
0100
0000
,
0001
0000
0010
0000
,
0100
0000
1000
0000
,
0001
0000
1000
0000
,
0100
0000
1000
0000
,
0001
0000
1000
0000
,
0000
0000
0001
0000
,
0010
0000
0100
0000
,
1000
0000
0010
0000
,
0100
0000
0001
0000
,
1000
0000
0100
0000
,
1000
0000
0001
0000
,
0100
0000
1001
0000
,
1000
0000
0000
0000
,
0001
0000
0100
0000
,
0001
0000
0000
0000
,
1000
0000
0001
0000
,
1000
0000
0000
0000
,
0100
0000
0010
0000
,
0001
0000
0000
0000
,
1000
0000
0001
0000
,
0010
0000
0100
0000
,
1000
0000
0001
0000
,
0100
0000
0001
0000
,
1000
0000
0010
0000
,
1000
0000
0001
0000
,
0100
0000
0001
0000
,
1000
0000
0100
0000
,
0010
0000
0001
0000
,
0100
0000
0001
0000
,
0010
0000
0100
0000
,
1000
0000
0001
0000
,
0100
0000
0001
0000
,
1000
0000
0010
0000
,
1000
0000
0001
0000
,
0000
0000
0010
0000
,
0000
0000
0100
0000
,
1000
0000
0001
0000
,
1000
0000
0100
0000
,
0010
0000
0001
1000
,
0001
1001
0000
0000
;

//---------------dance-single - ----------------
#NOTES:
     dance-single:
     X-Scale 7:
     Easy:
     5:
     0.334921,0.433944,0.300797,0.398114,0.000000,265.000000,231.000000,34.000000,45.000000,0.000000,0.000000,0.334921,0.433944,0.300797,0.398114,0.000000,265.000000,231.000000,34.000000,45.000000,0.000000,0.000000:
0000
0000
0000
0000
,
0000
0000
0000
0000
,
0000
0000
0000
0000
,
0000
0000
1000
0100
1000
0000
0001
0000
,
0101
0000
0001
1000
0001
0000
0100
0000
,
1001
0000
1000
0100
1000
0000
0010
0000
,
0110
0000
0100
0100
0001
0001
1000
1000
,
0100
0100
0010
0001
1000
0000
0100
0000
,
1001
0000
1000
0001
0100
0000
0010
0000
,
0101
0000
0001
0010
0100
0000
1000
0000
,
1001
0000
0001
0001
1000
1000
0100
0100
,
0010
0010
0012
0000
0000
0000
0000
0000
,
0000
0000
1003
0000
1001
0000
0001
0200
,
0000
0302
0000
2003
0000
3000
0100
0020
,
0000
0032
0000
0003
0011
0000
0010
0200
,
0000
2300
0000
3002
0000
0203
0000
0320
,
0000
0230
0000
0300
1001
0000
1000
0020
,
0000
2030
0000
3002
0000
0003
0010
0002
,
0000
2003
0000
3000
1010
0000
0010
0100
,
0001
0010
0100
0010
0002
0000
1003
0001
,
0010
0001
1000
0200
0300
2000
3000
0001
,
0010
0100
1000
0010
0100
0002
0003
0100
,
0001
1000
0100
0010
0001
0100
0001
0020
,
0030
0100
1000
0001
0100
0020
0030
1000
,
0100
0010
0011
0000
1001
1000
0100
1000
,
0001
0010
0100
0010
0001
2000
3000
0010
,
1000
0001
2002
3003
0110
0000
0100
0000
,
1001
0000
1000
1100
0000
0102
0000
0000
,
1003
0001
0010
0200
0000
0000
1300
0001
,
0101
0000
0001
2001
0000
0000
3100
0020
,
0000
0000
0031
1000
1100
0000
0100
0000
,
1001
0000
0001
0101
0000
2010
0000
0000
,
3001
1000
0100
0020
0000
0000
0130
1000
,
1001
0000
0001
0201
0000
0000
0310
2000
,
0000
3100
0020
0000
0031
0000
0000
0000
,
1000
0010
1000
0000
,
0001
0011
0000
2100
,
0000
0000
3001
0010
,
0100
0010
0001
0000
,
1001
0000
1000
0010
,
0100
0002
0000
0000
,
1003
0010
0100
0001
,
0010
0001
1000
0000
,
1001
0000
0001
0100
,
0010
0110
0000
1002
,
0000
0000
0103
0001
,
0010
0200
0000
0000
,
1300
0001
0101
0100
,
0010
2000
0000
0000
,
3100
0020
0001
0000
,
0001
0000
0030
0000
0101
0000
0100
0001
,
1000
0000
0100
1000
0001
0000
0010
0100
,
1000
0001
0100
0001
1000
0000
0100
0010
,
0001
0000
1000
0001
0200
0000
0302
0000
,
0023
0230
0300
0000
;

//---------------dance-single - ----------------
#NOTES:
     dance-single:
     X-Scale 11:
     Medium:
     8:
     0.430974,0.506268,0.203480,0.353879,0.163669,341.000000,318.000000,23.000000,40.000000,0.000000,0.000000,0.430974,0.506268,0.203480,0.353879,0.163669,341.000000,318.000000,23.000000,40.000000,0.000000,0.000000:
0000
0000
0000
0000
,
0000
0000
0000
0000
,
0000
0000
0000
0000
,
0000
0000
0000
0000
0001
0000
0010
0000
1000
0000
0010
0000
0001
0100
0000
0000
,
0001
0100
0000
0000
0010
0000
1000
0000
0001
0000
1000
0000
0010
0100
0000
0000
,
0010
0100
0000
0000
0001
0000
0010
0000
1000
0000
0010
0000
0001
1000
0000
0000
,
0001
1000
0000
0000
0100
0010
0001
0000
1001
0000
1000
0000
0100
1000
0000
0001
,
0000
1000
0001
1000
0001
0000
0100
0000
0010
0000
1000
0000
0100
0010
0000
0000
,
0100
0010
0000
0000
0001
0000
1000
0000
0010
0000
1000
0000
0001
0100
0000
0000
,
0001
0100
0000
0000
0010
0000
1000
0000
0100
0000
0010
0000
0001
0010
0000
0000
,
0001
0010
0000
0000
0100
1000
0100
0000
1100
0000
1000
0000
0001
0100
0000
0010
,
0000
0100
0001
0100
0002
0000
0000
0000
0000
0000
0000
0000
0000
0000
0000
0000
,
0013
0000
0010
0100
1000
0000
0001
0000
1001
0000
0000
0000
0001
0000
0200
0000
,
0000
0320
0000
2030
0100
3000
1000
0001
,
0100
0020
0000
0030
1001
1000
0100
0001
,
0100
2000
0000
3020
0000
0032
0000
0203
,
0000
2300
0001
3000
1001
0000
1000
0100
,
0010
0002
0000
2003
0100
3000
1000
0001
,
0010
0200
1000
0300
1100
0000
1000
0010
,
0100
0000
0001
0000
0010
0000
0100
0000
2000
0000
0000
0000
3001
1000
0000
0001
,
1000
0000
0100
0010
0001
0000
0000
1000
0100
0000
1000
0000
0001
0000
0100
0000
,
1000
0000
0010
0000
0001
0000
0000
1000
0100
0000
1000
0000
0001
0000
0100
0000
,
0001
0000
1000
0000
0010
0000
0000
1000
0100
0000
1000
0000
0001
0000
0100
0000
,
1000
0000
0100
0000
0001
0000
0000
0010
0100
0000
1000
0000
0001
0000
0100
0000
,
1000
0000
0010
0000
0001
0000
0000
0010
0001
0000
1000
0000
0010
0000
1000
0000
,
0001
0000
0100
0000
0010
0000
0000
1000
0100
0000
1000
0000
0001
0000
0010
0000
,
0100
1000
2200
0000
0000
3300
0100
0010
,
0001
1000
0010
2020
3030
0012
0000
0000
,
0103
0001
0010
0200
1000
0000
0310
0100
,
1100
1000
0001
0201
0000
0000
0310
0100
,
0001
1000
0000
0001
1000
0000
0100
0000
1010
0000
0000
0000
1000
0000
0010
0000
,
0001
0010
1000
2002
3003
0201
0000
0000
,
0310
0100
0001
0020
0100
0000
0031
1000
,
1001
0001
0100
0120
0000
0000
1030
0010
,
1000
0100
0000
1000
0001
0000
0000
0010
0100
0000
1000
0000
0000
0000
0001
0000
,
0100
0000
0010
0000
1000
0100
0000
1000
,
0001
0202
0303
2000
,
0100
0000
3001
1000
,
0010
0000
0010
0100
0001
0010
0000
0100
,
1000
0000
0001
0010
0100
0000
0010
0001
,
1000
0010
1002
0000
0100
0000
0000
0000
,
1003
0000
0000
0010
1000
0000
0001
0000
,
0010
0000
0100
0010
0001
0100
0000
0010
,
0100
0000
0001
0000
1000
0100
0000
1000
,
0001
2002
3003
0200
,
1000
0000
0310
0100
,
1000
0000
0001
1000
0001
0000
0000
0100
,
0010
0000
0000
1000
0100
0000
1000
0000
,
0001
0000
0010
0001
0010
0000
0100
0000
,
1000
0001
0101
0100
,
0010
0000
1000
0000
2001
0001
0000
0000
,
3100
0100
0020
0000
0031
0001
0100
0000
,
0101
0001
1000
0100
1001
0010
0002
0000
,
0103
0100
0001
0010
0002
0000
0203
0000
,
2300
3020
0031
0000
;

//---------------dance-single - ----------------
#NOTES:
     dance-single:
     X-Scale 16:
     Hard:
     11:
     0.663523,0.770571,0.309644,0.079623,0.707758,525.000000,490.000000,35.000000,9.000000,0.000000,0.000000,0.663523,0.770571,0.309644,0.079623,0.707758,525.000000,490.000000,35.000000,9.000000,0.000000,0.000000:
// measure 0
0000
0000
0000
0000
,  // measure 1
0000
0000
0000
0000
,  // measure 2
0000
0000
0000
0000
,  // measure 3
0000
0000
0000
0000
1000
0010
0100
0001
0010
0100
1000
0010
1000
0001
0000
0100
,  // measure 4
0001
1000
0000
0100
0010
0001
1000
0010
0001
0010
0100
0010
1000
0001
0000
0100
,  // measure 5
0010
0001
1000
0100
0010
0100
0001
0010
0100
0010
0001
1000
0001
0100
0000
0010
,  // measure 6
0100
0001
0000
0010
0100
1000
0010
0000
0010
0000
0100
0000
0100
0001
1000
0001
,  // measure 7
0000
1000
0100
0010
0001
1000
0010
0100
0001
0010
0100
0010
0001
0100
0000
0100
,  // measure 8
0010
0000
1000
0000
0000
0000
1000
0000
0010
0000
0100
0000
1000
0000
0100
0000
0010
0000
0100
0000
0001
0000
0010
0000
0001
0000
1000
0000
0000
0000
0100
1000
,  // measure 9
0100
0000
1000
0000
0001
0000
0100
0000
0001
0000
1000
0000
0100
0000
0001
0000
1000
0000
0010
0000
0001
0000
0100
0000
0001
0000
0010
0000
0000
0000
0100
0010
,  // measure 10
0100
0010
0000
0000
0001
1000
0001
0000
1001
0000
1000
0000
0100
1000
0001
0100
,  // measure 11
1000
0000
0100
0000
0001
0000
1000
0000
0001
0000
0000
0000
0000
1000
0000
0000
0000
0000
1000
0000
0000
0000
0000
0000
1000
0000
0000
0000
0000
0000
0100
1000
,  // measure 12
0100
1000
0001
0100
0001
0010
0000
0010
1000
0001
0000
1000
0010
0000
1000
0000
,  // measure 13
1010
0000
0010
1000
0001
0000
0000
0010
0001
0000
0100
0000
0010
0000
1000
0001
,  // measure 14
1000
0100
0000
0100
0001
0000
1000
0001
1000
0000
0001
0000
0010
0000
1000
0010
,  // measure 15
0001
0000
0001
0010
0100
0000
0000
1000
0100
0000
1000
0000
0001
0000
0100
0001
,  // measure 16
1000
0000
0001
0000
1000
0100
0001
0100
1000
0000
0001
0000
1000
0000
0000
0001
,  // measure 17
1000
0100
0000
0100
0001
0000
1000
0001
0010
0000
0100
0000
1000
0000
0001
0100
,  // measure 18
0010
1000
0000
1000
0100
0000
1000
0001
0100
0001
0000
0010
0100
0000
1000
0100
,  // measure 19
1000
0000
0001
0010
0100
0000
0000
0100
1000
0000
0001
0000
1000
0100
0000
0100
,  // measure 20
0001
1000
0001
0100
0001
0000
0000
0010
0100
0000
1000
0000
0001
0000
1000
0010
,  // measure 21
0100
0001
0000
0000
1001
0000
0000
0010
0001
0000
1000
0000
0001
0000
0100
0001
,  // measure 22
1000
0010
0100
0001
1000
0000
0000
0010
1000
0000
0001
0000
0010
0000
0100
1000
,  // measure 23
0001
0100
0000
0100
1000
0000
0001
0100
0001
0000
0100
0000
0010
0000
0000
1000
,  // measure 24
0100
0000
0100
0010
0001
0000
0000
0010
0100
0000
0010
0000
0001
0000
0100
0001
,  // measure 25
1000
0001
0000
0000
0100
0000
0001
0010
0100
0000
0010
0000
0001
0000
1000
0001
,  // measure 26
0010
0001
1000
0001
2002
0000
3003
0000
1010
0000
0000
0000
1000
0000
0010
0000
,  // measure 27
1010
0000
1000
0000
0001
0000
0012
0000
0000
0000
2003
0000
0100
0100
0000
0100
,  // measure 28
3100
0000
1000
0000
0001
0000
0010
0000
1001
0010
0000
0010
1000
0000
0100
0000
,  // measure 29
1100
0000
1000
0000
0001
0000
0011
0000
0001
0010
0000
0010
1000
0000
0001
0000
,  // measure 30
1000
0100
0000
0100
0001
0000
1000
0000
1001
0001
0000
1000
0100
0000
1000
0000
,  // measure 31
1010
0000
0010
0000
0100
0000
0120
0000
0000
0000
2030
0000
0100
0100
0000
0100
,  // measure 32
3100
0000
1000
0000
0001
0100
0000
0100
1000
0001
0000
0100
0001
0000
1000
0000
,  // measure 33
1001
0000
0000
1000
0000
0000
0010
0000
0000
0110
0000
0000
0100
0000
0000
0001
0100
0001
0100
0000
0000
0010
0000
0000
,  // measure 34
1100
1000
0000
0001
0101
0000
0001
1000
1100
0000
1000
0000
0000
0000
0001
0000
,  // measure 35
0100
0000
0000
0000
0001
0010
0001
0000
1000
0000
1000
0000
0001
1000
0001
0000
,  // measure 36
0100
0010
1010
0000
1000
0100
0000
0000
,  // measure 37
0011
0000
0000
0010
0001
0010
0001
0000
0000
0011
0000
0000
,  // measure 38
0001
0100
1000
0001
0010
1000
0001
0100
,  // measure 39
0010
1000
0010
0100
0010
0001
0010
1000
,  // measure 40
0001
1000
1001
0000
0100
1000
0000
0000
,  // measure 41
1010
0000
0000
0010
1000
0010
1000
0000
0000
0001
0000
0000
,  // measure 42
0010
0000
0000
0100
0000
0000
1000
0000
0100
0000
1000
0000
0100
0000
0000
1000
0000
0000
0000
0000
0000
0001
0000
0000
,  // measure 43
0100
0000
0001
0000
1000
0001
1000
0000
0100
0000
0010
0000
0001
0100
0001
0000
,  // measure 44
1000
0100
1100
0000
0001
1000
0000
0000
,  // measure 45
1001
0000
0000
0001
1000
0001
1000
0000
0000
0100
0000
0000
,  // measure 46
1000
0010
0001
1000
0100
0001
0000
1000
,  // measure 47
0001
0000
0010
0100
1000
0001
0000
0100
,  // measure 48
0001
1000
0100
1000
1100
0000
0100
0000
,  // measure 49
1010
0000
1000
0000
1001
0001
0010
0100
,  // measure 50
1000
0010
0100
0001
0101
0001
2000
0010
,  // measure 51
3010
0000
1000
0000
0200
0000
0310
0000
0110
0000
0010
0000
0001
1000
0001
0000
,  // measure 52
1001
0000
0001
0000
0010
0000
0100
0000
1100
0000
1000
0000
0001
1000
0001
0000
,  // measure 53
0101
0000
0000
0000
0000
0000
0100
0000
0000
0000
0000
0000
0020
0000
0000
0000
0000
0000
1030
0000
0000
0000
0000
0000
1010
0000
0000
0000
0000
0000
1000
0000
0000
0000
0000
0000
0001
0000
0000
0010
0000
0000
0100
0000
1000
0000
0100
0000
,  // measure 54
1000
0010
1000
0000
0001
0100
0000
0101
0000
0000
0000
0000
0000
0000
0000
0000
;
