#VERSION:0.83;
#TITLE:Chrysanthemum;
#SUBTITLE:;
#ARTIST:Kanallia;
#TITLETRANSLIT:;
#SUBTITLETRANSLIT:;
#ARTISTTRANSLIT:;
#GENRE:Trancestep;
#ORIGIN:;
#CREDIT:;
#BANNER:Chrysanthemum-bn.png;
#BACKGROUND:Chrysanthemum-bg.png;
#PREVIEWVID:;
#JACKET:Chrysanthemum-jacket.png;
#CDIMAGE:;
#DISCIMAGE:;
#LYRICSPATH:;
#CDTITLE:cdtitle.png;
#MUSIC:Chrysanthemum.ogg;
#OFFSET:-0.005000;
#SAMPLESTART:74.123001;
#SAMPLELENGTH:14.118000;
#SELECTABLE:YES;
#BPMS:0.000=136.000;
#STOPS:;
#DELAYS:;
#WARPS:;
#TIMESIGNATURES:0.000=4=4;
#TICKCOUNTS:0.000=4;
#COMBOS:0.000=1;
#SPEEDS:0.000=1.000=0.000=0;
#SCROLLS:0.000=1.000;
#FAKES:;
#LABELS:0.000=Song Start;
#BGCHANGES:0.000=Chrysanthemum.avi=1.000=1=0=0=StretchNoLoop==CrossFade==,
99999=-nosongbg-=1.000=0=0=0 // don't automatically add -songbackground-
;
#KEYSOUNDS:;
#ATTACKS:
;

//---------------dance-single - ----------------
#NOTEDATA:;
#CHARTNAME:X-Scale 7;
#STEPSTYPE:dance-single;
#DESCRIPTION:;
#CHARTSTYLE:;
#DIFFICULTY:Easy;
#METER:5;
#RADARVALUES:0.295157,0.345068,0.086088,0.258263,0.000000,288.000000,276.000000,12.000000,36.000000,0.000000,0.000000,0.000000,0.000000,0.000000,0.295157,0.345068,0.086088,0.258263,0.000000,288.000000,276.000000,12.000000,36.000000,0.000000,0.000000,0.000000,0.000000,0.000000;
#CREDIT:iamthek3n;
#NOTES:
0000
0000
0000
0000
,
0000
0000
0000
0000
,
0021
0000
0000
0230
0000
0000
2300
0000
,
0001
0000
0010
0000
,
3002
0000
0000
0203
0000
0000
0320
0000
,
1000
0000
0100
0000
,
1030
0000
0010
0000
0100
0000
0001
0010
,
1000
0010
0100
1000
,
1000
0010
1000
0001
1000
0010
1000
0001
,
1000
0000
0000
0200
0000
0000
0310
0000
,
0110
0000
0001
1000
0001
0000
0100
0000
,
0001
0010
0100
0000
0010
0100
1000
0000
,
0001
0000
1000
0010
1000
0000
0100
0000
,
0010
0100
1000
0000
0001
0010
0100
0000
,
1000
0000
0001
1000
0001
0000
0010
0000
,
0001
1000
0010
0000
0100
0001
1000
0000
,
0100
0000
0010
0100
0010
0000
0001
0000
,
1001
0000
0000
2000
0000
0000
3100
0000
,
1001
0000
0010
1000
0001
0000
0100
0000
,
0010
0100
0001
0000
1000
0001
0100
0020
,
0000
1030
0010
0200
0000
0300
0001
2000
,
0000
3001
0010
0200
0000
0300
1000
0010
,
1000
0100
0010
0001
,
0100
0000
0010
0000
1000
0000
0001
0020
,
0000
0130
0010
0002
0000
0003
1000
0020
,
0000
0130
0001
2000
0000
3100
1100
0000
,
2000
0000
0000
3002
0000
0000
0023
0000
,
0000
0000
0000
0000
,
0230
0000
0000
2300
0000
0000
3002
0000
,
0000
0000
0000
0000
,
0023
0000
0000
0032
0000
0000
2003
0000
,
0000
0000
0000
0000
,
3200
0000
0000
0320
0000
0000
0032
0000
,
0000
0000
0000
0003
,
1000
0000
0010
0000
,
1000
0000
0001
0000
,
1000
0000
0100
0000
,
0010
0000
0001
0000
,
0100
0000
0001
0000
,
0010
0000
0100
0000
,
1000
0000
0001
0000
,
1000
0000
0010
0000
,
1010
0000
1000
0000
0001
0000
0010
0100
,
1000
0000
0100
0000
0010
0000
0001
1000
,
0010
0000
1000
0000
0001
0000
0100
0001
,
1000
0100
0010
0100
1000
0000
0001
0100
,
0001
0000
0010
0000
0100
0000
1000
0100
,
1000
0000
0010
0000
0100
0000
0001
0100
,
0001
0010
0100
1000
,
1001
0000
0000
0001
0100
0010
1000
0000
,
0100
1000
0001
1000
,
0100
0010
0001
1000
,
0001
0010
0100
0010
,
0001
1000
0020
0000
,
0130
0000
0010
0000
1000
0000
0001
0100
,
0001
0000
0010
0000
0100
0000
1000
0100
,
2000
0000
0002
0000
,
3003
0000
0000
0000
,
0110
0000
1010
1000
,
0001
0000
1000
0000
0001
0000
0010
0100
,
1000
0001
0100
0001
,
1000
0000
0010
0000
1000
0000
0100
0010
,
0002
0003
1001
1000
,
0010
0000
1000
0000
0001
0000
0010
0100
,
1000
0001
0100
0001
,
1000
0000
0100
0000
0010
0000
0100
0010
,
0002
0000
0000
1003
1001
0000
0001
0000
,
0100
0000
0010
0000
0100
0000
0001
0010
,
0100
1000
0001
0100
,
0010
0000
1000
0000
0100
0000
0010
0100
,
2000
0000
0000
3002
0000
0000
0023
0000
,
0100
0001
0100
0001
,
0130
1000
0001
0100
,
0010
0000
0000
0000
1000
0001
1000
0000
,
1001
0000
0000
0000
;

//---------------dance-single - ----------------
#NOTEDATA:;
#CHARTNAME:X-Scale 13;
#STEPSTYPE:dance-single;
#DESCRIPTION:;
#CHARTSTYLE:;
#DIFFICULTY:Medium;
#METER:9;
#RADARVALUES:0.523699,0.681526,0.121957,0.165001,0.498590,511.000000,494.000000,17.000000,23.000000,0.000000,0.000000,0.000000,0.000000,0.000000,0.523699,0.681526,0.121957,0.165001,0.498590,511.000000,494.000000,17.000000,23.000000,0.000000,0.000000,0.000000,0.000000,0.000000;
#CREDIT:iamthek3n;
#NOTES:
0000
0000
0000
0000
,
0000
0000
0000
0000
,
1001
0000
1000
0100
1000
0000
0001
0100
,
0001
0010
1000
0100
,
0001
0000
0000
0010
0000
0000
1000
0000
0000
0100
0000
0000
0001
0000
0100
0000
,
0001
1000
0100
0010
,
1001
0000
0000
0100
0000
0000
0001
0000
0000
1000
0000
0000
0010
0000
0100
0000
,
0010
0000
1000
0000
0010
0000
1000
0001
,
1000
0100
0010
0001
0100
0010
1000
0001
,
0002
0000
0000
2000
0000
0000
3003
0000
,
1001
0000
0100
1000
0001
1000
0100
0000
,
0010
0000
0001
0010
0000
0001
0000
0000
1000
0000
0100
1000
0000
0001
0000
0000
,
0100
0000
0001
0010
1000
0010
0001
0010
,
0100
0000
0100
1000
0000
1000
0000
0000
0001
0000
0100
0010
0000
0000
0100
0000
,
0001
0000
1000
0100
0001
0100
1000
0010
,
1000
0000
0100
0010
0000
0010
0000
0000
0001
0000
1000
0100
0000
1000
0000
0000
,
0001
0000
0100
0010
0001
0010
1000
0001
,
2000
0000
0000
3100
0020
0001
0031
0000
,
1001
0000
0000
1000
0100
0000
1000
0000
0001
0000
0100
0000
1000
0000
0100
0000
,
0001
0000
0001
0100
0000
0100
0000
0000
0001
0000
1000
0100
0000
0100
0000
0000
,
1001
0000
0000
0001
1000
0000
0100
0000
0001
0000
0100
0000
0010
0000
0001
0000
,
1000
0000
1000
0001
0000
0001
0000
0000
0010
0100
0010
0100
0010
0000
0001
0000
,
1001
0000
0000
1000
0010
0000
1000
0000
0001
0000
0100
0000
0001
0000
1000
0000
,
0001
0100
0001
0100
0000
0010
0000
0000
1000
0010
1000
0010
0000
0100
0000
0000
,
0001
0010
1000
0010
0100
1000
0001
0100
,
0010
0000
0100
0001
0000
1000
0000
0000
0010
1000
0010
0000
1010
0000
0000
0000
,
0002
0000
0000
2003
0000
0000
3200
0000
,
0000
0000
0000
0000
,
0320
0000
0000
0100
0000
0000
0230
0000
0000
1000
0000
0000
2300
0000
0000
0100
,
0000
0000
0001
0000
0000
0100
0000
0000
0001
0000
0000
0000
0000
0000
0000
0000
,
3002
0000
0000
0100
0000
0000
0203
0000
0000
0010
0000
0000
0320
0000
0000
0100
,
0000
0000
1000
0000
0000
0100
0000
0000
0001
0000
0000
0000
0000
0000
0000
0000
,
0032
0000
0000
0010
0000
0000
0023
0000
0000
1000
0000
0000
2030
0000
0000
0000
,
0002
0000
0000
3003
,
1000
0000
0000
0100
0000
1000
0000
0000
0001
0000
0000
0100
0000
0000
0010
0000
,
0010
0000
0000
1000
0000
0001
0000
0000
0010
0000
0000
0100
0000
0000
1000
0000
,
0001
0000
0000
0100
0000
0010
0000
0000
0100
0000
0000
0001
0000
0000
1000
0000
,
1000
0000
0000
0100
0000
1000
0000
0000
0001
0000
0000
0001
0000
0000
0100
0000
,
0001
0000
0000
0010
0000
0100
0000
0000
1000
0000
0000
0001
0000
0000
0100
0000
,
0100
0000
0000
0010
0000
0100
0000
0000
0001
0000
0000
0010
0000
0000
0100
0000
,
1000
0000
0000
0001
0000
1000
0000
0000
0100
0000
0000
0010
0000
0000
0001
0000
,
0001
0000
0000
0100
0000
0010
0000
0000
1010
0000
0000
1001
0000
0000
0011
0000
,
0010
0001
0000
1000
0000
0010
0000
0000
1000
0000
0000
0001
0000
0000
0100
0001
,
0100
0000
0000
0010
0000
1000
0000
0000
0001
0000
0000
0100
0000
0000
0010
1000
,
0010
0000
0000
1000
0000
0100
0000
0000
1000
0000
0000
0001
0000
0000
0010
0001
,
0010
0000
0000
0100
0000
1000
0000
0000
0001
0000
0000
0100
0000
0000
0010
0100
,
0010
0000
0000
1000
0000
0010
0000
0000
1000
0000
0000
0001
0000
0000
0010
0000
,
0100
0010
0000
0001
0000
1000
0000
0000
0010
0000
0000
1000
0000
0000
0001
0100
,
0001
0000
0000
0010
0000
0100
0000
0000
1000
0000
0000
0100
0000
0000
1000
0000
,
1100
0000
0000
0100
0000
0100
0000
0000
0010
0000
0001
0000
1000
0000
0001
0000
,
0010
0000
0000
0100
0000
0000
1000
0000
0000
0001
0000
0000
0100
0000
0010
0000
,
0100
0000
0000
0001
0000
0000
1000
0000
0100
1000
0000
0000
0001
0000
0100
0000
,
0001
0000
0000
0010
0000
0000
1000
0000
0000
0100
0000
0000
0001
0000
1000
0000
,
0001
0000
0000
1000
0000
0000
0100
0000
0010
0001
0000
0001
1000
0001
1000
0000
,
1000
0001
0100
0001
1000
0100
0001
0100
,
1000
0010
0100
0010
1000
0001
0100
0001
,
1000
0100
1000
0100
1000
0100
1000
0100
0010
0001
0010
0001
0010
0001
0010
0001
,
2000
0000
0000
0000
0000
0000
0000
0000
0100
0000
0000
0010
0000
0000
3001
0000
,
1001
0000
0000
0001
0000
0100
0001
0000
0101
0000
0000
0000
0100
0000
0010
0000
,
1000
0000
0001
0000
0010
0000
0100
0000
0010
0000
0001
0000
1000
0001
1000
0000
,
0100
1000
0001
0100
1000
0100
0001
0010
,
0100
0000
1000
0000
0001
0000
0100
0000
0010
0000
1000
0000
0100
0010
0100
0000
,
1001
0000
0000
1000
0000
1000
0001
0000
1001
0000
0000
0000
0100
0000
0001
0000
,
1000
0000
0100
0000
0001
0000
0100
0000
0010
0000
0001
0000
1000
0001
1000
0000
,
0010
0100
1000
0100
0010
1000
0001
0010
,
0100
0000
0010
0000
0001
0000
1000
0000
0010
0000
0100
0000
0001
1000
0001
0000
,
2001
0000
0000
3200
1000
0000
0310
0100
,
1000
0000
0001
0000
0100
0000
0010
0000
0100
0000
0001
0000
1000
0001
1000
0001
,
1000
0100
0001
0100
0010
0001
1000
0001
,
0100
0000
0010
0000
1000
0000
0001
0000
0010
0000
0100
0000
1000
0100
1000
0100
,
1000
0000
0010
1000
0001
0000
0010
0100
,
1000
0000
0000
0000
0001
0000
1000
0000
0010
0000
0000
0100
0010
0000
1000
0000
,
0100
1000
0100
1000
0100
1000
0100
1000
0001
0100
0001
0100
0001
0100
0001
0100
,
0020
0000
0001
0000
1030
0100
1000
0000
,
2200
0000
0000
0000
,
0000
0000
0000
0000
,
3300
0000
0000
0000
;

//---------------dance-single - ----------------
#NOTEDATA:;
#CHARTNAME:X-Scale 15;
#STEPSTYPE:dance-single;
#DESCRIPTION:;
#CHARTSTYLE:;
#DIFFICULTY:Hard;
#METER:10;
#RADARVALUES:0.638483,0.708787,0.193697,0.086088,0.681526,623.000000,596.000000,27.000000,12.000000,16.000000,0.000000,0.000000,0.000000,0.000000,0.638483,0.708787,0.193697,0.086088,0.681526,623.000000,596.000000,27.000000,12.000000,16.000000,0.000000,0.000000,0.000000,0.000000;
#CREDIT:iamthek3n;
#NOTES:
// measure 0
0000
0000
0000
0000
,  // measure 1
0000
0000
0000
0000
,  // measure 2
1100
0000
0000
0001
0000
0000
0100
0001
,  // measure 3
0010
1000
0001
0100
,  // measure 4
1000
0000
0001
0100
0001
0000
1000
0100
,  // measure 5
0010
0100
2000
0000
0001
0000
3010
0100
,  // measure 6
0110
0000
1000
0001
0010
0000
0100
0010
,  // measure 7
0001
0000
0100
0001
0000
1000
0001
1000
0000
0010
1000
0010
0000
0000
0100
0000
,  // measure 8
0001
1000
0001
0100
1000
0100
0010
0100
,  // measure 9
0001
1000
0000
0001
0000
0010
0200
0000
0000
0000
1000
0000
1300
0000
0100
0000
,  // measure 10
1100
0000
0000
1000
0100
0000
1000
0000
0001
0000
0010
0100
0010
0000
0001
0000
,  // measure 11
1000
0010
0100
0010
M000
0010
0001
0000
0100
0001
1000
0100
00M0
0100
0001
0000
,  // measure 12
0101
0000
0000
0001
1000
0000
0010
0000
1000
0000
0100
0010
0001
0000
1000
0000
,  // measure 13
0001
0100
0010
0100
000M
0100
1000
0000
0001
1000
0010
1000
0001
0000
0100
0001
,  // measure 14
1000
0000
0000
0100
1000
0000
0001
0000
0100
0000
0001
0010
0001
0000
1000
0000
,  // measure 15
0100
1000
0001
0100
00M0
0100
1000
0000
0001
0010
0001
0100
00M0
0100
1000
0000
,  // measure 16
1100
0000
0000
1000
0001
0000
0100
0000
0001
0000
0010
0100
0010
0000
0001
0000
,  // measure 17
1000
0010
0000
1000
0000
0001
0010
0000
0100
0000
0010
0000
0001
0000
1000
0001
,  // measure 18
1000
0000
0000
0100
0010
0000
0100
0000
1000
0000
0001
0010
0100
0000
0010
0000
,  // measure 19
0001
1000
0010
0100
000M
0100
1000
0000
0001
1000
0100
0010
000M
0010
1000
0000
,  // measure 20
0001
0000
0000
0100
0001
0000
1000
0000
0010
0000
0100
0010
0100
0000
0001
0000
,  // measure 21
1000
0001
1000
0100
00M0
0100
0001
0000
1000
0001
1000
0010
0M00
0010
0001
0000
,  // measure 22
0011
0000
0000
0000
0101
0000
0001
0000
1000
0000
0000
0100
1000
0000
0001
0000
,  // measure 23
0010
0001
1000
0010
0000
0100
0000
0001
0010
0100
0010
0001
0000
1000
0010
0000
,  // measure 24
1000
0001
0100
0001
1000
0100
0010
0100
,  // measure 25
1000
0010
1000
0001
0000
0010
0000
0000
0100
1000
0100
0000
2000
0000
0000
0000
,  // measure 26
3001
0000
0000
0001
0000
0000
0100
0000
0000
0100
0000
0000
0010
0000
0000
0010
,  // measure 27
0000
0000
1000
0000
0000
1000
0000
0000
1000
0000
0000
0000
0000
0000
0000
0000
,  // measure 28
0100
0000
0000
0100
0000
0000
0010
0000
0000
0010
0000
0000
0001
0000
0000
0001
,  // measure 29
0000
0000
0100
0000
0000
0100
0000
0000
0100
0000
0010
0100
0001
0000
1000
0100
,  // measure 30
0010
0000
0000
0010
0000
0000
0001
0000
0000
0001
0000
0000
1000
0000
0000
1000
,  // measure 31
0000
0000
0100
0000
0000
0100
0000
0000
0100
0000
0000
0000
0000
0000
0000
0000
,  // measure 32
0001
0000
0000
0001
0000
0000
1000
0000
0000
1000
0000
0000
0100
0000
0000
0000
,  // measure 33
2002
0000
0000
3003
,  // measure 34
0001
0000
0000
0010
0000
0001
0000
0000
1000
0000
0000
0010
0M00
0000
0010
0000
,  // measure 35
0001
0000
0000
1000
0000
0001
0000
0000
0010
0000
0000
0100
0000
0000
0100
0010
,  // measure 36
0001
0000
0000
1000
0000
0001
0000
0000
0100
0000
0000
0010
0M00
0000
0010
0000
,  // measure 37
0001
0000
0000
1000
0000
0010
0000
0000
1000
0000
0000
0001
0000
0000
0010
0100
,  // measure 38
1000
0000
0000
0001
0000
0100
0000
0000
0001
0000
0000
0010
0M00
0000
0010
0000
,  // measure 39
1000
0000
0000
0100
0000
0010
0000
0000
0001
0000
0000
1000
0000
0000
0010
1000
,  // measure 40
0010
0000
0000
0100
0000
0001
0000
0000
1000
0000
0000
0001
0000
0000
0100
0000
,  // measure 41
0100
0000
0000
0010
0000
1000
0000
0000
0001
0000
0000
0001
0000
0000
1000
0000
,  // measure 42
0100
1000
0000
0100
0010
0100
0000
0000
1001
0000
0000
1000
0010
0000
1000
0000
,  // measure 43
0001
0000
0000
0010
0001
0010
0000
0000
1001
0000
0000
1000
0010
0000
1000
0100
,  // measure 44
0010
0000
0000
0001
0100
0001
0000
0000
0101
0000
0000
0001
1000
0000
0001
0010
,  // measure 45
0100
0000
0000
0010
0001
0010
0000
0000
0011
0000
0000
0001
1000
0000
0010
1000
,  // measure 46
0001
0000
0000
0100
0010
1000
0000
0000
1001
0000
0000
0001
0010
0000
0100
0010
,  // measure 47
0001
1000
0000
0100
1000
0001
0000
0000
0011
0000
0000
0010
0100
0000
1000
0001
,  // measure 48
0100
0000
0000
0010
0100
0010
0000
0000
1001
0000
0000
0001
0010
0000
0100
0000
,  // measure 49
1100
0000
0000
1000
0000
1000
0000
0000
0001
0000
0100
0000
0001
0000
0010
0000
,  // measure 50
0100
0000
0000
0100
1000
0000
0001
0000
0000
0100
0000
0000
0001
0000
0010
0000
,  // measure 51
1000
0000
0000
0010
0100
0000
1000
0000
0001
1000
0000
0000
0100
0000
0100
0000
,  // measure 52
0110
0000
0000
1000
0001
0000
0010
0000
0001
0100
0000
0000
0010
0000
0100
0000
,  // measure 53
0001
0000
0000
0010
0100
0000
0010
0000
0001
1000
0000
0001
0000
0010
0001
0000
,  // measure 54
0101
0001
0010
1000
0001
0100
0010
0001
,  // measure 55
0100
0001
1000
0100
0010
0100
1000
0001
,  // measure 56
0100
0001
0100
0001
0100
0001
0100
0001
0010
0100
0010
0100
0010
0100
0010
0100
,  // measure 57
2000
0000
0000
0000
0000
0000
3100
1000
0001
0000
0000
0101
0000
0000
0110
0000
,  // measure 58
2002
0000
0000
3003
M00M
0010
0100
0000
1000
0100
1000
0000
1001
0000
0001
0000
,  // measure 59
0100
0000
1000
0000
0100
0000
0010
0000
0100
0000
0001
0000
0010
0100
0010
0100
,  // measure 60
0010
0001
1000
0100
1000
0010
1000
0100
,  // measure 61
0010
0000
1000
0000
0010
0000
0001
0000
1000
0001
0100
0000
0010
0100
0001
0000
,  // measure 62
0022
0000
0033
10MM
0000
1000
0001
0000
0010
0100
1000
0000
1100
0000
0100
0000
,  // measure 63
0001
0000
0100
0000
1000
0000
0100
0000
0010
0000
0001
0000
1000
0001
0100
0001
,  // measure 64
1000
0010
0001
1000
0100
0010
1000
0001
,  // measure 65
0010
0000
0100
0000
0010
0000
0001
0000
1000
0001
0010
0000
0100
0010
0001
0000
,  // measure 66
0100
0000
0010
0100
0001
0010
0100
0000
1000
0100
1000
0000
1100
0000
0100
0000
,  // measure 67
1000
0000
0001
0000
0100
0000
1000
0000
0100
0000
0010
0000
0100
0001
1000
0001
,  // measure 68
0010
0100
0001
0100
1000
0100
0010
0001
,  // measure 69
1000
0000
0001
0000
0100
0000
0010
0000
1000
0010
1000
0000
0001
0010
0100
0010
,  // measure 70
0001
1000
0010
1000
0001
0100
1000
0100
,  // measure 71
0010
0000
0100
0000
0001
0000
0010
0100
0010
0000
0000
0001
0010
0000
0100
0000
,  // measure 72
1000
0100
1000
0100
1000
0100
1000
0100
0010
0100
0010
0100
0010
0100
0010
0100
,  // measure 73
1000
0001
0100
0001
0010
0100
1100
0000
,  // measure 74
2002
0000
0000
0000
,  // measure 75
0000
0000
0000
0000
,  // measure 76
3003
0000
0000
0000
;
