#VERSION:0.83;
#TITLE:Catch Me;
#SUBTITLE:;
#ARTIST:slushii;
#TITLETRANSLIT:;
#SUBTITLETRANSLIT:;
#ARTISTTRANSLIT:;
#GENRE:Dubstep;
#ORIGIN:;
#CREDIT:;
#BANNER:Catch Me-bn.png;
#BACKGROUND:Catch Me-bg.png;
#PREVIEWVID:;
#JACKET:Catch Me-jacket.png;
#CDIMAGE:;
#DISCIMAGE:;
#LYRICSPATH:;
#CDTITLE:cdtitle.png;
#MUSIC:catch me.ogg;
#OFFSET:-0.003000;
#SAMPLESTART:26.670000;
#SAMPLELENGTH:13.333000;
#SELECTABLE:YES;
#DISPLAYBPM:72.000000:144.000000;
#BPMS:0.000=72.000,
32.000=144.000,
63.000=288.000,
64.000=72.000,
72.000=144.000,
84.000=72.000,
86.000=216.000,
86.500=72.000,
86.750=216.000,
87.250=72.000,
87.500=216.000,
88.000=144.000,
102.000=216.000,
102.500=72.000,
102.750=216.000,
103.250=72.000,
103.500=216.000,
104.000=144.000,
116.000=72.000,
117.000=216.000,
117.500=72.000,
117.750=216.000,
118.250=72.000,
118.500=216.000,
119.000=144.000,
133.000=216.000,
133.500=72.000,
133.750=216.000,
134.250=72.000,
134.500=216.000,
135.000=144.000,
149.000=72.000;
#STOPS:63.000=0.104,
63.500=0.104;
#DELAYS:;
#WARPS:;
#TIMESIGNATURES:0.000=4=4;
#TICKCOUNTS:0.000=4;
#COMBOS:0.000=1;
#SPEEDS:0.000=1.000=0.000=0;
#SCROLLS:0.000=1.000;
#FAKES:;
#LABELS:0.000=Song Start;
#BGCHANGES:;
#KEYSOUNDS:;
#ATTACKS:
;

//---------------dance-single - try not to fail flying----------------
#NOTEDATA:;
#CHARTNAME:X-Scale 15;
#STEPSTYPE:dance-single;
#DESCRIPTION:try not to fail flying;
#CHARTSTYLE:;
#DIFFICULTY:Challenge;
#METER:10;
#RADARVALUES:0.631911,0.865868,0.418580,0.181008,0.791909,391.000000,354.000000,37.000000,16.000000,11.000000,0.000000,2.000000,0.000000,0.000000,0.631911,0.865868,0.418580,0.181008,0.791909,391.000000,354.000000,37.000000,16.000000,11.000000,0.000000,2.000000,0.000000,0.000000;
#CREDIT:;
#DISPLAYBPM:72.000000:144.000000;
#NOTES:
// measure 0
0000
0000
0000
0000
,  // measure 1
0000
0000
0000
0000
,  // measure 2
0000
0000
0000
0000
,  // measure 3
0000
0000
0000
0000
,  // measure 4
1000
0000
0010
0000
0100
0000
0001
0000
0010
0000
0100
0000
1000
0000
0001
0000
1000
0000
0100
0000
0000
0100
0000
0000
0100
0000
0000
0000
1000
0000
0000
0000
,  // measure 5
0001
0000
0100
0000
0010
0000
1000
0000
0100
0000
0010
0000
0001
0000
1000
0000
0001
0000
0100
0000
0000
0100
0000
0000
0100
0000
0000
0010
0100
0000
0000
0000
,  // measure 6
0001
0000
0100
0000
0010
0000
0100
0010
0100
0000
0001
0000
1000
0000
0001
0010
0001
0000
0100
0000
0000
0100
0000
0000
0100
0000
0001
0010
0000
0001
0010
0000
,  // measure 7
0001
0000
0100
0000
0010
0000
1000
0000
0001
0000
0100
0000
0010
0000
1000
0000
0001
0010
0100
1000
0001
0010
0100
1000
0040
0000
1000
0000
1M3M
0000
0000
0000
,  // measure 8
1010
0000
0001
0010
0000
0001
0100
0000
1001
0000
1000
0100
0000
1000
0010
0000
,  // measure 9
1010
0000
1000
0001
0000
1000
0100
0000
1100
0000
0001
0100
0000
0001
1000
0000
,  // measure 10
1010
0000
1000
0001
0000
1000
0100
0000
0101
0000
0001
1000
0000
0010
1000
0000
,  // measure 11
1001
0000
0001
0100
0000
0001
0010
0000
0011
0000
0100
0001
0000
1000
0001
0000
,  // measure 12
1001
0000
0001
1000
0000
0001
0010
0000
0101
0000
0100
0010
0000
1000
0010
0000
,  // measure 13
1010
0000
0001
0100
0000
0010
0100
0000
0011
0000
1000
0001
0000
0100
0010
0000
,  // measure 14
0110
0000
0001
1000
0000
0010
1000
0000
1010
0000
1000
0100
0000
1000
0010
0000
,  // measure 15
1000
0100
0010
0001
1000
0100
0010
0001
1000
0100
0010
0001
0200
0300
0200
0300
,  // measure 16
0100
0010
1000
0001
0100
0000
0100
0010
1000
0001
0100
0000
0100
0010
1000
0001
,  // measure 17
0100
0010
0001
0010
1000
0100
0001
0100
0010
0001
1000
0001
0010
1000
0010
0100
,  // measure 18
0010
0100
1000
0001
0100
0010
0001
0010
,  // measure 19
1000
0100
0001
0100
1000
0001
0100
0010
,  // measure 20
1000
0010
0100
0001
0010
0100
1000
0010
0100
0001
0010
0100
1000
0010
0100
0001
,  // measure 21
0101
0000
0000
0010
0000
0000
0001
0000
1000
0000
0001
0010
0001
0010
0001
0000
1100
0000
0000
0000
0000
0000
1001
0000
0000
0000
0000
0000
0101
0000
0000
0000
,  // measure 22
0110
0000
0000
1000
0000
0000
0001
0000
0010
0000
0100
0000
1000
0000
0000
0010
0000
0000
0100
0000
0000
0000
0000
0000
,  // measure 23
0110
0000
0000
0000
0000
0000
1000
0000
0100
0000
0010
0000
0002
0000
0000
0000
0000
0000
1003
0000
0000
0001
0000
0000
,  // measure 24
0201
0000
0000
0000
0000
0000
0310
0000
0000
0100
0000
0000
0010
0000
0000
0010
0000
0000
1000
0000
0100
0000
0010
0000
,  // measure 25
0001
0000
0000
0000
0000
0000
0001
0000
0000
0000
0000
0000
1000
0000
0000
0000
0100
0000
0000
0000
0010
0000
0000
0000
0101
0000
0000
0000
0000
0000
0000
0000
0000
0110
0000
0000
0000
0000
0000
0000
0000
0000
1001
0000
0000
0000
0000
0000
,  // measure 26
0101
0000
0000
1000
0000
0000
0001
0000
0010
0000
0100
0000
1000
0000
0000
0010
0000
0000
1000
0000
0000
0000
0000
0000
,  // measure 27
1010
0000
0000
0000
0000
0000
0001
0000
0010
0000
0100
0000
2000
0000
0000
0000
0000
0000
3100
0000
0000
0001
0000
0000
,  // measure 28
1002
0000
0000
0000
0000
0000
0103
0000
0000
0001
0000
0000
1000
0000
0000
0001
0000
0000
1000
0000
0100
0000
0010
0000
,  // measure 29
0001
0000
1000
000M
010M
000M
001M
000M
0110
0000
0000
0000
0000
0000
1001
0000
0000
0000
0000
0000
1010
0000
0000
0000
1001
0000
0000
0000
1000
0000
0000
0000
,  // measure 30
0001
0000
0010
0000
0100
0000
1000
0000
0000
0010
0000
0000
1000
0000
0000
0000
0000
0000
0101
0000
0000
0000
0000
0000
,  // measure 31
0001
0000
0010
0000
0100
0000
2000
0000
0000
0000
0000
0000
3001
0000
0000
1000
0000
0000
1020
0000
0000
0000
0000
0000
,  // measure 32
0130
0000
0000
0001
0000
0000
0100
0000
0000
0010
0000
0000
1000
0000
0100
0000
0010
0000
0001
0000
0000
0001
0000
0000
,  // measure 33
1000
0000
0000
0000
0100
0000
0000
0000
0010
0000
0000
0000
0101
0000
0000
0000
0000
0000
0000
0000
0000
0110
0000
0000
0000
0000
0000
0000
0000
0000
0101
0000
0000
0000
0000
0000
1001
0000
0000
0000
0000
0000
1000
0000
0000
0000
0000
0000
,  // measure 34
0001
0000
0010
0000
0100
0000
1000
0000
0000
0010
0000
0000
0100
0000
0000
0001
0000
0000
0010
0000
0000
0001
0000
0000
,  // measure 35
1000
0000
0100
0000
0010
0000
0001
0000
0000
0010
0000
0000
1000
0000
0000
0010
0000
0000
0001
0000
0000
0100
0000
0000
,  // measure 36
0001
0010
M004
0000
00M0
0M00
M103
0100
,  // measure 37
0001
0000
0010
0000
0100
0000
0000
0000
0010
0000
2000
0000
0000
0000
0000
0000
0000
0000
0000
0000
0000
0000
0000
0000
3001
0000
2000
0000
3000
0200
0000
0300
,  // measure 38
2000
0000
0000
0000
0000
0000
0000
0000
3100
0000
0020
0000
0000
0000
0000
0000
0000
0000
0000
0000
0000
0000
0000
0000
0031
0000
2000
0000
3000
0200
0000
0300
,  // measure 39
2000
3000
0000
0000
;

//---------------dance-single - ----------------
#NOTEDATA:;
#CHARTNAME:X-Scale 13;
#STEPSTYPE:dance-single;
#DESCRIPTION:;
#CHARTSTYLE:;
#DIFFICULTY:Hard;
#METER:9;
#RADARVALUES:0.523630,0.666052,0.237573,0.158382,0.497771,324.000000,303.000000,21.000000,14.000000,4.000000,0.000000,0.000000,0.000000,0.000000,0.523630,0.666052,0.237573,0.158382,0.497771,324.000000,303.000000,21.000000,14.000000,4.000000,0.000000,0.000000,0.000000,0.000000;
#CREDIT:;
#DISPLAYBPM:72.000000:144.000000;
#NOTES:
// measure 0
0000
0000
0000
0000
,  // measure 1
0000
0000
0000
0000
,  // measure 2
0000
0000
0000
0000
,  // measure 3
0000
0000
0000
0000
,  // measure 4
1000
0010
0000
0000
0110
0000
1000
0010
0M01
0000
1000
0010
0M01
0000
1000
0000
,  // measure 5
0001
0100
0000
0000
0110
0000
0100
0001
1000
0000
0100
0010
0002
0000
0000
0000
,  // measure 6
1003
0000
0001
0000
1000
0000
0000
0000
0100
0000
0000
0000
1000
0000
0000
0000
0001
0000
0100
0000
0000
0010
0000
0000
0100
0000
0001
0000
0000
1000
0000
0000
,  // measure 7
0001
0010
0100
1000
0001
0010
0100
1000
0001
0010
0001
0010
0001
0010
0100
0000
,  // measure 8
1010
1000
0010
0001
0010
0100
0010
1000
,  // measure 9
0M01
0000
0000
0000
0010
0000
1000
0000
0M01
0000
0000
0100
0000
0010
0100
0000
,  // measure 10
0001
1000
0100
0001
0100
1000
0010
0100
,  // measure 11
0001
0000
0010
0100
2000
0000
0001
0000
,  // measure 12
3001
1000
0100
0010
0100
1000
0001
0100
,  // measure 13
0010
0000
0000
0100
0000
0010
0100
0000
0001
0000
1000
0100
0000
1000
0100
0000
,  // measure 14
0010
0000
0000
0001
0000
1000
0001
0000
0010
0000
0100
0010
0000
0100
0010
0000
,  // measure 15
0001
0000
0000
1000
0000
0100
1000
0000
0001
0000
1000
0000
0001
0000
0001
0000
,  // measure 16
1001
1000
0100
1000
0001
0000
0010
0100
1000
0001
1000
0000
0001
0100
1000
0100
,  // measure 17
0001
0100
0010
0100
0001
0000
1000
0100
0001
0100
1000
0000
0001
0100
0010
0100
,  // measure 18
0001
0010
1000
0010
0001
0010
1000
0010
,  // measure 19
0001
0100
1000
0100
0001
0100
1000
0100
,  // measure 20
0001
0100
0001
0100
0001
0100
0001
0100
0010
1000
0010
1000
0010
1000
0010
1000
,  // measure 21
0002
0000
0000
0000
0023
0030
0100
0000
0110
0000
0000
0110
0000
0000
0110
0000
,  // measure 22
1001
0000
0000
1000
0000
0000
0001
0000
0010
0000
0001
0000
0010
0000
0000
0100
0000
0000
0010
0000
0000
0000
0000
0000
,  // measure 23
0002
0000
0000
0000
0000
0000
1003
0000
0001
0000
1000
0000
0002
0000
0000
0000
0000
0000
0013
0000
0000
0100
0000
0000
,  // measure 24
2000
0000
0000
0000
0000
0000
3010
0000
0000
1000
0000
0000
0001
0000
0000
1000
0000
0000
0100
0000
0010
0000
0100
0000
,  // measure 25
0010
0000
0000
0000
0000
0000
0001
0000
0000
0000
0000
0000
1000
0000
0000
0000
0010
0000
0000
0000
1000
0000
0000
0000
1010
0000
0000
0000
0000
0000
0000
0000
0000
1010
0000
0000
0000
0000
0000
0000
0000
0000
1010
0000
0000
0000
0000
0000
,  // measure 26
1001
0000
0000
1000
0000
0000
0001
0000
0100
0000
0001
0000
0100
0000
0000
0010
0000
0000
0100
0000
0000
0000
0000
0000
,  // measure 27
0020
0000
0000
0000
0000
0000
0031
0000
0010
0000
0001
0000
0020
0000
0000
0000
0000
0000
0130
0000
0000
0010
0000
0000
,  // measure 28
2000
0000
0000
0000
0000
0000
3001
0000
0000
1000
0000
0000
0100
0000
0000
1000
0000
0000
0001
0000
1000
0000
0001
0000
,  // measure 29
1000
0100
0010
0001
0011
0000
0000
0011
0000
0000
0011
0000
1001
0000
1000
0000
,  // measure 30
0010
0000
0100
0000
0001
0000
1000
0000
0000
0100
0000
0000
0010
0000
0000
0000
0000
0000
0001
0000
0000
0000
0000
0000
,  // measure 31
1000
0000
0001
0000
0100
0000
0020
0000
0000
0000
0000
0000
0130
0000
0000
0001
0000
0000
0020
0000
0000
0000
0000
0000
,  // measure 32
0130
0000
0000
0010
0000
0000
0100
0000
0000
1000
0000
0000
0001
0000
1000
0000
0010
0000
0100
0000
0000
0010
0000
0000
,  // measure 33
1000
0000
0000
0000
0100
0000
0000
0000
0010
0000
0000
0000
0011
0000
0000
0000
0000
0000
0000
0000
0000
0011
0000
0000
0000
0000
0000
0000
0000
0000
0011
0000
0000
0000
0000
0000
0001
0000
0000
0000
0000
0000
1000
0000
0000
0000
0000
0000
,  // measure 34
0010
0000
1000
0000
0001
0000
0010
0000
0000
0100
0000
0000
0010
0000
0000
0000
0000
0000
0011
0000
0000
0000
0000
0000
,  // measure 35
0001
0000
1000
0000
0010
0000
0100
0000
0000
0001
0000
0000
0010
0000
0000
0100
0000
0000
1000
0000
0000
0001
0000
0000
,  // measure 36
1000
0100
0010
0000
0100
0010
0011
0000
,  // measure 37
0001
0000
0000
0000
1000
0000
0000
0000
0001
0000
0010
0000
0000
0000
0000
0000
0000
0000
0000
0000
0000
0000
0000
0000
0100
0000
0010
0000
0000
0100
0000
0000
,  // measure 38
0020
0000
0000
0000
0000
0000
0000
0000
0031
0000
0010
0000
0000
0000
0000
0000
0000
0000
0000
0000
0000
0000
0000
0000
0100
0000
0010
0000
0000
0100
0000
0000
,  // measure 39
0020
0030
0000
0000
;

//---------------dance-single - ----------------
#NOTEDATA:;
#CHARTNAME:X-Scale 10;
#STEPSTYPE:dance-single;
#DESCRIPTION:;
#CHARTSTYLE:;
#DIFFICULTY:Medium;
#METER:7;
#RADARVALUES:0.441206,0.532842,0.271512,0.113130,0.214947,273.000000,249.000000,24.000000,10.000000,0.000000,0.000000,0.000000,0.000000,0.000000,0.441206,0.532842,0.271512,0.113130,0.214947,273.000000,249.000000,24.000000,10.000000,0.000000,0.000000,0.000000,0.000000,0.000000;
#CREDIT:;
#DISPLAYBPM:72.000000:144.000000;
#NOTES:
// measure 0
0000
0000
0000
0000
,  // measure 1
0000
0000
0000
0000
,  // measure 2
0000
0000
0000
0000
,  // measure 3
0000
0000
0000
0000
,  // measure 4
0001
0010
0100
1000
0001
0010
0100
1000
,  // measure 5
0001
0100
0010
1000
0001
0100
0010
1000
,  // measure 6
0001
0010
0100
1000
0001
0010
0100
1000
,  // measure 7
0001
0000
0100
0000
0010
0000
1000
0000
0001
1000
0100
1000
0001
1000
0010
0000
,  // measure 8
1001
0000
1000
0000
0100
0000
0010
0100
,  // measure 9
1000
0000
0000
0000
0010
0000
0100
0000
1000
0000
0000
0001
0000
0000
0001
0000
,  // measure 10
0100
0000
0010
0000
0100
0001
1000
0010
,  // measure 11
0100
0000
0000
0000
0001
0000
0010
0000
0200
0000
0000
1000
0000
0000
1000
0000
,  // measure 12
1300
0100
0010
0001
1000
0010
0100
0001
,  // measure 13
1000
0000
0100
0001
1000
0000
0100
0001
,  // measure 14
1000
0000
0100
0001
1000
0000
0100
0001
,  // measure 15
1000
0000
0100
0001
1000
0000
0100
0100
,  // measure 16
1010
1000
0001
1000
0100
0010
0100
1000
,  // measure 17
0001
0100
0010
0100
0001
0010
0100
1000
,  // measure 18
0100
0010
0100
0010
0001
1000
0001
1000
,  // measure 19
0010
0100
0010
0100
0001
0010
0001
0010
,  // measure 20
0100
1000
0100
1000
0100
0010
0100
0010
,  // measure 21
0002
0000
0000
0000
1003
0000
1001
0000
1001
0000
0000
0110
0000
0000
1001
0000
,  // measure 22
1001
0000
0000
0001
0000
0000
1000
0000
0000
0000
0100
0000
0010
0000
0000
0100
0000
0000
0010
0000
0000
0000
0000
0000
,  // measure 23
0110
0000
0000
0000
0000
0000
1000
0000
0001
0000
1000
0000
0002
0000
0000
0000
0000
0000
0000
0000
0000
0013
0000
0000
,  // measure 24
0020
0000
0000
0000
0000
0000
0130
0000
0000
0000
0000
0000
0010
0000
0000
0001
0000
0000
1000
0000
0000
0000
0001
0000
,  // measure 25
0100
0000
0000
0000
0000
0000
0001
0000
0000
0000
0000
0000
1000
0000
0000
0000
0000
0000
0000
0000
0100
0000
0000
0000
1100
0000
0000
0000
0000
0000
0000
0000
0000
1001
0000
0000
0000
0000
0000
0000
0000
0000
0101
0000
0000
0000
0000
0000
,  // measure 26
0101
0000
0000
0001
0000
0000
1000
0000
0000
0000
0001
0000
0100
0000
0000
0010
0000
0000
0100
0000
0000
0000
0000
0000
,  // measure 27
1010
0000
0000
0000
0000
0000
1000
0000
0000
0000
0100
0000
0020
0000
0000
0000
0000
0000
0000
0000
0000
0031
0000
0000
,  // measure 28
0002
0000
0000
0000
0000
0000
0103
0000
0000
0001
0000
0000
0010
0000
0000
0001
0000
0000
1000
0000
0001
0000
0100
0000
,  // measure 29
1000
0100
0010
1000
1001
0000
0000
1100
0000
0000
0101
0000
0101
0000
0001
0000
,  // measure 30
1000
0000
0100
0000
1000
0000
0001
0000
0000
0100
0000
0000
0010
0000
0000
0000
0000
0000
0110
0000
0000
0000
0000
0000
,  // measure 31
0001
0000
0100
0000
0001
0000
2000
0000
0000
0000
0000
0000
0000
0000
0000
3100
0000
0000
1200
0000
0000
0000
0000
0000
,  // measure 32
0301
0000
0000
0100
0000
0000
1000
0000
0000
0001
0000
0000
0100
0000
0001
0000
1000
0000
0010
0000
0000
0100
0000
0000
,  // measure 33
0001
0000
0000
0000
0010
0000
0000
0000
0100
0000
0000
0000
0110
0000
0000
0000
0000
0000
0000
0000
0000
1001
0000
0000
0000
0000
0000
0000
0000
0000
1010
0000
0000
0000
0000
0000
1010
0000
0000
0000
0000
0000
0001
0000
0000
0000
0000
0000
,  // measure 34
1000
0000
0100
0000
0010
0000
0001
0000
0000
0100
0000
0000
0001
0000
0000
0000
0000
0000
0101
0000
0000
0000
0000
0000
,  // measure 35
0001
0000
0100
0000
0010
0000
1000
0000
0000
0100
0000
0000
0001
0000
0000
0100
0000
0000
0010
0000
0000
0001
0000
0000
,  // measure 36
1000
0010
1000
0000
1000
0010
1000
0000
,  // measure 37
0001
0000
0000
0000
0010
0000
0000
0000
0001
0000
0100
0000
0000
0000
0000
0000
0000
0000
0000
0000
0000
0000
0000
0000
0000
0000
1000
0000
0000
1000
0000
0000
,  // measure 38
2000
0000
0000
0000
0000
0000
0000
0000
3100
0000
0010
0000
0000
0000
0000
0000
0000
0000
0000
0000
0000
0000
0000
0000
0000
0000
1000
0000
0000
1000
0000
0000
,  // measure 39
2000
3000
0000
0000
;

//---------------dance-single - ----------------
#NOTEDATA:;
#CHARTNAME:X-Scale 6;
#STEPSTYPE:dance-single;
#DESCRIPTION:;
#CHARTSTYLE:;
#DIFFICULTY:Easy;
#METER:4;
#RADARVALUES:0.295754,0.394540,0.214947,0.113130,0.000000,183.000000,164.000000,19.000000,10.000000,0.000000,0.000000,0.000000,0.000000,0.000000,0.295754,0.394540,0.214947,0.113130,0.000000,183.000000,164.000000,19.000000,10.000000,0.000000,0.000000,0.000000,0.000000,0.000000;
#CREDIT:;
#DISPLAYBPM:72.000000:144.000000;
#NOTES:
// measure 0
0000
0000
0000
0000
,  // measure 1
0000
0000
0000
0000
,  // measure 2
0000
0000
0000
0000
,  // measure 3
0000
0000
0000
0000
,  // measure 4
0001
0010
0001
0010
,  // measure 5
0100
1000
0100
1000
,  // measure 6
0001
0100
0010
0100
0001
0100
0010
0100
,  // measure 7
0001
1000
0100
1000
0001
1000
0100
1000
,  // measure 8
1001
0000
0001
0000
0010
0000
0100
1000
,  // measure 9
0001
0000
0100
0001
1000
0000
0010
0000
,  // measure 10
0100
0000
0001
0000
0010
0000
0100
0010
,  // measure 11
0001
0000
1000
0001
2000
0000
0010
0000
,  // measure 12
3001
0000
0010
0000
0100
0000
1000
0100
,  // measure 13
0010
0000
0100
0010
0001
0000
1000
0100
,  // measure 14
0010
0000
0100
0010
0001
0000
1000
0100
,  // measure 15
0010
0000
0100
0010
0001
0000
2000
0000
,  // measure 16
3002
0100
1000
0100
,  // measure 17
1003
0001
0100
0010
1000
0001
0100
0010
,  // measure 18
1000
0100
0010
0001
,  // measure 19
1000
0100
0010
0001
,  // measure 20
1000
0001
0100
0010
0100
0001
0010
0100
,  // measure 21
2000
3000
1100
0000
,  // measure 22
1001
0000
0001
0000
0010
0100
0010
0000
,  // measure 23
0101
1000
2100
0000
,  // measure 24
3002
0000
0013
0100
0010
0000
0001
0000
,  // measure 25
1001
1000
1100
0000
,  // measure 26
1001
0000
0001
0000
0100
0010
0100
0000
,  // measure 27
1010
1000
1002
0000
,  // measure 28
0203
0000
0310
0000
1000
0100
1000
0000
,  // measure 29
1100
1001
0000
0101
,  // measure 30
0100
0000
0010
0100
0001
0000
1001
0000
,  // measure 31
1000
1200
0000
0320
,  // measure 32
0031
0010
0100
0010
0001
0000
1001
0000
,  // measure 33
1000
1010
0000
0101
,  // measure 34
0100
0000
0001
0010
0100
0000
1100
0000
,  // measure 35
1000
0001
0100
0010
,  // measure 36
1000
0100
0010
0000
0100
0010
0001
0000
,  // measure 37
0000
1000
0000
0100
,  // measure 38
0000
1000
0000
0100
;
