#TITLE:Castle in the Sky;
#SUBTITLE:;
#ARTIST:DJ Satomi;
#TITLETRANSLIT:;
#SUBTITLETRANSLIT:;
#ARTISTTRANSLIT:;
#GENRE:Eurodance;
#CREDIT:;
#BANNER:cits-bn.png;
#BACKGROUND:cits-bg.png;
#LYRICSPATH:;
#CDTITLE:cdtitle.png;
#MUSIC:castle in the sky.ogg;
#OFFSET:-0.009000;
#SAMPLESTART:75.028999;
#SAMPLELENGTH:13.600000;
#SELECTABLE:YES;
#BPMS:0.000000=140.000000
;
#STOPS:
;
#BGCHANGES:;
#KEYSOUNDS:;
#ATTACKS:;

//---------------dance-single - ----------------
#NOTES:
     dance-single:
     X-Scale 11:
     Hard:
     8:
     0.524615,0.516152,0.141606,0.103844,0.023601,389.000000,374.000000,15.000000,11.000000,0.000000,0.000000,0.524615,0.516152,0.141606,0.103844,0.023601,389.000000,374.000000,15.000000,11.000000,0.000000,0.000000:
0000
0000
0000
0000
,
0000
0000
0000
0000
,
0000
0000
0000
0000
,
0000
0000
0000
0000
,
0001
0000
1000
0100
0001
0100
1000
0000
,
0010
0000
1000
0100
1000
0001
0100
0010
,
1000
0000
0000
0000
0001
0000
0010
0000
0100
0000
1000
0000
0001
0000
0000
0001
,
1000
0000
0001
0100
0010
0001
0010
0100
,
0011
0001
0000
0010
0001
0010
0000
0100
,
1000
0010
0100
0001
1000
0100
0000
0010
,
0001
1000
0000
0001
0100
0001
0000
0010
,
0100
1000
0001
0100
0002
0000
0013
0100
,
1100
0000
1000
0100
0001
0000
1000
0010
,
0001
0000
0001
0010
0001
0000
0001
0010
,
1000
0000
0001
0100
1000
0000
1000
0100
,
0010
0001
0100
0010
2000
0000
3100
1000
,
1001
0000
1000
0100
0001
0000
1000
0010
,
0001
0000
0001
0010
0001
0000
0001
0010
,
1000
0000
0001
0100
1000
0000
0001
0100
,
0010
0000
1000
0000
0100
0000
0010
0100
0010
0000
0001
0000
0001
0000
0010
0000
,
0011
0001
0010
0100
1000
0000
0001
0100
,
0001
0001
0100
0100
0020
0000
0031
0010
,
0100
0000
0010
1000
0001
0000
1000
0100
,
0010
0000
0100
0000
1000
0000
0001
0000
0400
0000
0000
0300
0100
0000
0010
0000
,
1000
0000
0001
0100
0010
0000
1000
0100
,
0010
0001
0010
0100
2000
0000
3010
1000
,
0100
0000
0100
0010
0001
0000
0100
0010
,
0001
0010
1000
0010
0200
1000
0000
0310
,
0110
0100
0001
0100
0001
0000
1000
0010
,
0001
0010
1000
0100
0010
0000
0100
1000
,
0100
0000
1000
0000
0001
0100
0001
0010
,
0100
0000
0010
0001
1000
0010
0100
0010
,
1000
0000
0100
1000
0001
1000
0010
0100
,
0001
0010
1000
0010
0001
0000
0010
0001
,
1000
0000
0001
0000
0100
1000
0100
0001
,
0020
0000
0100
0000
0000
0000
0001
0000
0001
0000
0031
0010
0001
0000
1000
0000
,
1001
0000
1000
0010
0000
0010
0100
0100
,
0001
0001
0010
0100
0000
0100
1000
0010
,
1000
0000
0001
0100
0000
0100
0010
0010
,
1000
1000
0001
0010
0000
0010
0100
0001
,
0110
1000
1001
0010
,
1010
1000
1100
0100
,
0110
0000
0010
0001
0000
0001
1000
0100
,
0001
0000
0100
0000
1000
0000
0010
0000
1000
0000
1000
0100
1000
0000
0100
0000
,
1100
0000
0001
0010
0100
0000
1000
1000
,
0001
0000
0100
0010
0001
0000
0010
0010
,
1000
0000
0100
0010
0001
0000
1000
1000
,
0010
0000
0100
0010
0001
0000
0010
0010
,
1000
0000
0001
0100
0010
0000
1000
1000
,
0001
0000
1000
0100
0010
0000
0100
0100
,
1000
0000
0001
1000
0010
0000
0100
0100
,
0001
0000
0000
0000
0010
0000
0100
0000
1000
0000
0001
1000
0001
0000
0100
0000
,
0101
0001
0010
0001
1000
0000
0100
0100
,
0100
0010
0001
0010
0100
0000
1000
1000
,
1000
0001
0100
0010
1000
0000
0001
0001
,
0001
1000
0100
0010
0001
0000
0100
0100
,
0101
0010
0001
1000
0100
0000
1000
1000
,
1000
0010
0100
0001
0010
0000
0001
0001
,
0001
1000
0010
1000
0001
0000
0100
0100
,
0100
1000
0100
0010
0100
0001
1000
0001
,
1002
2003
3200
0320
0032
0000
0003
0000
;

//---------------dance-single - ----------------
#NOTES:
     dance-single:
     X-Scale 8:
     Medium:
     6:
     0.441000,0.430127,0.047202,0.047202,0.000000,327.000000,322.000000,5.000000,5.000000,0.000000,0.000000,0.441000,0.430127,0.047202,0.047202,0.000000,327.000000,322.000000,5.000000,5.000000,0.000000,0.000000:
0000
0000
0000
0000
,
0000
0000
0000
0000
,
0000
0000
0000
0000
,
0000
0000
0000
0000
,
1000
0000
0001
0010
0001
0000
0001
0010
,
0001
0000
1000
0100
1000
0000
1000
0100
,
1000
0000
0001
0010
1000
0010
0001
0000
,
0001
0000
0001
0100
1000
0100
0001
0000
,
1100
0100
0000
1000
0000
0100
0000
1000
,
0010
0100
0001
0010
0100
1000
0000
0001
,
0000
0010
0000
0001
0000
1000
0000
0001
,
0010
0100
1000
0010
0200
0000
0301
0100
,
0001
0000
0010
0000
0100
0000
1000
0100
,
1000
0000
0001
0100
0001
0000
1000
0100
,
0010
0100
1000
0001
,
0010
0001
1000
0100
0020
0000
0031
0010
,
0001
0000
1000
0000
0001
0000
1000
0100
,
0010
0000
0010
0100
1000
0000
0001
0010
,
0100
0010
0001
1000
,
0010
0100
1000
0100
0010
0000
0010
0000
,
0101
0000
0001
0010
0001
0000
1000
0100
,
0010
0100
1000
0001
1000
0000
0010
0100
,
1000
0000
1000
0100
0010
0000
1000
0010
,
0100
0001
0010
0100
2000
0000
3010
1000
,
0001
0000
0010
0100
1000
0000
0001
0001
,
1000
0100
0010
0001
1000
0000
0001
0010
,
0100
0000
0010
0100
1000
0000
0001
0010
,
1000
0010
0001
0100
0010
1000
0000
1000
,
0001
0000
1000
0100
1000
0000
0001
0010
,
0001
0000
1000
0100
0010
0000
0100
1000
,
0100
0000
1000
0000
0001
0100
0001
0010
,
0100
0000
0010
0001
1000
0010
0000
0010
,
0100
0000
0001
0010
0100
0000
0010
0100
,
1000
0001
0000
1000
0001
0000
0010
0001
,
0100
0000
0001
0000
1000
0010
0001
0010
,
1000
0001
0000
0001
0100
0001
0000
0001
,
0011
0000
0001
0000
1000
0000
0001
0010
,
0100
0000
0010
0000
0001
0000
1000
0100
,
0010
0000
0100
0000
1000
0000
0001
0100
,
0010
0000
0100
0000
0001
0000
1000
0010
,
0100
0000
0001
0000
1000
0000
0001
0100
,
0010
0000
1000
0000
0001
0000
1000
0100
,
0010
0000
0001
0000
1000
0000
0001
0010
,
0100
0000
1000
0010
0000
0010
0100
0001
,
0011
0000
1000
0100
1000
0000
0001
0000
,
0001
0000
1000
0010
0100
0000
0010
0000
,
0010
0000
1000
0100
1000
0000
0001
0000
,
0001
0000
1000
0010
0100
0000
0010
0000
,
0010
0000
1000
0100
0010
0000
0001
0000
,
0001
0000
0100
0010
1000
0000
0100
0000
,
0100
0000
0010
0001
1000
0000
0001
0000
,
0001
0000
1000
0100
0010
0000
0010
0000
,
0110
0000
0100
0000
0010
0000
0001
0001
,
1000
0000
0001
0000
0100
0000
0001
0001
,
1000
0000
0100
0000
1000
0000
0001
0001
,
1000
0000
0100
0000
0010
0000
0001
0001
,
1000
0100
0010
0100
1000
0000
0001
0001
,
1000
0100
0010
0100
1000
0000
0001
0001
,
1000
0010
0100
0010
1000
0000
0001
0001
,
0100
0010
0000
0100
0000
0010
2000
0000
,
3001
1000
0010
0100
0002
0000
0003
0000
;

//---------------dance-single - ----------------
#NOTES:
     dance-single:
     X-Scale 6:
     Easy:
     4:
     0.318275,0.314128,0.037761,0.122725,0.000000,236.000000,232.000000,4.000000,13.000000,0.000000,0.000000,0.318275,0.314128,0.037761,0.122725,0.000000,236.000000,232.000000,4.000000,13.000000,0.000000,0.000000:
0000
0000
0000
0000
,
0000
0000
0000
0000
,
0000
0000
0000
0000
,
0000
0000
0000
0000
,
0001
0001
1000
1000
,
0010
0010
0100
0100
,
0001
1000
0100
0010
,
0001
0100
0010
1000
,
1001
0001
0000
1000
0000
0100
0000
1000
,
0000
0100
0000
0010
0000
0001
0000
0100
,
0000
0010
0000
1000
0000
0001
0000
1000
,
0000
0100
0000
0010
0000
0001
0000
0000
,
1001
1000
0001
0010
,
0001
0000
1000
0000
0100
0000
0010
0100
,
1000
0010
1000
0001
,
0010
0000
0100
0010
0001
0000
1000
0000
,
0100
0001
0100
1000
,
0001
0000
0010
0000
0100
0000
0010
0100
,
0010
0001
1000
0010
,
0100
0001
1000
0000
,
0110
0001
1000
0100
,
1000
0001
0100
0010
,
0010
0100
0100
0001
,
1000
0000
0100
1000
0100
0000
0100
0000
,
0100
1000
0100
0010
,
0001
1000
0001
0100
,
0010
1000
0001
0010
,
0001
0000
0100
0000
0001
0010
0000
0010
,
0200
0000
0300
0010
2000
0000
0000
3000
,
0002
0000
0003
1000
0020
0000
0000
0030
,
1000
0000
0100
0000
1000
0100
0010
0001
,
2000
0000
3000
0001
2000
0000
0000
3000
,
0200
0000
0300
0010
0002
0000
0000
2003
,
3000
0200
0000
0310
0200
0000
0000
0300
,
1000
0000
0001
0000
1000
0100
0010
0001
,
0200
0000
0010
0000
,
0301
1000
0100
1000
,
0010
0001
0010
1000
,
0100
0010
0001
0100
,
0010
1000
0001
1000
,
0010
0000
0010
0000
,
0010
0000
0010
0000
,
0100
0000
0000
0001
0000
0001
1000
0000
,
0100
0000
1000
0010
0000
0010
0000
0000
,
1100
0010
1000
0100
,
1000
0001
0010
0001
,
0100
0010
1000
0010
,
1000
0100
0010
0001
,
1000
0010
0100
0001
,
0010
0001
1000
0100
,
1000
0010
0100
0001
,
0010
0100
1000
0001
,
1000
0000
1000
0000
1000
0000
0001
0010
,
0001
0000
0001
0000
0001
0000
0100
0010
,
0100
0000
0100
0000
0100
0000
0010
1000
,
0010
0000
0010
0000
0010
0000
1000
0100
,
0010
0000
0010
0000
0010
0000
0001
0010
,
0100
0000
0100
0000
0100
0000
1000
0010
,
0100
0000
0100
0000
0100
0000
0001
1000
,
0010
0010
0010
2000
,
3001
0010
0100
0000
;

//---------------dance-single - ----------------
#NOTES:
     dance-single:
     X-Scale 2:
     Beginner:
     1:
     0.124073,0.141606,0.018881,0.000000,0.000000,92.000000,90.000000,2.000000,0.000000,0.000000,0.000000,0.124073,0.141606,0.018881,0.000000,0.000000,92.000000,90.000000,2.000000,0.000000,0.000000,0.000000:
// measure 0
0000
0000
0000
0000
,  // measure 1
0000
0000
0000
0000
,  // measure 2
0000
0000
0000
0000
,  // measure 3
0000
0000
0000
0000
,  // measure 4
0001
0000
0000
0000
,  // measure 5
0010
0000
0000
0000
,  // measure 6
0100
0000
0000
0000
,  // measure 7
1000
0000
0000
0000
,  // measure 8
1001
0000
0000
0000
,  // measure 9
0000
0000
0000
0000
,  // measure 10
0000
0000
0000
0000
,  // measure 11
0000
0000
0000
0000
,  // measure 12
1000
0000
0000
0000
,  // measure 13
0100
0000
0000
0000
,  // measure 14
0010
0000
0000
0000
,  // measure 15
0001
0000
0000
0000
,  // measure 16
1000
0000
0010
0000
,  // measure 17
0100
0000
0001
0000
,  // measure 18
0010
0000
0100
0000
,  // measure 19
1000
0000
0001
0000
,  // measure 20
0100
0000
0001
0000
,  // measure 21
0010
0000
0100
0000
,  // measure 22
1000
0000
0010
0000
,  // measure 23
1000
0000
0100
0000
,  // measure 24
1000
0000
0001
0000
,  // measure 25
0010
0000
0001
0000
,  // measure 26
1000
0000
0010
0000
,  // measure 27
1000
0000
0100
0000
,  // measure 28
1000
0000
0001
0000
,  // measure 29
0010
0000
0001
0000
,  // measure 30
0100
0000
0010
0000
,  // measure 31
1000
0000
0010
0000
,  // measure 32
1000
0000
0100
0000
,  // measure 33
1000
0000
0001
0000
,  // measure 34
0100
0000
0010
0000
,  // measure 35
1000
0000
0000
0000
,  // measure 36
1001
0000
0000
0000
,  // measure 37
1000
0000
0000
0000
,  // measure 38
0010
0000
0000
0000
,  // measure 39
1000
0000
0000
0000
,  // measure 40
0100
0000
0010
0000
,  // measure 41
0100
0000
0010
0000
,  // measure 42
0100
0000
0000
0000
,  // measure 43
1000
0000
0000
0000
,  // measure 44
0001
0000
0100
0000
,  // measure 45
0001
0000
0010
0000
,  // measure 46
0001
0000
1000
0000
,  // measure 47
0010
0000
1000
0000
,  // measure 48
0100
0000
0010
0000
,  // measure 49
0100
0000
1000
0000
,  // measure 50
0001
0000
0100
0000
,  // measure 51
0001
0000
0010
0000
,  // measure 52
0100
0000
0010
0000
,  // measure 53
0001
0000
1000
0000
,  // measure 54
0001
0000
0010
0000
,  // measure 55
0100
0000
1000
0000
,  // measure 56
0010
0000
0100
0000
,  // measure 57
0001
0000
0100
0000
,  // measure 58
0001
0000
1000
0000
,  // measure 59
0010
0000
0000
0000
,  // measure 60
1000
0000
0000
0000
;
