#TITLE:Case of the Ex;
#SUBTITLE:;
#ARTIST:Mýa;
#TITLETRANSLIT:;
#SUBTITLETRANSLIT:;
#ARTISTTRANSLIT:Mya;
#GENRE:Hip-Hop Soul;
#CREDIT:;
#BANNER:Case of the Ex-bn.png;
#BACKGROUND:Case of the Ex-bg.png;
#LYRICSPATH:;
#CDTITLE:cdtitle.png;
#MUSIC:Case of the Ex.ogg;
#OFFSET:-0.006000;
#SAMPLESTART:48.971001;
#SAMPLELENGTH:19.586000;
#SELECTABLE:YES;
#BPMS:0.000000=98.029999
;
#STOPS:
;
#BGCHANGES:0.000=Case of the Ex.avi=1.000=1=0=0=StretchNoLoop==CrossFade==,
99999=-nosongbg-=1.000=0=0=0 // don't automatically add -songbackground-
;
#KEYSOUNDS:;
#ATTACKS:;

//---------------dance-single - ----------------
#NOTES:
     dance-single:
     X-Scale 11:
     Hard:
     8:
     0.450866,0.485202,0.134778,0.000000,0.415567,281.000000,269.000000,12.000000,0.000000,0.000000,0.000000,0.450866,0.485202,0.134778,0.000000,0.415567,281.000000,269.000000,12.000000,0.000000,0.000000,0.000000:
// measure 0
0000
0000
0000
0000
,  // measure 1
0000
0000
0000
0000
,  // measure 2
0000
0000
0000
0000
,  // measure 3
0000
0000
0000
0000
,  // measure 4
1000
0000
0000
0100
0000
1000
0000
0000
0001
0000
0000
0100
0000
0001
0000
0000
,  // measure 5
0010
0000
0000
0001
0000
1000
0000
0000
0010
0000
0000
0000
1010
0000
0000
0000
,  // measure 6
1000
0000
0000
0100
0000
0010
0000
0000
0001
0000
0000
0100
0000
0001
0000
0000
,  // measure 7
1000
0000
0000
0010
0000
1000
0000
0000
0001
0000
0000
0000
1001
0000
0000
0000
,  // measure 8
0100
0000
0000
1000
0000
0001
0000
0000
0100
0000
0000
0010
0000
0100
0000
0000
,  // measure 9
0001
0000
0000
0010
0000
0001
0000
0000
1000
0000
0000
0000
1100
0000
0000
0000
,  // measure 10
1000
0000
0000
0010
0000
1000
0000
0000
0001
0000
0000
0100
0000
0010
0000
0000
,  // measure 11
1000
0000
0000
0100
0000
1000
0000
0000
0001
0000
0000
0000
0101
0000
0100
0000
,  // measure 12
0001
0000
0000
0000
1001
0000
0000
0000
1000
0010
1000
0010
1000
0000
0100
0000
,  // measure 13
0010
0000
0000
0000
0011
0000
0000
0000
0001
0010
0001
0010
0001
0000
0100
0000
,  // measure 14
0010
0100
0001
0010
1000
0010
0100
1000
,  // measure 15
0001
0000
0100
0000
0010
0000
1000
0000
0001
0100
0001
0100
0001
0000
1000
0000
,  // measure 16
0100
0000
0000
0000
0110
0000
0000
0000
0010
0001
0010
0001
0010
0000
0100
0000
,  // measure 17
1000
0000
0000
0000
1010
0000
0000
0000
1000
0001
1000
0001
1000
0000
0010
0000
,  // measure 18
1000
0100
0001
0100
0010
0001
1000
0010
,  // measure 19
0001
0100
1000
0010
0100
0001
1000
1000
,  // measure 20
1000
0000
0100
0000
1000
0001
0000
0000
0010
0100
0010
0100
0010
0000
0001
0000
,  // measure 21
1000
0000
0010
0000
1000
0000
0001
0000
0100
0010
0100
0010
0100
0000
0001
0000
,  // measure 22
1000
0000
1000
0000
0010
0000
1000
0000
0001
0100
0010
1000
0100
0010
0001
0000
,  // measure 23
1000
0000
0010
1000
0001
0000
0100
0001
1000
0000
0100
0010
0001
0000
0001
0000
,  // measure 24
0001
0000
1000
0000
0010
1000
0000
0000
0001
0100
0001
0100
0001
0000
0010
0000
,  // measure 25
0100
0000
0001
0000
0100
0000
1000
0000
0100
0010
0100
0010
0100
0000
1000
0000
,  // measure 26
0001
0000
0100
0000
0100
0000
0001
0000
0010
0001
1000
0010
0100
0001
1000
0000
,  // measure 27
0001
0000
0010
0100
1000
0000
0100
0010
0001
0000
1000
0001
0100
0000
0100
0000
,  // measure 28
0001
0000
0100
0000
0001
1000
0000
0000
1000
0100
1000
0100
1000
0000
0001
0000
,  // measure 29
0100
0000
0010
0000
0001
0000
0010
0000
1000
0100
1000
0100
1000
0000
0010
0000
,  // measure 30
0100
0000
0001
0000
0001
0000
1000
0000
0001
0100
0001
0100
0001
0000
1000
0000
,  // measure 31
0010
0000
0100
0010
1000
0000
0001
0010
0100
0000
1000
0100
0010
0000
0010
0000
,  // measure 32
0010
0000
0000
0000
0101
0000
0000
0000
0001
1000
0001
1000
0001
0000
0001
0000
,  // measure 33
0100
0000
0000
0000
0110
0000
0000
0000
0010
1000
0010
1000
0010
0000
1000
0000
,  // measure 34
0001
0000
0000
0000
0101
0000
0000
0000
0100
0010
0100
0010
0100
0000
0100
0000
,  // measure 35
0001
0000
0000
0000
1001
0000
0000
0000
0001
0010
0001
0010
0001
0000
1000
0000
,  // measure 36
0100
0000
0000
0000
;

//---------------dance-single - ----------------
#NOTES:
     dance-single:
     X-Scale 8:
     Medium:
     6:
     0.351387,0.384119,0.044926,0.000000,0.123547,219.000000,215.000000,4.000000,0.000000,0.000000,0.000000,0.351387,0.384119,0.044926,0.000000,0.123547,219.000000,215.000000,4.000000,0.000000,0.000000,0.000000:
// measure 0
0000
0000
0000
0000
,  // measure 1
0000
0000
0000
0000
,  // measure 2
0000
0000
0000
0000
,  // measure 3
0000
0000
0000
0000
,  // measure 4
0010
0000
1000
0000
0001
0000
1000
0100
,  // measure 5
1000
0000
0001
0000
0100
0000
0001
0010
,  // measure 6
0001
0000
1000
0000
0010
0000
0100
0010
,  // measure 7
0100
0000
0001
0000
0010
0000
0100
1000
,  // measure 8
0100
0000
0010
0000
0001
0000
1000
0010
,  // measure 9
1000
0000
0001
0000
0010
0000
0100
1000
,  // measure 10
0100
0000
0010
0000
0001
0000
0100
0010
,  // measure 11
0100
0000
0001
0000
1000
0000
0010
0100
,  // measure 12
0010
0000
1000
0000
0001
0000
1000
0001
0000
0000
0000
0000
0010
0000
0100
0000
,  // measure 13
1000
0000
0001
0000
0100
0000
0010
0100
0000
0000
0000
0000
0001
0000
0010
0000
,  // measure 14
1000
0010
0100
1000
0100
0001
0100
0010
,  // measure 15
0001
0000
1000
0000
0100
0000
1000
0100
0000
0000
0000
0000
0010
0000
0100
0000
,  // measure 16
1000
0000
0001
0000
0010
0000
0100
0010
0000
0000
0000
0000
0001
0000
1000
0000
,  // measure 17
0010
0000
1000
0000
0001
0100
0001
0100
0000
0000
0000
0000
0010
0000
0100
0000
,  // measure 18
0001
0010
1000
0010
0001
0100
0010
0001
,  // measure 19
0010
0100
0001
1000
0100
0010
0001
0000
,  // measure 20
0001
0000
1000
0000
0000
1000
0000
0000
0010
0000
1000
0000
0001
0000
0010
0000
,  // measure 21
0100
0010
0000
0010
0001
1000
0010
1000
,  // measure 22
0001
0100
0100
0000
0001
0010
0100
1000
,  // measure 23
0010
0000
1000
0010
1000
0000
0001
0100
0001
0000
1000
0010
1000
0000
0100
0000
,  // measure 24
0010
0000
0001
0000
0000
0001
0000
0000
0100
0000
0010
0000
1000
0000
0001
0000
,  // measure 25
0010
0100
0000
0100
1000
0001
0100
0001
,  // measure 26
1000
0100
0100
0000
0010
0100
1000
0001
,  // measure 27
0100
0000
0001
0100
0001
0000
1000
0010
1000
0000
0001
0100
0001
0000
0001
0000
,  // measure 28
0010
0000
0100
0000
0000
0100
0000
0000
1000
0000
0000
0000
0001
0000
0100
0000
,  // measure 29
0001
0010
0000
0010
0100
1000
0010
0100
,  // measure 30
0010
1000
1000
0000
0001
0100
0001
1000
,  // measure 31
0010
0000
1000
0010
1000
0000
0001
0100
0001
0000
1000
0010
1000
0000
1000
0000
,  // measure 32
0001
0000
0000
0000
1001
0000
0000
0000
1000
0000
0000
1000
0000
0000
0100
0000
,  // measure 33
0010
0000
0000
0000
0011
0000
0000
0000
0001
0000
0000
0001
0000
0000
0100
0000
,  // measure 34
0010
0000
0000
0000
0110
0000
0000
0000
0100
0000
0000
0100
0000
0000
0001
0000
,  // measure 35
1000
0000
0000
0000
1001
0000
0000
0000
1000
0000
0000
1000
0000
0000
0100
0000
,  // measure 36
1000
0000
0000
0000
;

//---------------dance-single - ----------------
#NOTES:
     dance-single:
     X-Scale 4:
     Easy:
     2:
     0.210190,0.242601,0.000000,0.000000,0.000000,131.000000,131.000000,0.000000,0.000000,0.000000,0.000000,0.210190,0.242601,0.000000,0.000000,0.000000,131.000000,131.000000,0.000000,0.000000,0.000000,0.000000:
// measure 0
0000
0000
0000
0000
,  // measure 1
0000
0000
0000
0000
,  // measure 2
0000
0000
0000
0000
,  // measure 3
0000
0000
0000
0000
,  // measure 4
1000
0000
0010
0000
,  // measure 5
1000
0000
0001
0000
,  // measure 6
1000
0000
0010
0000
,  // measure 7
1000
0000
0001
0000
,  // measure 8
1000
0000
0001
0000
,  // measure 9
0100
0000
0001
0000
,  // measure 10
1000
0000
0010
0000
,  // measure 11
1000
0000
0001
0000
,  // measure 12
1000
0000
0010
0000
1000
0000
0001
0100
,  // measure 13
0001
0000
0010
0000
0100
0000
1000
0100
,  // measure 14
1000
0000
0100
0000
0010
0000
0001
0010
,  // measure 15
0001
0000
0100
0000
0010
0000
1000
0010
,  // measure 16
1000
0000
0001
0000
0100
0000
0010
0100
,  // measure 17
0010
0000
1000
0000
0001
0000
0010
0001
,  // measure 18
0010
0000
0100
0000
1000
0000
0100
0010
,  // measure 19
0100
0000
1000
0000
0001
0000
0100
0010
,  // measure 20
0100
0000
0001
0000
1000
0010
1000
0000
,  // measure 21
0100
0000
0010
0000
0001
0100
0001
0000
,  // measure 22
1000
0000
0010
1000
0001
0000
0100
0001
,  // measure 23
1000
0000
0100
0000
0010
0100
1000
0000
,  // measure 24
0001
0000
0100
0000
0010
0100
0010
0000
,  // measure 25
1000
0000
0001
0000
0100
0001
0100
0000
,  // measure 26
0010
0000
1000
0100
0010
0000
0001
0010
,  // measure 27
0100
0000
1000
0000
0001
0100
0001
0000
,  // measure 28
1000
0000
0010
0000
1000
0000
0001
0100
,  // measure 29
0001
0000
0010
0000
0100
0000
1000
0100
,  // measure 30
1000
0000
0010
0000
0100
0000
0001
0100
,  // measure 31
0001
0000
1000
0000
0100
0000
1000
0001
,  // measure 32
1000
0000
0010
1000
,  // measure 33
0001
0000
0010
0100
,  // measure 34
1000
0000
0010
1000
,  // measure 35
0001
0000
0100
0001
,  // measure 36
1000
0000
0000
0000
;

//---------------dance-single - ----------------
#NOTES:
     dance-single:
     X-Scale 1:
     Beginner:
     1:
     0.085039,0.101084,0.000000,0.000000,0.000000,53.000000,53.000000,0.000000,0.000000,0.000000,0.000000,0.085039,0.101084,0.000000,0.000000,0.000000,53.000000,53.000000,0.000000,0.000000,0.000000,0.000000:
// measure 0
0000
0000
0000
0000
,  // measure 1
0000
0000
0000
0000
,  // measure 2
0000
0000
0000
0000
,  // measure 3
0000
0000
0000
0000
,  // measure 4
1000
0000
0000
0000
,  // measure 5
0100
0000
0000
0000
,  // measure 6
0010
0000
0000
0000
,  // measure 7
0001
0000
0000
0000
,  // measure 8
0100
0000
0000
0000
,  // measure 9
0010
0000
0000
0000
,  // measure 10
1000
0000
0000
0000
,  // measure 11
0001
0000
0000
0000
,  // measure 12
0010
0000
0100
0000
,  // measure 13
0010
0000
0001
0000
,  // measure 14
0010
0000
0100
0000
,  // measure 15
1000
0000
0001
0000
,  // measure 16
1000
0000
0010
0000
,  // measure 17
1000
0000
0001
0000
,  // measure 18
0100
0000
0001
0000
,  // measure 19
1000
0000
0100
0000
,  // measure 20
0010
0000
0001
0000
,  // measure 21
0010
0000
0001
0000
,  // measure 22
1000
0000
0010
0000
,  // measure 23
1000
0000
0001
0000
,  // measure 24
0100
0000
0001
0000
,  // measure 25
1000
0000
0010
0000
,  // measure 26
1000
0000
0001
0000
,  // measure 27
0010
0000
0100
0000
,  // measure 28
0010
0000
0001
0000
,  // measure 29
1000
0000
0001
0000
,  // measure 30
0100
0000
0001
0000
,  // measure 31
1000
0000
0100
0000
,  // measure 32
1000
0000
0000
0000
,  // measure 33
0001
0000
0000
0000
,  // measure 34
1000
0000
0000
0000
,  // measure 35
0001
0000
0000
0000
,  // measure 36
1000
0000
0000
0000
;
