#VERSION:0.83;
#TITLE:Carry Me (2020 Edit);
#SUBTITLE:;
#ARTIST:Avi8;
#TITLETRANSLIT:;
#SUBTITLETRANSLIT:;
#ARTISTTRANSLIT:;
#GENRE:Euphoric Hardstyle;
#ORIGIN:;
#CREDIT:;
#BANNER:Carry Me (2020 Edit)-bn.png;
#BACKGROUND:Carry Me (2020 Edit)-bg.png;
#PREVIEWVID:;
#JACKET:Carry Me (2020 Edit)-jacket.png;
#CDIMAGE:;
#DISCIMAGE:;
#LYRICSPATH:;
#CDTITLE:cdtitle.png;
#MUSIC:Carry Me (2020 Edit).ogg;
#OFFSET:-0.004000;
#SAMPLESTART:53.604000;
#SAMPLELENGTH:12.800000;
#SELECTABLE:YES;
#DISPLAYBPM:75.000000:150.000000;
#BPMS:0.000=75.000,
49.000=150.000,
77.000=75.000,
79.000=300.000,
79.500=150.000,
79.750=75.000,
80.000=300.000,
80.500=150.000,
80.750=75.000,
81.000=300.000,
81.500=75.000,
81.750=300.000,
82.250=75.000,
82.500=150.000,
96.500=300.000,
97.000=150.000,
97.250=75.000,
97.500=150.000,
107.000=300.000,
107.500=150.000,
107.750=75.000,
108.000=150.000,
108.500=300.000,
109.000=150.000,
109.250=75.000,
109.500=300.000,
110.000=150.000,
110.250=75.000,
110.500=300.000,
111.000=225.000,
111.500=150.000,
112.000=112.500,
112.500=99.000,
113.000=150.000,
127.000=300.000,
127.500=75.000,
127.750=300.000,
128.250=75.000,
128.500=300.000,
129.000=150.000,
129.250=75.000,
129.500=150.000,
143.000=300.000,
143.500=75.000,
143.750=300.000,
144.250=75.000,
144.500=150.000,
145.000=300.000,
145.500=150.000,
145.750=75.000,
146.000=150.000,
147.000=75.000,
155.000=150.000,
167.000=75.000,
169.000=150.000,
193.500=300.000,
194.000=150.000,
194.250=75.000,
194.500=150.000,
195.500=300.000,
196.000=150.000,
196.250=75.000,
196.500=150.000,
197.000=75.000,
199.000=150.000,
227.000=75.000;
#STOPS:;
#DELAYS:;
#WARPS:;
#TIMESIGNATURES:0.000=4=4;
#TICKCOUNTS:0.000=4;
#COMBOS:0.000=1;
#SPEEDS:0.000=1.000=0.000=0;
#SCROLLS:0.000=1.000;
#FAKES:;
#LABELS:0.000=Song Start;
#BGCHANGES:;
#KEYSOUNDS:;
#ATTACKS:
;

//---------------dance-single - ----------------
#NOTEDATA:;
#CHARTNAME:X-Scale 14;
#STEPSTYPE:dance-single;
#DESCRIPTION:;
#CHARTSTYLE:;
#DIFFICULTY:Hard;
#METER:9;
#RADARVALUES:0.577925,0.756057,0.433997,0.108499,0.453372,522.000000,466.000000,56.000000,14.000000,0.000000,0.000000,1.000000,0.000000,0.000000,0.577925,0.756057,0.433997,0.108499,0.453372,522.000000,466.000000,56.000000,14.000000,0.000000,0.000000,1.000000,0.000000,0.000000;
#CREDIT:;
#DISPLAYBPM:75.000000:150.000000;
#NOTES:
0000
0000
0000
0000
,
0000
0000
0000
0000
,
0000
0000
0000
0000
0000
0000
0000
0000
1000
0000
0000
0100
0000
0000
1000
0000
0000
0000
0001
0100
0000
0001
0100
0000
0000
0001
0000
0000
1000
0000
0000
0000
,
0000
1100
0000
0101
,
0001
0000
0000
0000
1000
0000
0010
0000
1000
0000
0000
0000
0100
0000
0000
0000
0010
0000
0000
0000
0000
0000
0000
0000
0001
0000
0000
0010
0000
0000
0100
0000
,
1000
0000
0000
1000
0000
0000
1000
0000
0100
0000
0000
0000
0001
0000
0000
0000
0010
0000
0000
0000
1000
0000
0000
0000
0001
0000
0010
0000
1000
0000
0010
0000
,
0002
0000
0000
0000
0003
0000
0100
0000
0001
0000
0000
0000
1000
0000
0000
0000
0010
0000
0000
0000
0000
0000
1000
0000
0001
0000
0000
0100
0000
0000
0010
0000
,
0100
0000
0000
0100
0000
0000
0100
0000
0001
0000
0000
0000
0010
0000
0000
0000
1000
0000
0000
0000
0010
0000
0100
0000
1000
0000
0000
0000
0001
0000
0000
0000
,
1000
0000
0100
0010
0001
0000
0100
0000
1000
0000
0100
0000
0001
0000
0010
0000
,
1000
0000
0010
0100
1000
0000
0100
0000
0001
0000
0100
0010
0100
0000
1000
0000
,
0001
0000
0000
0000
0100
0000
0001
0100
0001
0000
1000
0000
0100
0000
1000
0000
0010
0000
0100
0000
0010
0000
1000
0000
0100
0000
0010
0000
0100
0000
1000
0000
,
0001
0000
0100
0000
0010
0000
0100
0000
1000
0000
0100
0000
0001
0000
0010
0000
0100
0000
1000
0000
0001
0000
1000
0000
0100
0000
0000
1000
0000
0000
0001
0000
,
0000
0010
0001
0000
0000
0010
0100
0000
0110
0000
0000
0000
0000
0000
0000
0000
0010
0000
0000
0000
0000
0000
0000
0000
0001
0000
0000
0000
0000
0000
0000
0000
,
1000
0000
0010
0000
1000
0000
0000
0010
0100
0000
0001
0000
0010
0000
1000
0000
,
0010
0000
0000
0000
0000
0000
0001
0000
0010
0000
0001
0000
0010
0000
0000
0000
0000
0000
0000
0000
0000
0001
0000
0000
1000
0000
0000
0000
0000
0000
0100
0000
0000
0000
0000
0000
0010
0000
0000
0000
0000
0000
0100
0000
0000
0000
0000
0000
,
0010
0000
0000
0000
0001
0000
0000
0010
0100
0000
0010
0000
0001
0000
1000
0000
,
0001
0000
0100
0000
0101
0000
0001
0000
1000
0000
0001
0010
0001
0000
1000
0000
,
0020
0000
0031
0010
1000
0100
0001
0100
,
2000
0000
0000
0000
3100
0000
0000
1000
0001
0000
0010
0100
0010
0000
0100
0000
,
0010
0000
0001
0000
0000
0100
0001
0000
0010
0000
0100
0000
1100
0000
0000
0000
,
1001
0000
0000
0000
0101
0000
0000
0011
0000
0000
1001
0000
1001
0000
1000
0100
,
1000
0000
0001
0000
0010
0000
0100
0000
0010
0000
0001
0000
1000
0000
0010
1000
,
0001
0000
0100
0001
1000
0000
0100
0010
0000
0000
0010
0000
0001
0000
0100
0001
,
1000
0000
0100
0000
0001
0000
0100
0000
0010
0000
0001
0000
1000
0000
0100
1000
,
0001
0000
1001
0000
0000
0000
0001
0000
0040
0000
0100
0000
0130
0000
0010
0001
,
1000
0000
0010
0000
1000
0000
0001
0000
0010
0000
0100
0010
0100
0000
1000
0010
,
1000
0000
0001
0010
0001
0000
0100
0010
0000
0000
0010
0000
0110
0000
0000
0000
,
1001
1001
0000
1100
0000
0201
0000
0000
,
0000
0000
0000
0000
1300
0000
0100
0000
0002
0000
0000
0000
1003
0000
0000
0100
,
1000
0000
0001
0000
0100
0000
1000
0000
0100
0000
0001
0000
0010
0000
0000
0100
,
0010
0000
0001
0000
1000
0000
0001
0000
0100
0000
0010
0100
0001
0000
0000
0010
,
0100
0000
1000
0000
0001
0000
1000
0000
0100
0000
0010
0001
0011
0000
0000
1001
,
0000
0000
1010
0000
0000
0000
1001
0000
1000
0001
1000
0000
1001
0000
0000
0100
,
1000
0000
0001
0000
0100
0000
1000
0000
0001
0000
0010
0000
1000
0000
0000
0100
,
0010
0000
0100
0000
1000
0000
0001
0000
0100
0000
0001
1000
0010
0000
0000
0000
,
1000
0000
1100
0000
0000
0000
0110
0000
0100
0010
0100
0000
0110
0000
0000
1001
,
0000
0000
1100
0000
2200
0000
0000
3300
1000
0100
1000
0000
1001
0000
0001
0000
,
0100
0000
0001
0000
1000
0000
0100
1000
0010
0000
0100
0001
0000
0000
0010
0100
1000
0000
0001
0100
0000
0010
1000
0000
0100
0000
0000
0000
0001
0000
0000
0000
,
0010
0000
1000
0000
0000
0000
0001
0000
0010
0000
0001
1000
0000
0100
0010
0000
0000
0000
0010
0000
0100
0000
1000
0000
1100
0000
0000
0000
0000
0000
0000
0000
,
1001
0000
0000
0000
0000
0000
0001
0000
0000
0010
0000
0000
0100
0000
0000
1000
0100
1000
0100
0000
0000
0010
0000
0000
,
0001
0000
1000
0001
1000
0000
0010
0100
0010
0000
1000
0000
0001
0000
0010
0000
,
0001
1000
0001
0010
0100
1000
0000
0200
,
0310
0100
2000
3000
1100
0000
0000
0000
0101
0000
0000
0000
0011
0000
0000
0000
,
1010
1100
0101
1001
,
0001
0000
0001
0000
0011
0000
0000
0010
0100
0000
0000
0000
0110
0000
0000
0000
,
1001
0000
0000
0000
1100
0000
0100
1000
0100
0000
0100
0000
0100
0000
0000
0000
,
0020
0000
0001
0000
0031
0000
0010
0000
1000
0000
0010
0000
0001
0000
0000
0100
,
0001
0101
1001
1010
,
1001
0001
0101
0101
0000
1100
1100
1100
,
0000
0000
1001
0000
1001
0000
0000
0001
0000
0001
0000
0001
0010
0000
0100
0000
,
0110
0000
0100
0000
1000
0001
0010
0000
,
0100
0000
1000
0000
0001
0000
0000
0000
0100
0001
0100
0000
0001
0010
0001
0000
,
1000
0010
1000
0000
1010
0000
0000
0000
1000
0000
0100
0000
0010
0000
0000
0000
,
0001
1000
0010
0001
0010
1000
1100
0000
,
0100
0010
0001
0000
1000
0001
0100
0000
,
0010
0100
0001
0000
0020
0000
0130
1000
,
0001
0000
1000
0000
0100
0010
0001
0000
1000
0001
0100
0000
0001
0000
0010
0000
,
0100
1000
0000
0001
2001
0000
0010
0000
0100
0000
0001
0000
0010
0000
0100
0000
,
0001
0000
0000
0000
0000
0000
0000
0000
0000
0000
0000
0000
0000
0000
0000
0000
3200
0000
0000
0000
0000
0000
0000
0000
0310
0000
0000
0010
0000
0000
0001
0000
,
0200
0300
0000
0000
0000
0000
0000
0000
;

//---------------dance-single - ----------------
#NOTEDATA:;
#CHARTNAME:X-Scale 11;
#STEPSTYPE:dance-single;
#DESCRIPTION:;
#CHARTSTYLE:;
#DIFFICULTY:Medium;
#METER:8;
#RADARVALUES:0.446176,0.572770,0.216999,0.209249,0.228624,403.000000,375.000000,28.000000,27.000000,0.000000,0.000000,0.000000,0.000000,0.000000,0.446176,0.572770,0.216999,0.209249,0.228624,403.000000,375.000000,28.000000,27.000000,0.000000,0.000000,0.000000,0.000000,0.000000;
#CREDIT:;
#DISPLAYBPM:75.000000:150.000000;
#NOTES:
// measure 0
0000
0000
0000
0000
,  // measure 1
0000
0000
0000
0000
,  // measure 2
0000
0000
0000
0000
0000
0000
0000
0000
0001
0000
0000
0010
0000
0000
0100
0000
0000
1000
0000
0000
0000
0000
1000
0000
0000
0100
0000
0000
1000
0000
0000
0000
,  // measure 3
0000
0002
0000
0203
,  // measure 4
0320
0000
0000
0000
0000
0000
0000
0000
1030
0000
0000
0000
0001
0000
0000
0000
1000
0000
0000
0000
0000
0000
0000
0000
0100
0000
0000
0010
0000
0000
0100
0000
,  // measure 5
1000
0000
0000
1000
0000
0000
1000
0000
0001
0000
0000
0000
0001
0000
0000
0000
0010
0000
0000
0000
0010
0000
0000
0000
0100
0000
0000
0000
1000
0000
0100
0000
,  // measure 6
2000
0000
0000
0000
3000
0000
0000
0000
0100
0000
0000
0000
0010
0000
0000
0000
0001
0000
0000
0000
0000
0000
1000
0000
0010
0000
0000
1000
0000
0000
0001
0000
,  // measure 7
0100
0000
0000
0100
0000
0000
0100
0000
0001
0000
0000
0000
0001
0000
0000
0000
0010
0000
0000
0000
0010
0000
0000
0000
0100
0000
0000
0000
1000
0000
0000
0000
,  // measure 8
0100
0000
0000
1000
0001
0000
0100
0000
0001
0000
1000
0000
0100
0000
0001
0000
,  // measure 9
0100
1000
0010
0100
0010
1000
0001
0010
,  // measure 10
0100
0010
0001
0100
0001
1000
0100
0010
,  // measure 11
0100
0000
0000
0000
1000
0000
0001
0000
1000
0000
0000
0000
0100
0000
0000
0000
0001
0000
0000
0000
0100
0000
0000
0000
1000
0000
0000
0001
0000
0000
1000
0000
,  // measure 12
0000
0000
0000
0010
1020
0000
0000
0000
2030
0000
0000
0000
3002
0000
0000
0000
,  // measure 13
0013
0100
2000
0000
0010
0000
3001
1000
,  // measure 14
0001
0000
0010
0000
0100
0000
0000
0010
0000
0000
0001
0000
1000
0000
0001
0000
,  // measure 15
1000
0000
0000
0000
0100
0000
0000
1000
0000
0000
0001
0000
0100
0000
0001
0000
,  // measure 16
1000
0010
1000
0001
0010
1000
0010
0100
,  // measure 17
2000
0000
3100
0010
0001
1000
0001
0100
,  // measure 18
0020
0000
0000
0000
0031
0000
0000
0010
0000
0000
0100
0000
0001
0000
0100
0000
,  // measure 19
0001
0000
0000
0000
0000
0001
0100
0000
0001
0000
1000
0000
1001
0000
0000
0000
,  // measure 20
0120
0000
0000
0000
0001
0000
0000
0100
0000
0000
1000
0000
1030
0000
0010
0000
,  // measure 21
1000
0001
0010
0100
0010
0001
1000
0100
,  // measure 22
0001
0000
0100
0000
1000
0000
0000
0100
0000
0000
1000
0000
0001
0000
0100
0000
,  // measure 23
1000
0000
0100
0000
0010
0000
0100
0000
0001
0000
0010
0000
0100
0000
0000
1000
,  // measure 24
0000
1100
0000
0000
2000
0000
3001
1000
,  // measure 25
0010
0001
0010
1000
0100
1000
0001
0100
,  // measure 26
0010
0100
0001
0010
0100
1000
1100
0000
,  // measure 27
0000
1001
0000
0110
0000
2002
0000
0000
,  // measure 28
0000
0000
0000
0000
3003
0000
0000
0000
0000
0000
0000
0000
1100
0000
0000
0100
,  // measure 29
0000
0000
0010
0000
0001
0000
1000
0000
0001
0000
0010
0000
0010
0000
0000
0100
,  // measure 30
0000
0000
1000
0000
0000
0000
0001
0000
0010
0000
0001
0000
1000
0000
0000
0010
,  // measure 31
0000
0000
1000
0000
0000
0100
0000
0000
0010
0000
0100
0000
0110
0000
0000
1001
,  // measure 32
0000
0000
0110
0000
0000
0000
0010
0000
0100
0000
0001
0000
1000
0000
0000
0100
,  // measure 33
0000
0000
0010
0000
0000
0000
0010
0000
0100
0000
1000
0000
0001
0000
0000
0100
,  // measure 34
0000
0001
0000
1000
0010
1000
1010
0000
,  // measure 35
1000
0000
0001
0000
0010
0000
0001
0000
1000
0001
1000
0000
1001
0000
0000
1100
,  // measure 36
0000
0101
0202
0000
0303
0000
0101
0001
,  // measure 37
1000
0000
0000
0000
0100
0000
1000
0000
0001
0000
0000
1000
0000
0000
0100
0010
0100
0000
0000
1000
0000
0000
0001
0000
0100
0000
0000
0000
0001
0000
0000
0000
,  // measure 38
1000
0000
0100
0000
0000
0000
1000
0000
0001
0000
0000
0010
0000
0000
0100
0000
0000
0000
1000
0000
0100
0000
0010
0000
0002
0000
0000
0000
0000
0000
0000
0000
,  // measure 39
2003
0000
3200
0301
0100
1000
0001
0100
,  // measure 40
0001
0010
0100
0001
0100
1000
0002
0000
,  // measure 41
2003
0000
3200
0310
0100
1000
0000
0000
,  // measure 42
0000
1001
1000
0010
,  // measure 43
1000
0001
0010
0100
,  // measure 44
1000
0000
0100
0000
1100
0000
0000
1000
0100
0000
0000
0000
1000
0000
0000
0000
,  // measure 45
0001
0000
0010
0100
1000
0001
0100
0000
,  // measure 46
0002
0000
0000
0000
1003
0000
0001
0000
0100
0000
0001
0000
1000
0000
0000
0100
,  // measure 47
0010
0110
0010
0101
,  // measure 48
0001
1000
1001
1001
0000
1000
0100
1100
,  // measure 49
0000
0000
1000
0000
0002
0000
0003
0001
0000
0001
0000
0001
1000
0000
0010
0000
,  // measure 50
1010
0000
1000
0000
0001
0010
0100
0000
,  // measure 51
0010
0000
0100
0000
1000
0000
0000
0000
0001
0010
0001
0000
0100
0010
0100
0000
,  // measure 52
0001
0010
0001
0000
1000
0000
0000
0000
0100
0000
1000
0000
0001
0000
0000
0000
,  // measure 53
0010
0100
1000
0001
1000
0100
1100
0000
,  // measure 54
1000
0000
0001
0000
0100
0001
1000
0000
,  // measure 55
0010
1000
0001
0000
0020
0000
0130
0010
,  // measure 56
0001
1000
0001
0010
0100
1000
0100
1000
,  // measure 57
0001
0000
0000
1000
1001
0000
1000
0000
0001
0000
0100
0000
0010
0000
1000
0000
,  // measure 58
0001
0000
0000
0000
0000
0000
0000
0000
0000
0000
0000
0000
0000
0000
0000
0000
0020
0000
0000
0000
0000
0000
0000
0000
0031
0000
0000
0001
0000
0000
1000
0000
,  // measure 59
0002
0003
0000
0000
0000
0000
0000
0000
;

//---------------dance-single - ----------------
#NOTEDATA:;
#CHARTNAME:X-Scale 6;
#STEPSTYPE:dance-single;
#DESCRIPTION:;
#CHARTSTYLE:;
#DIFFICULTY:Easy;
#METER:3;
#RADARVALUES:0.283427,0.295951,0.131749,0.193749,0.000000,256.000000,239.000000,17.000000,25.000000,0.000000,0.000000,0.000000,0.000000,0.000000,0.283427,0.295951,0.131749,0.193749,0.000000,256.000000,239.000000,17.000000,25.000000,0.000000,0.000000,0.000000,0.000000,0.000000;
#CREDIT:;
#DISPLAYBPM:75.000000:150.000000;
#NOTES:
// measure 0
0000
0000
0000
0000
,  // measure 1
0000
0000
0000
0000
,  // measure 2
0000
0000
1000
0100
1000
0100
1000
0000
,  // measure 3
0000
0200
0000
0320
,  // measure 4
0032
2003
0000
3100
,  // measure 5
1000
0000
0001
1000
0010
1000
0001
0000
,  // measure 6
0010
0200
0000
1300
,  // measure 7
0100
0000
0010
0001
1000
0001
0010
0100
,  // measure 8
1000
0001
1000
0001
,  // measure 9
0010
0100
0010
0100
,  // measure 10
1000
0000
0100
0000
0010
0100
1000
0000
,  // measure 11
0001
1000
0010
0000
1000
0100
0010
0000
,  // measure 12
0001
0011
0001
1000
,  // measure 13
0010
1000
0002
0000
0010
0000
1003
0000
,  // measure 14
0001
0000
1000
0000
0100
0000
0010
0100
,  // measure 15
0010
0001
1000
0010
,  // measure 16
1000
0001
1000
0000
0100
0000
0010
0000
,  // measure 17
0002
0103
0001
0010
,  // measure 18
0200
0000
1300
0000
0100
0000
1000
0001
,  // measure 19
1000
0000
0000
0001
0010
0100
0110
0000
,  // measure 20
2001
0000
0000
3100
,  // measure 21
1000
0001
1000
0100
,  // measure 22
1000
0000
0001
0000
0010
0100
0010
0000
,  // measure 23
0001
1000
0001
0100
,  // measure 24
0001
0001
0000
0000
2000
0000
3100
0000
,  // measure 25
1000
0001
0100
0010
,  // measure 26
0100
0001
1000
1001
,  // measure 27
0000
1000
0000
1000
0000
2000
0000
0000
,  // measure 28
0000
0000
3100
0010
0002
0000
0013
0000
,  // measure 29
0001
0000
1000
0000
0001
0010
0100
0000
,  // measure 30
1000
0000
0010
0000
1000
0001
1000
0000
,  // measure 31
0010
1000
0001
0020
,  // measure 32
0000
0000
0030
0001
1000
0001
1000
0000
,  // measure 33
0100
0000
1000
0002
0000
0023
0130
0000
,  // measure 34
0010
0002
0000
2003
3000
0100
1000
0000
,  // measure 35
0001
1000
0000
0100
0000
1000
1200
0000
,  // measure 36
0000
0000
0000
0000
0000
0000
0310
0100
,  // measure 37
1000
0000
0001
0000
1000
0000
0100
0010
,  // measure 38
0001
1000
0020
1030
,  // measure 39
1010
0001
0101
0100
,  // measure 40
0110
0010
1010
1000
,  // measure 41
0001
0000
0010
0100
1000
0001
1000
0000
,  // measure 42
0000
1100
1000
0001
,  // measure 43
1000
0010
1000
0001
,  // measure 44
0000
0011
0001
1000
,  // measure 45
0010
0000
1000
0000
0100
0010
0100
0000
,  // measure 46
2000
0000
3100
1000
0001
1000
0100
0000
,  // measure 47
0010
0011
0001
1001
,  // measure 48
1000
0000
0100
0100
0000
0000
1000
1000
,  // measure 49
0000
2002
0000
3003
,  // measure 50
0101
0001
1000
0010
,  // measure 51
1000
0001
0010
0100
,  // measure 52
0010
0001
1000
0001
,  // measure 53
0100
0000
0010
0100
0001
0000
1001
0000
,  // measure 54
1000
0000
0100
0000
1000
0001
1000
0000
,  // measure 55
0100
0010
0100
0000
2000
0000
3001
0000
,  // measure 56
0010
0000
0100
0000
1000
0000
0100
1000
,  // measure 57
0001
2002
0000
0000
,  // measure 58
0000
0000
0000
3003
;

//---------------dance-single - ----------------
#NOTEDATA:;
#CHARTNAME:X-Scale 2;
#STEPSTYPE:dance-single;
#DESCRIPTION:;
#CHARTSTYLE:;
#DIFFICULTY:Beginner;
#METER:2;
#RADARVALUES:0.112928,0.155290,0.023250,0.000000,0.000000,102.000000,99.000000,3.000000,0.000000,0.000000,0.000000,0.000000,0.000000,0.000000,0.112928,0.155290,0.023250,0.000000,0.000000,102.000000,99.000000,3.000000,0.000000,0.000000,0.000000,0.000000,0.000000,0.000000;
#CREDIT:;
#DISPLAYBPM:75.000000:150.000000;
#NOTES:
// measure 0
0000
0000
0000
0000
,  // measure 1
0000
0000
0000
0000
,  // measure 2
0000
0001
0000
0000
,  // measure 3
0000
0010
0000
0000
,  // measure 4
0000
0001
0000
0000
,  // measure 5
0000
1000
0000
0000
,  // measure 6
0000
0100
0000
0000
,  // measure 7
0000
1000
0000
0000
,  // measure 8
0000
0001
0000
1000
,  // measure 9
0000
0010
0000
1000
,  // measure 10
0000
0001
0000
0100
,  // measure 11
0000
0010
0000
1000
,  // measure 12
0100
1000
0000
0100
,  // measure 13
0000
0010
0000
0001
,  // measure 14
0000
1000
0000
0001
,  // measure 15
0000
0100
0000
0010
,  // measure 16
0000
1000
0000
0001
,  // measure 17
0000
0010
0000
0001
,  // measure 18
0000
1000
0000
0100
,  // measure 19
0000
1000
0000
0000
,  // measure 20
0000
0000
0000
1001
,  // measure 21
0000
0000
0000
0001
,  // measure 22
0000
1000
0000
0001
,  // measure 23
0000
0000
0000
0100
,  // measure 24
0000
0000
0000
0010
,  // measure 25
0000
0000
0000
1000
,  // measure 26
0000
0001
0000
1000
,  // measure 27
0000
0000
0000
0000
,  // measure 28
0000
0001
0000
0010
,  // measure 29
0000
0001
0000
1000
,  // measure 30
0000
0001
0000
0010
,  // measure 31
0000
0100
0000
1000
,  // measure 32
0000
0000
0000
0100
,  // measure 33
0000
0010
0000
0001
,  // measure 34
0000
1000
0000
0001
,  // measure 35
0000
0100
0000
0001
,  // measure 36
0000
0000
0000
1001
,  // measure 37
0000
1000
0000
0100
,  // measure 38
0000
0010
0000
0001
,  // measure 39
0000
1000
0000
0010
,  // measure 40
0000
1000
0000
0001
,  // measure 41
0010
0100
1000
0000
,  // measure 42
0000
0001
0000
0010
,  // measure 43
0000
0001
0000
0010
,  // measure 44
0000
0100
0000
1000
,  // measure 45
0000
0100
0010
0001
,  // measure 46
0000
1000
0001
1000
,  // measure 47
0000
0010
0000
1000
,  // measure 48
0000
0001
0000
0001
,  // measure 49
0000
0001
0000
1000
,  // measure 50
0000
0100
0000
1000
,  // measure 51
0000
0001
0000
0100
,  // measure 52
0000
0001
0000
0010
,  // measure 53
0000
0100
0000
0010
,  // measure 54
0000
0001
0000
1000
,  // measure 55
0000
0010
0000
1000
,  // measure 56
0000
0100
0000
1000
,  // measure 57
0000
1001
0000
0000
;
