#TITLE:Call on Me;
#SUBTITLE:;
#ARTIST:Eric Prydz;
#TITLETRANSLIT:;
#SUBTITLETRANSLIT:;
#ARTISTTRANSLIT:;
#GENRE:Progressive House;
#CREDIT:;
#BANNER:Call on Me-bn.png;
#BACKGROUND:Call on Me-bg.png;
#LYRICSPATH:;
#CDTITLE:cdtitle.png;
#MUSIC:Call on Me.ogg;
#OFFSET:-0.019000;
#SAMPLESTART:30.414000;
#SAMPLELENGTH:15.000000;
#SELECTABLE:YES;
#BPMS:0.000000=126.336990
;
#STOPS:
;
#BGCHANGES:;
#KEYSOUNDS:;
#ATTACKS:;

//---------------dance-single - ----------------
#NOTES:
     dance-single:
     X-Scale 11:
     Hard:
     8:
     0.439840,0.479498,0.020189,0.100947,0.030284,305.000000,303.000000,2.000000,10.000000,0.000000,0.000000,0.439840,0.479498,0.020189,0.100947,0.030284,305.000000,303.000000,2.000000,10.000000,0.000000,0.000000:
0000
0000
0000
0000
,
0000
0000
0000
0000
,
0000
0000
0000
0000
,
0000
0000
0000
0000
0000
0000
0000
2000
,
0100
0000
0001
0000
0100
0000
0001
3000
,
1000
0100
0000
0100
0001
0010
0001
0200
,
1000
0000
0010
0000
1000
0000
0010
0300
,
0100
0001
0000
0001
1000
0010
0100
0002
,
0010
0000
1000
0000
0010
0000
1000
0003
,
0001
0010
0000
0010
1000
0001
1000
0020
,
0001
0000
1000
0000
0001
0000
1000
0030
,
0010
0000
0100
0000
0000
0000
0100
0000
0001
0000
1000
0100
1000
0000
0020
0000
,
1000
0000
0001
0000
1000
0000
0001
0030
,
0010
0100
0000
0100
1000
0001
0100
0001
,
1000
0000
0010
0000
1000
0100
1000
0001
,
0000
0000
0000
0000
0001
0000
0100
0000
0001
0000
0010
0001
0010
0000
0000
0000
,
1001
0010
0001
0100
0001
0010
0001
0100
,
0001
0010
0100
1000
0010
1000
0100
0010
,
0001
0100
0001
0010
0001
0100
0001
0010
,
0001
0100
0010
1000
0010
0100
0001
1000
,
0100
0010
0001
1000
0100
0010
0001
0100
,
0010
0001
0010
1000
0001
0100
0010
1000
,
0001
0010
0001
1000
0010
0100
0001
1000
,
0100
0000
1000
0000
0010
0000
0100
0000
0001
0000
1000
0001
1000
0000
0100
0000
,
1100
0000
0100
0010
0001
0000
1000
0010
,
0100
0000
0001
0010
0100
0000
1000
0010
,
0100
0000
0001
0010
0001
0000
1000
0010
,
1000
0000
0001
0010
0001
0000
1000
0100
,
1000
0000
0001
0100
0001
0000
1000
0100
,
1000
0000
0001
0100
0001
0000
1000
0100
,
0010
0000
0001
0000
0100
0001
0010
0100
,
0000
0000
0000
0000
1000
0000
0010
0000
0100
0000
0001
0100
0001
0000
0200
0000
,
1000
0000
0001
0000
1000
0000
0001
0300
,
1000
0100
0001
0100
0010
1000
0001
0002
,
1000
0000
0010
0000
1000
0000
0010
0003
,
0001
0100
1000
0001
0010
1000
0100
2000
,
0001
0000
0100
0000
0001
0000
0100
3000
,
0001
0010
1000
0010
0100
1000
0010
0200
,
1000
0000
0001
0000
1000
0010
0010
0301
,
0100
0000
0001
0000
0010
0000
0100
0000
1000
0000
0010
0100
0001
0000
0100
0000
,
0010
0001
0010
1000
0001
0100
1000
0100
,
0010
1000
0001
1000
0100
0001
0100
1000
,
0010
0100
0010
1000
0100
0001
0100
1000
,
0001
0010
0001
0100
0010
1000
0001
1000
,
0100
0010
0100
1000
0001
0100
0001
1000
,
0100
0001
0100
0010
0001
1000
0001
0010
,
0100
0000
1000
0000
0010
0100
0001
1000
,
0000
0000
0000
0000
0001
0000
1000
0000
0001
0000
1000
0100
0010
0000
0001
0000
,
0020
1000
0100
0001
,
0100
1000
0100
0001
,
0030
0000
0000
0000
;

//---------------dance-single - ----------------
#NOTES:
     dance-single:
     X-Scale 8:
     Medium:
     6:
     0.412440,0.403788,0.030284,0.141326,0.000000,286.000000,283.000000,3.000000,14.000000,0.000000,0.000000,0.412440,0.403788,0.030284,0.141326,0.000000,286.000000,283.000000,3.000000,14.000000,0.000000,0.000000:
0000
0000
0000
0000
,
0000
0000
0000
0000
,
0000
0000
0000
0000
,
0000
0000
0000
0000
,
1000
0000
1000
0100
0010
0000
0010
0001
,
1000
0001
0000
0100
0010
1000
0001
1000
,
0100
0000
0100
0010
0001
0000
0001
1000
,
0010
1000
0000
0001
0010
0100
1000
0001
,
1000
0000
1000
0100
0010
0000
0010
0001
,
0100
0001
0000
0010
0100
1000
0001
1000
,
0010
0000
0010
0100
0001
0000
0001
1000
,
0100
0010
0000
0001
1000
0010
1000
0001
,
0010
0000
0010
0100
1000
0000
1000
0001
,
0100
0010
0000
1000
0001
1000
0100
0010
,
0001
1000
0001
1000
,
0100
0000
0010
0001
1000
0001
0020
0000
,
0130
0000
1000
0001
1000
0000
0100
0010
,
0001
1000
0000
0010
1000
0100
0001
0100
,
1000
0000
0001
0100
0010
0000
1000
0100
,
0010
0001
0000
1000
0001
0010
0001
1000
,
0001
0000
0100
0010
0001
0000
0001
0010
,
1000
0001
0000
1000
0100
0001
0100
1000
,
0010
0000
1000
0100
0010
0000
0100
0010
,
0001
0000
1000
0010
0100
0010
1000
0010
,
0200
0000
0301
0100
0020
0000
1030
0100
,
0020
0000
0031
0010
0200
0000
1300
0001
,
0200
0000
0301
1000
0020
0000
1030
0100
,
0020
0000
0031
0010
0200
0000
1300
0001
,
0200
0000
0310
0100
0002
0000
1003
0001
,
0020
0000
0130
1000
0002
0000
1003
0100
,
1100
0001
1000
0001
,
0010
0000
0100
1000
0001
1000
0100
0000
,
1100
0000
0001
1000
0100
0000
0010
0001
,
1000
0100
1000
0001
0000
0100
0010
1000
,
0001
0000
0010
0100
1000
0000
0001
0100
,
0010
1000
0001
0100
0000
0010
0100
0001
,
1000
0000
0100
0010
0001
0000
1000
0010
,
0100
0001
0000
1000
0100
0001
0100
0010
,
0001
0000
1000
0010
1000
0000
0001
0010
,
0100
0000
0010
0001
1000
0100
0010
0001
,
1001
0000
1000
0100
1000
0000
0001
0100
,
1000
0100
0010
0100
0001
1000
0100
0010
,
0001
0000
1000
0001
1000
0000
0010
0100
,
0010
1000
0001
0010
0100
1000
0010
0100
,
0001
0000
1000
0001
1000
0000
0010
0100
,
0001
0010
0100
1000
0001
1000
0100
0010
,
0001
0000
1000
0000
0001
0010
0100
1000
,
0000
0000
0001
0010
0000
0100
1000
0001
,
2000
0000
0001
0000
,
0100
0000
0010
0000
,
3100
0000
0000
0000
;

//---------------dance-single - ----------------
#NOTES:
     dance-single:
     X-Scale 4:
     Easy:
     4:
     0.315820,0.290727,0.020189,0.131231,0.000000,219.000000,217.000000,2.000000,13.000000,0.000000,0.000000,0.315820,0.290727,0.020189,0.131231,0.000000,219.000000,217.000000,2.000000,13.000000,0.000000,0.000000:
// measure 0
0000
0000
0000
0000
,  // measure 1
0000
0000
0000
0000
,  // measure 2
0000
0000
0000
0000
,  // measure 3
0000
0000
0000
0000
,  // measure 4
1000
0100
0010
0001
,  // measure 5
0100
0010
0000
0100
0010
0000
1000
0001
,  // measure 6
1000
0100
0010
0001
,  // measure 7
0100
0010
0000
0100
0010
0000
1000
0001
,  // measure 8
1000
0100
0010
0001
,  // measure 9
0100
0010
0000
0100
0010
0000
1000
0001
,  // measure 10
1000
0010
0100
0001
,  // measure 11
0010
0100
0000
0010
0100
0000
1000
0001
,  // measure 12
1000
0010
0100
0001
,  // measure 13
0010
0100
0000
0010
0100
0000
1000
0001
,  // measure 14
1000
0010
0100
0001
,  // measure 15
1000
0000
0001
0000
0010
0000
0100
2000
,  // measure 16
0100
0000
0001
0000
0100
0000
0001
3000
,  // measure 17
1000
0100
0000
0010
0001
0000
1000
0020
,  // measure 18
0001
0000
1000
0000
0001
0000
1000
0030
,  // measure 19
0010
0100
0000
0001
1000
0000
0010
0200
,  // measure 20
1000
0000
0001
0000
1000
0000
0001
0300
,  // measure 21
0100
0010
0000
1000
0001
0000
1000
0200
,  // measure 22
0001
0000
1000
0000
0001
0000
1000
0300
,  // measure 23
0100
0000
1000
0010
0000
0200
0301
0000
,  // measure 24
0101
0100
0010
1000
,  // measure 25
0001
0000
0010
0000
0100
0000
1000
0001
,  // measure 26
1000
0010
1000
0001
,  // measure 27
0100
0000
0010
0000
1000
0000
0100
0010
,  // measure 28
0100
1000
0001
0100
,  // measure 29
0010
0000
1000
0000
0100
0000
0010
0001
,  // measure 30
0010
0100
1000
0001
,  // measure 31
0100
0000
0010
0000
0100
0000
0001
2000
,  // measure 32
0100
0000
0010
0000
0100
0000
0010
3000
,  // measure 33
1000
0010
0000
0100
0001
0000
0010
0200
,  // measure 34
1000
0000
0001
0000
1000
0000
0001
0300
,  // measure 35
0100
0001
0000
1000
0100
0000
0010
0002
,  // measure 36
1000
0000
0100
0000
1000
0000
0100
0003
,  // measure 37
0001
0010
0000
0100
1000
0000
0001
0200
,  // measure 38
0010
0000
1000
0000
0001
0000
0010
0300
,  // measure 39
0100
0000
0001
0010
0000
0100
1000
0002
,  // measure 40
0010
0000
0100
0000
0010
0000
0100
0003
,  // measure 41
0001
0010
0000
0100
1000
0001
1000
0200
,  // measure 42
0001
0000
0010
0000
0001
0000
1000
0300
,  // measure 43
0100
0010
0000
0001
1000
0100
0010
0002
,  // measure 44
1000
0000
0010
0000
1000
0000
0100
0003
,  // measure 45
0001
0010
0000
0100
1000
0001
0010
0200
,  // measure 46
1000
0000
0001
0000
1000
0000
0010
0300
,  // measure 47
0100
0000
1000
0001
0000
1000
0100
0000
,  // measure 48
1100
0000
0000
0000
;

//---------------dance-single - ----------------
#NOTES:
     dance-single:
     X-Scale 1:
     Beginner:
     1:
     0.122578,0.145364,0.030284,0.000000,0.000000,85.000000,82.000000,3.000000,0.000000,0.000000,0.000000,0.122578,0.145364,0.030284,0.000000,0.000000,85.000000,82.000000,3.000000,0.000000,0.000000,0.000000:
// measure 0
0000
0000
0000
0000
,  // measure 1
0000
0000
0000
0000
,  // measure 2
0000
0000
0000
0000
,  // measure 3
0000
0000
0000
0000
,  // measure 4
1000
0000
0100
0000
,  // measure 5
1000
0000
0100
0000
,  // measure 6
0010
0000
0001
0000
,  // measure 7
0010
0000
0001
0000
,  // measure 8
1000
0000
0010
0000
,  // measure 9
1000
0000
0010
0000
,  // measure 10
0100
0000
0001
0000
,  // measure 11
0100
0000
0001
0000
,  // measure 12
1000
0000
0001
0000
,  // measure 13
1000
0000
0001
0000
,  // measure 14
0010
0000
0000
0000
,  // measure 15
0100
0000
0000
0000
,  // measure 16
1100
0000
1000
0000
,  // measure 17
0001
0000
1000
0000
,  // measure 18
0100
0000
0010
0000
,  // measure 19
0001
0000
0100
0000
,  // measure 20
0001
0000
1000
0000
,  // measure 21
0001
0000
0010
0000
,  // measure 22
0001
0000
0100
0000
,  // measure 23
0010
0000
0000
0000
,  // measure 24
1001
0000
1000
0000
,  // measure 25
0100
0000
1000
0000
,  // measure 26
0100
0000
0010
0000
,  // measure 27
0001
0000
0010
0000
,  // measure 28
0001
0000
0100
0000
,  // measure 29
0010
0000
0100
0000
,  // measure 30
0010
0000
0000
0000
,  // measure 31
1000
0000
0000
0000
,  // measure 32
1001
0000
0100
0000
,  // measure 33
0001
0000
0010
0000
,  // measure 34
0001
0000
1000
0000
,  // measure 35
0100
0000
0010
0000
,  // measure 36
0001
0000
0100
0000
,  // measure 37
0010
0000
1000
0000
,  // measure 38
0001
0000
0010
0000
,  // measure 39
0001
0000
1000
0000
,  // measure 40
0010
0000
0100
0000
,  // measure 41
0010
0000
1000
0000
,  // measure 42
0001
0000
1000
0000
,  // measure 43
0100
0000
0010
0000
,  // measure 44
0100
0000
1000
0000
,  // measure 45
0001
0000
1000
0000
,  // measure 46
0010
0000
0000
0000
,  // measure 47
1000
0000
0000
0000
,  // measure 48
0001
0000
0000
0000
;
