#VERSION:0.83;
#TITLE:CUT MY HEART OUT;
#SUBTITLE:;
#ARTIST:daine;
#TITLETRANSLIT:;
#SUBTITLETRANSLIT:;
#ARTISTTRANSLIT:;
#GENRE:Electropop;
#ORIGIN:;
#CREDIT:;
#BANNER:CUT MY HEART OUT-bn.png;
#BACKGROUND:CUT MY HEART OUT-bg.png;
#PREVIEWVID:;
#JACKET:CUT MY HEART OUT-jacket.png;
#CDIMAGE:;
#DISCIMAGE:;
#LYRICSPATH:;
#CDTITLE:cdtitle.png;
#MUSIC:CUT MY HEART OUT.ogg;
#OFFSET:-0.003000;
#SAMPLESTART:44.888000;
#SAMPLELENGTH:14.656000;
#SELECTABLE:YES;
#BPMS:0.000=131.000;
#STOPS:128.000=0.229,
128.500=0.229;
#DELAYS:;
#WARPS:;
#TIMESIGNATURES:0.000=4=4;
#TICKCOUNTS:0.000=4;
#COMBOS:0.000=1;
#SPEEDS:0.000=1.000=0.000=0;
#SCROLLS:0.000=1.000;
#FAKES:;
#LABELS:0.000=Song Start;
#BGCHANGES:0.000=CUT MY HEART OUT.avi=1.000=1=0=0=StretchNoLoop==CrossFade==,
99999=-nosongbg-=1.000=0=0=0 // don't automatically add -songbackground-
;
#KEYSOUNDS:;
#ATTACKS:
;

//---------------dance-single - ----------------
#NOTEDATA:;
#CHARTNAME:X-Scale 3;
#STEPSTYPE:dance-single;
#DESCRIPTION:;
#CHARTSTYLE:;
#DIFFICULTY:Beginner;
#METER:2;
#RADARVALUES:0.126821,0.156049,0.009247,0.000000,0.000000,96.000000,95.000000,1.000000,0.000000,0.000000,0.000000,0.000000,0.000000,0.000000,0.126821,0.156049,0.009247,0.000000,0.000000,96.000000,95.000000,1.000000,0.000000,0.000000,0.000000,0.000000,0.000000,0.000000;
#CREDIT:iamthek3n;
#NOTES:
// measure 0
0000
0000
0000
0000
,  // measure 1
0000
0000
0000
0000
,  // measure 2
0000
0000
0000
0000
,  // measure 3
0000
0000
0000
0000
,  // measure 4
0000
0000
1000
0000
,  // measure 5
0000
0000
0000
0000
,  // measure 6
0000
0000
0001
0000
,  // measure 7
0000
0000
0000
0000
,  // measure 8
0000
0000
0100
0000
,  // measure 9
0000
0000
0000
0000
,  // measure 10
0000
0000
0001
0000
,  // measure 11
0000
0000
0000
0000
,  // measure 12
0000
0000
0010
0000
,  // measure 13
0000
0000
0000
0000
,  // measure 14
0000
0000
0100
0000
,  // measure 15
0000
0000
1000
0000
,  // measure 16
0000
0000
0001
0000
,  // measure 17
1000
0000
0001
0000
,  // measure 18
1000
0000
0100
0000
,  // measure 19
0010
0000
0100
0000
,  // measure 20
0010
0000
0001
0000
,  // measure 21
0100
0000
0001
0000
,  // measure 22
0100
0000
0001
0000
,  // measure 23
1000
0000
0001
0000
,  // measure 24
0000
0000
1001
0000
,  // measure 25
1000
0000
0001
0000
,  // measure 26
1000
0000
0001
0000
,  // measure 27
0100
0000
0001
0000
,  // measure 28
0100
0000
0010
0000
,  // measure 29
0100
0000
0010
0000
,  // measure 30
0100
0000
0001
0000
,  // measure 31
1000
0000
0001
0000
,  // measure 32
1000
0001
0000
1000
,  // measure 33
0000
0100
0000
0010
,  // measure 34
0000
0100
0000
1000
,  // measure 35
0000
0001
0000
0100
,  // measure 36
0000
0001
0000
1000
,  // measure 37
0000
0100
0000
0010
,  // measure 38
0000
0100
0000
1000
,  // measure 39
0000
0001
0000
0100
,  // measure 40
0000
0001
0000
1000
,  // measure 41
0001
1000
0000
0100
,  // measure 42
0000
0010
0000
0001
,  // measure 43
0010
0001
0000
1000
,  // measure 44
0000
0001
0000
1000
,  // measure 45
0010
1000
0000
0001
,  // measure 46
0000
1000
0000
0100
,  // measure 47
0010
0100
0000
1000
,  // measure 48
0000
0001
0000
0100
,  // measure 49
0001
0100
0000
0010
,  // measure 50
0000
1000
0000
0100
,  // measure 51
0010
0100
0000
1000
,  // measure 52
0000
0001
0000
0010
,  // measure 53
0100
0010
0000
0001
,  // measure 54
0000
0010
0000
0100
,  // measure 55
1000
0100
0000
0010
,  // measure 56
0000
0001
0000
0000
;

//---------------dance-single - ----------------
#NOTEDATA:;
#CHARTNAME:X-Scale 6;
#STEPSTYPE:dance-single;
#DESCRIPTION:;
#CHARTSTYLE:;
#DIFFICULTY:Easy;
#METER:4;
#RADARVALUES:0.311768,0.338106,0.036989,0.073979,0.000000,236.000000,232.000000,4.000000,8.000000,0.000000,0.000000,0.000000,0.000000,0.000000,0.311768,0.338106,0.036989,0.073979,0.000000,236.000000,232.000000,4.000000,8.000000,0.000000,0.000000,0.000000,0.000000,0.000000;
#CREDIT:iamthek3n;
#NOTES:
// measure 0
0000
0000
0000
0000
,  // measure 1
0000
0000
0000
0000
,  // measure 2
0000
0000
0000
0000
,  // measure 3
0000
0000
0000
0000
,  // measure 4
0000
0000
0000
0000
0001
0000
0000
1000
,  // measure 5
0000
0001
0000
0000
0000
0000
0000
0000
,  // measure 6
0000
0010
0000
0010
0100
0000
0000
0100
,  // measure 7
0000
0000
1000
0000
,  // measure 8
0001
1000
0001
0000
,  // measure 9
0010
0000
0100
0000
,  // measure 10
1000
0000
0001
0000
,  // measure 11
1000
0000
0010
0000
,  // measure 12
0100
0000
0001
0000
,  // measure 13
1000
0000
0000
0000
0100
0000
0000
0010
,  // measure 14
0002
0000
0003
0000
0010
0000
0000
0100
,  // measure 15
2000
0000
3000
0000
0100
0000
0000
0010
,  // measure 16
0002
0000
0000
0003
0101
0000
0100
0000
,  // measure 17
0001
0000
0010
0100
1000
0000
0001
0000
,  // measure 18
1000
0010
1000
0001
,  // measure 19
0100
0000
0010
0100
0001
0000
1000
0000
,  // measure 20
0100
0010
0100
1000
,  // measure 21
0001
0000
0010
0100
1000
0000
0001
0000
,  // measure 22
1000
0000
0010
0000
0100
0010
0100
0000
,  // measure 23
0002
0003
0100
0010
0100
0000
0002
0003
,  // measure 24
0002
0003
0002
0003
1001
0000
0100
0000
,  // measure 25
1000
0000
0001
0100
0001
0000
0010
0000
,  // measure 26
0100
0010
0100
0000
1000
0000
0001
0000
,  // measure 27
0010
0100
0010
0000
0001
0000
1000
0000
,  // measure 28
0100
0010
0100
0000
1000
0000
0001
0000
,  // measure 29
0100
0000
0001
0100
0001
0000
0010
0000
,  // measure 30
0100
0010
0100
0000
1000
0000
0001
0000
,  // measure 31
1000
0000
0010
0100
0010
0000
1000
0000
,  // measure 32
0100
0011
1000
0001
,  // measure 33
0010
0100
0010
0000
0001
0000
1000
0010
,  // measure 34
1000
0001
1000
0100
,  // measure 35
1000
0010
1000
0000
0001
0000
0010
0100
,  // measure 36
0010
0001
0010
0100
,  // measure 37
1000
0100
1000
0000
0001
0000
0100
0010
,  // measure 38
0100
0000
0001
0000
1000
0000
0100
0010
,  // measure 39
0100
0000
1000
0000
0001
1000
0001
0000
,  // measure 40
0100
0000
0101
0000
0001
0000
1000
0100
,  // measure 41
0010
0100
1000
0000
0001
0000
0100
0010
,  // measure 42
0100
0000
0001
0000
0010
0000
0100
0010
,  // measure 43
0100
0000
1000
0000
0001
0000
0100
0001
,  // measure 44
1000
0001
0100
0000
0001
0000
1000
0000
,  // measure 45
0010
0100
0010
0000
1000
0000
0001
0010
,  // measure 46
0100
0010
0001
0000
1000
0000
0001
0010
,  // measure 47
0100
0000
1000
0000
0001
0000
1000
0001
,  // measure 48
0100
0001
1000
0000
0001
0000
0100
0010
,  // measure 49
1000
0001
0010
0000
0100
0000
0010
0100
,  // measure 50
1000
0000
0001
0000
1000
0000
0010
0100
,  // measure 51
0001
0000
1000
0000
0100
0000
0010
0100
,  // measure 52
1000
0001
1000
0000
0010
0000
0100
0000
,  // measure 53
0001
0100
0001
0000
1000
0000
0010
0100
,  // measure 54
0001
1000
0100
0000
0010
0000
0001
0010
,  // measure 55
0100
0010
0001
0000
1000
0000
0001
1000
,  // measure 56
0002
0003
0000
0000
;

//---------------dance-single - ----------------
#NOTEDATA:;
#CHARTNAME:X-Scale 10;
#STEPSTYPE:dance-single;
#DESCRIPTION:;
#CHARTSTYLE:;
#DIFFICULTY:Medium;
#METER:7;
#RADARVALUES:0.420094,0.509529,0.138710,0.443873,0.180323,318.000000,303.000000,15.000000,48.000000,0.000000,0.000000,0.000000,0.000000,0.000000,0.420094,0.509529,0.138710,0.443873,0.180323,318.000000,303.000000,15.000000,48.000000,0.000000,0.000000,0.000000,0.000000,0.000000;
#CREDIT:iamthek3n;
#NOTES:
// measure 0
0000
0000
0000
0000
,  // measure 1
0000
0000
0000
0000
,  // measure 2
0000
0000
0000
0000
,  // measure 3
0000
0000
0000
0000
,  // measure 4
0000
0000
0000
0000
0000
0000
0000
0000
1000
0000
0000
1000
0000
0000
2000
0000
,  // measure 5
3000
0020
0030
0000
1000
0000
0100
0001
,  // measure 6
0020
0000
0000
0000
2030
0000
0000
0000
3200
0000
0000
0010
0000
0000
0310
0000
,  // measure 7
0000
0000
0000
0001
0100
1000
0100
0001
,  // measure 8
2000
0000
0000
0000
3002
0000
0000
0000
0013
0000
0000
0010
0000
0000
0010
0000
,  // measure 9
0000
0000
0000
0000
0000
0000
0000
0000
0100
0000
0000
1000
0000
0000
0001
0000
,  // measure 10
1000
0000
0000
0000
0000
0000
0000
0000
0010
0000
0000
0010
0000
0000
0010
0000
,  // measure 11
0000
0000
0000
0000
0000
0000
0000
0000
0001
0000
0000
0100
0000
0000
0001
0000
,  // measure 12
0010
0000
0000
0000
0000
0000
0100
0000
0100
0000
0000
0100
0000
0000
0100
0000
,  // measure 13
0000
0000
0000
0000
0000
0000
0000
0000
0001
0000
0000
0100
0000
0000
0001
0000
,  // measure 14
2000
0000
0000
0000
3000
0000
0000
0000
0001
0000
0000
0100
0000
0000
0001
0000
,  // measure 15
2000
0000
0000
0000
3000
0000
0000
0000
0001
0000
0000
0100
0000
0000
0001
0000
,  // measure 16
2000
0000
0000
0000
3200
0000
0000
0000
1300
0000
0000
0001
0100
0000
0001
0000
,  // measure 17
1000
0000
0100
0010
0001
0000
0011
0000
,  // measure 18
1000
0000
0000
0000
1010
0000
0000
0000
0001
0000
0000
0001
1000
0000
0010
0000
,  // measure 19
1000
0000
0100
0010
0001
0000
1001
0000
,  // measure 20
0010
0000
0000
0000
0110
0000
0000
0000
0001
0000
0000
0100
0001
0000
1000
0000
,  // measure 21
0010
0000
1000
0100
0010
0000
0011
0000
,  // measure 22
1000
0000
1010
0000
0010
1000
0010
0000
,  // measure 23
0200
0300
0010
1000
0010
0000
0200
0300
,  // measure 24
0200
0300
0200
0300
0001
0010
0200
0000
,  // measure 25
2300
3000
0010
0100
0002
0000
2003
3000
,  // measure 26
0002
0000
2003
3000
0100
0010
0002
0000
,  // measure 27
2003
3000
0010
0100
2000
0000
3200
0300
,  // measure 28
2000
0000
3200
0300
0001
0100
0020
0000
,  // measure 29
2030
3000
0100
0001
0020
0000
2030
3000
,  // measure 30
1000
0100
0001
0100
1000
0000
1002
0000
,  // measure 31
0203
0300
0010
1000
0002
0000
0203
0300
,  // measure 32
0000
0000
1001
1000
0100
1000
0000
0000
,  // measure 33
0001
0000
0100
0000
0001
0000
0000
0010
0000
0000
0100
0000
0220
0000
0330
0000
,  // measure 34
2002
0000
3003
0000
1000
0000
0000
0100
0010
0000
0001
0000
0000
0000
0010
0000
,  // measure 35
0100
0000
0000
0000
1000
0000
0000
0001
0100
0000
0001
0000
0202
0000
0303
0000
,  // measure 36
2200
0000
3300
0000
0100
0000
0000
0010
0001
0000
1000
0000
0001
0000
0000
0000
,  // measure 37
1000
0000
0100
0000
0010
0000
0000
0001
1000
0000
0001
0000
0010
0000
1000
0000
,  // measure 38
0010
0000
0001
0000
0010
0000
0000
0010
0001
0000
0010
0000
0000
0000
0010
0000
,  // measure 39
0100
0000
0000
0000
1000
0000
0000
0001
1000
0000
0100
0000
2200
0000
3300
0000
,  // measure 40
0202
0000
0303
0000
1001
0000
0000
0001
0100
0000
0001
0000
0010
0000
1000
0000
,  // measure 41
0010
0000
0100
0000
1000
0000
0000
0001
1000
0000
0100
0000
0001
0000
1000
0000
,  // measure 42
0010
0000
0001
0000
1000
0000
0000
1000
0000
0000
1000
0000
0001
0000
1000
0000
,  // measure 43
0001
0000
0000
0000
0010
0000
0000
0010
0000
0000
0010
0000
0000
0000
0100
0000
,  // measure 44
0010
0000
0100
0000
0010
0000
0000
0010
0001
0000
1000
0000
0001
0000
0000
0000
,  // measure 45
0100
0000
0001
0000
0010
0000
0000
0010
0100
0000
1000
0000
0001
0000
0100
0000
,  // measure 46
1000
0000
0100
0000
0001
0000
0000
1000
0001
0000
0100
0000
0001
0000
0010
0000
,  // measure 47
0100
0000
0000
0000
0010
0000
0000
0010
0001
0000
1000
0000
0100
0000
0000
0100
,  // measure 48
0001
0000
0100
0000
1000
0000
0001
1000
0000
0000
0010
0000
0100
0000
1000
0000
,  // measure 49
0001
0000
0010
0000
0100
0000
0001
1000
0000
0000
0100
0000
0010
0000
0001
0000
,  // measure 50
1000
0000
0001
0000
0100
0000
0000
0100
0000
0000
0100
0000
0000
0000
0001
0000
,  // measure 51
0010
0000
0001
0000
1000
0000
0000
1000
0000
0000
1000
0000
0000
0000
0100
0000
,  // measure 52
0010
0000
0100
0000
1000
0000
0001
0100
0000
0000
0001
0000
0100
0000
1000
0000
,  // measure 53
0100
0000
0001
0000
1000
0000
0100
0010
0000
0000
0100
0000
1000
0000
0100
0000
,  // measure 54
0001
0000
0100
0000
1000
0000
0001
1000
0000
0000
0001
0000
0010
0000
1000
0000
,  // measure 55
0001
0000
0100
0000
1000
0000
0100
0010
0000
0000
0001
0000
1000
0000
1000
0000
,  // measure 56
0001
1000
0001
1000
0002
0000
0000
0000
0000
0000
0000
0000
0000
0000
0000
0000
,  // measure 57
0000
0000
0000
0000
,  // measure 58
0003
0000
0000
0000
;

//---------------dance-single - ----------------
#NOTEDATA:;
#CHARTNAME:X-Scale 11;
#STEPSTYPE:dance-single;
#DESCRIPTION:;
#CHARTSTYLE:;
#DIFFICULTY:Hard;
#METER:8;
#RADARVALUES:0.540310,0.589981,0.249679,0.425378,0.268173,409.000000,382.000000,27.000000,46.000000,0.000000,0.000000,2.000000,0.000000,0.000000,0.540310,0.589981,0.249679,0.425378,0.268173,409.000000,382.000000,27.000000,46.000000,0.000000,0.000000,2.000000,0.000000,0.000000;
#CREDIT:iamthek3n;
#NOTES:
// measure 0
0000
0000
0000
0000
,  // measure 1
0000
0000
0000
0000
,  // measure 2
0000
0000
0000
0000
,  // measure 3
0000
0000
0000
0000
,  // measure 4
0000
0000
0000
0000
0000
0000
1000
0000
1000
0000
0000
0001
0000
0000
0200
0000
,  // measure 5
0300
0002
0000
0103
0010
0001
1000
0100
,  // measure 6
0010
0000
0000
0000
1000
0000
0000
0000
0000
0000
0000
0000
1000
0000
0001
1000
0002
0000
0000
0000
0000
0000
0100
0000
0000
0000
0000
0000
0103
0000
0000
0000
,  // measure 7
0000
0000
0000
1000
0100
0001
0100
0010
,  // measure 8
0002
0000
0000
0000
0203
0000
0010
0000
0310
0000
0000
0010
0000
0000
0010
0000
,  // measure 9
1000
0000
0000
0100
0000
0000
0001
0000
0100
0000
0000
1000
0000
0000
0001
0000
,  // measure 10
0200
0000
0000
0000
0300
0000
0010
0100
0001
0000
0000
0001
0000
0000
0001
0000
,  // measure 11
0010
0000
0000
1000
0000
0000
0001
0000
0100
0000
0000
1000
0000
0000
0001
0000
,  // measure 12
2000
0000
0000
0000
3000
0000
0100
0000
0100
0000
0000
1000
0000
0000
0100
0000
,  // measure 13
0001
0000
0000
1000
0000
0000
0010
0000
0001
0000
0000
0100
0000
0000
0001
0000
,  // measure 14
2000
0000
0000
0000
0010
0000
0000
0000
3000
0000
0000
0000
0010
0000
1000
0010
1000
0000
0000
0000
0000
0000
0010
0000
0000
0000
0000
0000
1000
0000
0000
0000
,  // measure 15
0002
0000
0000
0000
0003
0000
0004
0000
1003
0000
0000
0100
0000
0000
0001
0000
,  // measure 16
0200
0000
0000
0000
1300
0000
0001
0000
1001
0000
0000
0001
0100
0000
0001
0000
,  // measure 17
1000
0100
0001
1000
0010
0100
1000
0000
,  // measure 18
1100
0000
0000
0000
0101
0000
0100
0001
0100
0000
0000
0010
0100
0000
0001
0000
,  // measure 19
1000
0010
0001
1000
0100
0001
1000
0000
,  // measure 20
1100
0000
0000
0000
0001
0000
1000
0000
1000
0000
0000
0010
1000
0000
0100
0000
,  // measure 21
0010
1000
0001
0100
0010
0001
0100
0000
,  // measure 22
0110
0000
0001
0000
0101
0000
0001
1000
0001
0000
0000
0100
0010
0000
0100
0000
,  // measure 23
0001
0000
0000
1000
0000
0000
0100
0000
0000
1000
0000
0000
0001
0000
0010
0000
0100
0000
1000
0000
0010
0000
0100
0000
,  // measure 24
0001
0000
0000
0000
1000
0000
0000
0000
0100
0000
0000
0000
0010
0000
0000
0000
0000
0000
0004
0000
0000
0000
0000
0000
0013
0000
0000
0000
0000
0000
0100
0000
0000
0010
0000
0000
0001
0000
0000
0000
0000
0000
1000
0000
0000
0000
0000
0000
,  // measure 25
0001
0000
0000
0000
1100
0000
0001
0000
1000
0000
0000
1000
0001
0000
0100
0000
,  // measure 26
0010
0000
1000
0000
0100
0000
0001
0000
0100
0000
1000
0100
1000
0000
0010
0000
,  // measure 27
0001
0000
0010
0000
1000
0000
0000
0000
1001
0000
0000
0100
1000
0000
0001
0000
,  // measure 28
0100
0000
1000
0000
0100
0000
0001
0000
1000
0000
0010
1000
0001
0000
0100
0000
,  // measure 29
0010
0000
0000
0000
1001
0000
0100
0000
0001
0000
0000
0001
1000
0000
0100
0000
,  // measure 30
0010
0000
1000
0000
0010
0000
0100
0000
1000
0000
0010
1000
0001
0000
0100
0000
,  // measure 31
1000
0000
0100
0000
0001
0000
0000
0000
1001
0000
0000
0010
0001
0000
1000
0000
,  // measure 32
0002
0003
0020
0030
1001
0000
1000
0000
2200
0000
3300
0000
0202
0000
0303
0000
,  // measure 33
0001
0000
1000
0000
2002
0000
3003
0100
0001
0000
1000
0000
0010
0000
0001
0000
,  // measure 34
1000
0001
0010
1000
2002
3003
0220
0330
,  // measure 35
1000
0000
0001
0000
0202
0000
0303
0001
1000
0000
0100
0000
1000
0000
0100
0000
,  // measure 36
0001
0100
1000
0001
2002
3003
0202
0303
,  // measure 37
0001
1000
2020
3030
0220
0330
0001
0010
,  // measure 38
1000
0010
0100
1000
2200
3300
0202
0303
,  // measure 39
1000
0001
0202
0303
2200
3300
1000
0100
,  // measure 40
0001
0000
0100
0000
1000
0000
0000
0001
0100
0000
0001
0000
0010
0000
1000
0000
,  // measure 41
0001
0000
0100
0000
1000
0000
0000
1000
0010
0000
0100
0000
0001
0000
0010
0000
,  // measure 42
1000
0000
0010
0000
0001
0000
0000
0100
0001
0000
1000
0000
0001
0000
0100
0000
,  // measure 43
0010
0000
0000
0000
0110
0000
0000
0100
0001
0000
1000
0000
0100
0000
0010
0000
,  // measure 44
1000
0000
0010
0000
0001
0000
0000
0001
0100
0000
0010
0000
1000
0000
0000
0000
,  // measure 45
0001
0000
0010
0000
0001
0000
0000
0001
1000
0000
0100
0000
0010
0000
1000
0000
,  // measure 46
0010
0000
0100
0000
1000
0000
0000
1000
0010
0000
0100
0000
0001
0000
0010
0000
,  // measure 47
0001
0000
0000
0000
0100
0000
0000
0100
0001
0000
0010
0000
0100
0000
0001
0000
,  // measure 48
0100
0000
0010
0000
0001
0000
0000
1000
0010
0000
1000
0000
0001
0000
0010
0000
,  // measure 49
0100
0000
0010
0000
0001
0000
0000
0100
0010
0000
0100
0000
1000
0000
0100
0000
,  // measure 50
0001
0000
1000
0000
0001
0000
0000
0100
0001
0000
1000
0000
0010
0000
0100
0000
,  // measure 51
0010
0000
0000
0000
1001
0000
0000
0001
0100
0000
0001
0000
0010
0000
1000
0000
,  // measure 52
0001
0000
0100
0000
1000
0000
0000
1000
0010
0000
1000
0000
0001
0000
0000
0000
,  // measure 53
0010
0000
0100
0000
1000
0000
0000
0001
0010
0000
1000
0000
0001
0000
0100
0000
,  // measure 54
1000
0000
0100
0000
0010
0000
0000
0010
1000
0000
0010
0000
0001
0000
1000
0000
,  // measure 55
0001
0000
0000
0000
0001
0000
0000
0001
0100
0000
0001
0000
1000
0000
1000
0000
,  // measure 56
1000
0001
1000
0001
2000
0000
0000
0000
0020
0000
0030
0000
0002
0000
0003
0000
,  // measure 57
0200
0300
0002
0003
0020
0000
0000
0000
,  // measure 58
3030
0000
0000
0000
;
