#VERSION:0.83;
#TITLE:CRAZY;
#SUBTITLE:;
#ARTIST:LE SSERAFIM;
#TITLETRANSLIT:;
#SUBTITLETRANSLIT:;
#ARTISTTRANSLIT:;
#GENRE:House;
#ORIGIN:;
#CREDIT:;
#BANNER:CRAZY-bn.png;
#BACKGROUND:CRAZY-bg.png;
#PREVIEWVID:;
#JACKET:CRAZY-jacket.png;
#CDIMAGE:;
#DISCIMAGE:;
#LYRICSPATH:;
#CDTITLE:cdtitle.png;
#MUSIC:CRAZY.ogg;
#OFFSET:-0.002000;
#SAMPLESTART:66.463997;
#SAMPLELENGTH:14.769000;
#SELECTABLE:YES;
#BPMS:0.000=130.000;
#STOPS:140.000=1.385;
#DELAYS:;
#WARPS:;
#TIMESIGNATURES:0.000=4=4;
#TICKCOUNTS:0.000=4;
#COMBOS:0.000=1;
#SPEEDS:0.000=1.000=0.000=0;
#SCROLLS:0.000=1.000;
#FAKES:;
#LABELS:0.000=Song Start;
#BGCHANGES:0.000=CRAZY.avi=1.000=1=0=0=StretchNoLoop==CrossFade==,
99999=-nosongbg-=1.000=0=0=0 // don't automatically add -songbackground-
;
#KEYSOUNDS:;
#ATTACKS:
;

//---------------dance-single - ----------------
#NOTEDATA:;
#CHARTNAME:X-Scale 2;
#STEPSTYPE:dance-single;
#DESCRIPTION:;
#CHARTSTYLE:;
#DIFFICULTY:Beginner;
#METER:1;
#RADARVALUES:0.123925,0.157229,0.020654,0.000000,0.000000,84.000000,82.000000,2.000000,0.000000,0.000000,0.000000,0.000000,0.000000,0.000000,0.123925,0.157229,0.020654,0.000000,0.000000,84.000000,82.000000,2.000000,0.000000,0.000000,0.000000,0.000000,0.000000,0.000000;
#CREDIT:iamthek3n;
#NOTES:
// measure 0
0000
0000
0000
0000
,  // measure 1
0000
0000
0000
0000
,  // measure 2
0000
0000
0000
0000
,  // measure 3
0000
0000
0000
0000
,  // measure 4
1000
0000
0001
0000
,  // measure 5
1000
0000
0001
0000
,  // measure 6
1000
0000
0001
0000
,  // measure 7
1000
0000
0001
0000
,  // measure 8
0100
0000
0000
0000
,  // measure 9
0000
0000
0000
0000
,  // measure 10
0010
0000
0000
0000
,  // measure 11
0000
0000
0000
0000
,  // measure 12
1000
0000
0001
0000
,  // measure 13
0100
0000
0001
0000
,  // measure 14
1000
0000
0001
0000
,  // measure 15
0100
0000
0000
0000
,  // measure 16
1001
0000
0100
0000
,  // measure 17
1000
0000
0001
0000
,  // measure 18
0100
0000
0001
0000
,  // measure 19
0010
0000
0100
0000
,  // measure 20
1000
0000
0100
0000
,  // measure 21
0010
0000
0001
0000
,  // measure 22
1000
0000
0001
0000
,  // measure 23
0100
0000
0010
0000
,  // measure 24
1000
0000
0100
0000
,  // measure 25
1000
0000
0001
0000
,  // measure 26
1000
0000
0100
0000
,  // measure 27
1000
0000
0001
0000
,  // measure 28
0100
0000
0001
0000
,  // measure 29
1000
0000
0001
0000
,  // measure 30
0100
0000
0001
0000
,  // measure 31
1000
0000
0100
0000
,  // measure 32
1000
0000
0000
0000
,  // measure 33
0000
0000
0000
0000
,  // measure 34
0000
0000
0000
0000
,  // measure 35
0000
0110
0000
0100
,  // measure 36
0000
0001
0000
0100
,  // measure 37
0000
0001
0000
1000
,  // measure 38
0000
0001
0000
0100
,  // measure 39
0000
0001
0000
1000
,  // measure 40
0000
0100
0000
0010
,  // measure 41
0000
0100
0000
1000
,  // measure 42
0000
0001
0000
0100
,  // measure 43
0000
0010
0000
0100
,  // measure 44
0000
0001
0000
1000
,  // measure 45
0000
0010
0000
1000
,  // measure 46
0000
0001
0000
0010
,  // measure 47
0000
0100
0000
0010
,  // measure 48
0000
0001
0000
1000
,  // measure 49
0000
0010
0000
1000
,  // measure 50
0000
0100
0000
1000
;

//---------------dance-single - ----------------
#NOTEDATA:;
#CHARTNAME:X-Scale 5;
#STEPSTYPE:dance-single;
#DESCRIPTION:;
#CHARTSTYLE:;
#DIFFICULTY:Easy;
#METER:3;
#RADARVALUES:0.272929,0.316783,0.061962,0.010327,0.000000,185.000000,179.000000,6.000000,1.000000,0.000000,0.000000,0.000000,0.000000,0.000000,0.272929,0.316783,0.061962,0.010327,0.000000,185.000000,179.000000,6.000000,1.000000,0.000000,0.000000,0.000000,0.000000,0.000000;
#CREDIT:iamthek3n;
#NOTES:
0000
0000
0000
0000
,
0000
0000
0000
0000
,
0000
0001
0000
0001
,
0000
1000
0000
1000
,
1001
0000
0001
0000
1000
0000
0001
1000
,
0001
0000
0100
0000
0010
0000
0100
0010
,
0100
0000
0001
0000
0100
0000
0001
0100
,
0001
0000
1000
0000
0100
0000
1000
0100
,
1000
0000
0000
0000
,
0000
0000
0000
0000
,
0001
0000
0000
0000
,
0000
0000
0000
0000
,
0110
0010
1000
0001
,
1000
0000
0100
0000
0010
0000
0100
0010
,
0001
0000
1000
0000
0001
0000
0100
0020
,
0000
0030
1010
0000
0000
0000
0011
0000
,
1001
0100
1000
0001
,
0100
0001
1000
0100
,
0010
0100
1000
0001
,
0100
0000
0001
0010
0100
0000
0010
0000
,
0001
1000
0100
1000
,
0001
0100
0001
1000
,
0001
1000
0010
1000
,
0001
0010
0001
1000
,
0100
0000
0000
0100
1000
0000
0001
0000
,
0000
0100
0001
0000
1000
0000
0001
0100
,
0001
0000
0000
0001
0010
0000
0100
0000
,
0000
1000
0001
0000
1000
0000
0010
0100
,
0010
0000
0000
1000
0100
0000
0010
0000
,
0000
0001
0100
0000
0001
0000
1000
0000
,
0001
0000
0000
0010
0100
0000
1000
0000
,
0001
0000
0000
1000
0100
0000
1000
0000
,
0000
0001
0000
1000
,
0000
0001
0000
1000
,
0000
0001
0000
1000
,
0000
1001
0000
0100
,
1000
0001
0000
0100
,
0010
1000
0000
0001
,
0010
0100
0000
0010
,
0001
1000
0000
0010
,
0100
0001
0000
1000
,
0100
0010
0000
0100
,
0010
0001
0000
1000
,
0001
0100
0001
1000
,
0010
0100
0010
0000
1000
0000
0100
0000
,
0010
0001
0010
0000
0100
0000
1000
0000
,
0001
0100
0001
0000
1000
0000
0001
0000
,
0010
0100
1000
0000
0001
0000
0100
0000
,
0010
0100
0010
0000
1000
0000
0100
0000
,
0010
0001
0010
0000
0100
0000
1000
0000
,
0001
0100
0001
0000
1000
0000
0001
0000
,
0010
0100
0000
0000
0000
0000
0000
0000
;

//---------------dance-single - ----------------
#NOTEDATA:;
#CHARTNAME:X-Scale 10;
#STEPSTYPE:dance-single;
#DESCRIPTION:;
#CHARTSTYLE:;
#DIFFICULTY:Medium;
#METER:7;
#RADARVALUES:0.458816,0.448775,0.206541,0.185887,0.175560,311.000000,291.000000,20.000000,18.000000,0.000000,0.000000,0.000000,0.000000,0.000000,0.458816,0.448775,0.206541,0.185887,0.175560,311.000000,291.000000,20.000000,18.000000,0.000000,0.000000,0.000000,0.000000,0.000000;
#CREDIT:iamthek3n;
#NOTES:
0000
0000
0000
0000
,
0000
0000
0000
0000
,
0000
0000
0000
0000
1001
0000
1000
0000
2000
0000
3000
2000
0000
0000
3000
0000
,
0000
0000
0100
0000
0010
0000
0000
0000
0002
0000
0003
0002
0000
0000
1003
0000
,
1001
0000
0000
0000
1000
0000
0001
0000
0010
0000
0000
0010
0001
0000
0000
0000
,
1000
0000
0001
0000
0100
0000
0000
0000
0001
0000
0000
0001
1000
0000
0010
0000
,
1000
0000
0000
0000
0100
0000
0010
0000
0001
0000
0000
0001
1000
0000
0000
0000
,
0001
0000
0010
0000
0100
0000
0000
0000
1000
0000
0000
1000
0001
0000
0100
0000
,
0101
0000
0000
0000
0000
0000
1000
0000
2000
0000
3000
2000
0000
0000
3000
0000
,
0000
0000
0001
0000
0001
0000
0000
0000
0100
0000
0000
0001
0000
0000
0100
0000
,
0001
0000
0000
0000
0000
0000
0010
0000
0020
0000
0030
0020
0000
0000
0030
0000
,
0000
0000
0100
0000
1000
0000
0000
0000
0001
0000
0000
0001
0000
0000
1000
0000
,
1001
0000
0000
0000
0100
0000
1000
0000
0002
0000
0003
0002
0000
0000
0103
0000
,
0001
0000
0010
0000
0100
0000
0000
0000
2000
0000
3000
2000
0000
0000
3001
0000
,
1000
0000
0000
0000
1001
0000
0100
0000
0002
0000
0003
0002
0000
0000
1003
0000
,
0100
0000
0010
0000
0001
0000
0000
0000
1000
0000
0000
1000
0000
0000
0010
0000
,
1010
0000
0001
0000
1000
0100
0001
0100
,
1000
0000
0001
0000
0100
0000
0001
0010
,
0100
0010
0001
0000
1000
0000
0001
0010
,
0011
0000
1000
0010
1010
0000
0110
0000
,
1001
0000
0000
0000
0001
0000
0100
0000
0001
0000
0000
0001
1000
0000
0100
0000
,
0000
0000
0100
0000
0010
0000
0001
0000
1000
0000
0000
1000
0001
0000
0010
0000
,
0100
0000
0000
0000
1100
0000
1000
0000
0001
0000
0000
0001
0000
0000
0100
0000
,
0001
0000
1000
0000
0001
0000
0010
0100
0000
0100
0000
0000
1000
0000
0100
0000
,
1100
0000
0000
0000
1000
0000
0001
0000
0100
0000
0000
0100
0001
0000
0000
0000
,
0001
0010
0100
0001
1000
0010
0100
2000
,
0001
0000
3000
0000
1001
0000
1000
0000
0100
0000
0000
0100
0010
0000
0000
0000
,
0100
1000
0001
0100
1000
0100
0001
0020
,
0100
0000
0030
0000
0110
0000
0100
0000
1000
0000
0000
1000
0001
0000
0010
0000
,
0001
1000
0100
0010
1000
0010
0001
0200
,
0001
0000
0310
0100
0001
0010
0100
0020
,
0001
0000
0130
0000
0010
0100
1000
0001
,
0000
0001
0000
0100
,
0000
1000
0000
0001
,
0000
0010
0000
1000
,
0000
0000
0000
0000
0110
0000
0000
0000
0100
0000
1000
0000
1000
0000
0000
1000
,
0000
0000
0000
0000
1001
0000
0010
0000
0001
0000
0000
0000
1000
0000
0000
1000
,
0000
0000
1000
0000
0100
0000
0000
0000
0010
0000
0001
0000
0001
0000
0000
0001
,
0000
0000
0000
0000
1000
0000
0001
0000
1000
0000
0001
0010
0000
0010
0000
0000
,
0011
0000
0000
0000
1010
0000
0000
0000
0010
0000
1000
0000
0001
0000
0000
0001
,
0000
0000
0000
0000
1000
0000
0001
0000
0100
0000
0000
0000
0010
0000
0000
0010
,
0000
0000
0010
0000
1000
0000
0000
0000
1010
0000
1000
0000
0001
0000
0000
0001
,
0000
0000
0000
0000
1000
0000
0100
0000
1000
0000
0000
0001
0000
0001
0000
0000
,
0100
0001
1001
0000
1000
0001
0010
0100
,
0010
0100
1000
0000
0010
1000
0001
0010
,
0001
0010
0100
0000
0010
0100
1000
0001
,
1000
0000
0001
0000
0100
0000
0000
0001
1000
0000
0001
0000
0100
0000
0000
0000
,
0001
0010
0100
0000
1000
0001
0100
0010
,
0100
0010
1000
0000
0001
0100
0001
1000
,
0001
1000
0100
0000
0010
0100
1000
0001
,
1000
0000
0001
0000
0010
0000
0000
0100
1000
0000
0001
0000
1000
0000
0000
0000
,
1000
0100
0000
0000
0000
0000
0000
0000
;

//---------------dance-single - ----------------
#NOTEDATA:;
#CHARTNAME:X-Scale 12;
#STEPSTYPE:dance-single;
#DESCRIPTION:;
#CHARTSTYLE:;
#DIFFICULTY:Hard;
#METER:8;
#RADARVALUES:0.567988,0.580768,0.268504,0.154906,0.351120,385.000000,359.000000,26.000000,15.000000,0.000000,0.000000,0.000000,0.000000,0.000000,0.567988,0.580768,0.268504,0.154906,0.351120,385.000000,359.000000,26.000000,15.000000,0.000000,0.000000,0.000000,0.000000,0.000000;
#CREDIT:iamthek3n;
#NOTES:
0000
0000
0000
0000
,
0000
0000
0000
0000
,
0001
0000
0000
0000
1001
0000
1000
0000
1000
0000
0000
1000
0000
0000
0000
0000
,
0001
0000
0010
0000
0011
0000
0000
0000
1000
0000
0000
1000
0000
0000
0100
0000
,
1100
0000
0000
0100
0010
0000
0001
0000
0010
0000
1000
0000
0010
0000
1000
0000
,
0010
0000
0000
0010
0001
0000
1000
0000
0010
0000
0001
0000
0010
0000
0001
0000
,
0010
0000
0000
0010
1000
0000
0001
0000
0010
0000
1000
0000
0010
0000
1000
0000
,
0010
0000
0000
0010
0001
0000
1000
0000
0001
0000
0000
0000
1001
0000
0000
0000
,
0002
0000
0003
0000
0000
0000
0010
0000
0020
0000
0030
0020
0000
0030
0000
0000
,
0000
0000
0002
0000
0203
0000
0300
0000
0020
0000
0030
0020
0000
0030
0020
0000
,
2030
0000
3000
0000
0000
0000
0100
0000
0200
0000
0300
0200
0000
0300
0000
0000
,
0000
0000
2000
0000
3002
0000
0003
0000
0200
0000
0300
0200
0000
0300
0001
0000
,
0101
0000
0000
0000
0001
0000
1000
0000
0001
0000
0000
0010
0100
0000
1000
0000
,
0010
0000
0001
0000
0010
0000
1000
0010
0000
1000
0000
0100
0010
0100
0010
0000
,
0001
0000
0000
0000
0100
0000
0001
0000
0100
0000
0000
0010
0100
0000
0001
0000
,
0010
0000
0000
0000
0011
0000
0001
1000
0001
0000
0100
0000
1000
0100
0001
0000
,
0101
0000
1100
0000
0001
0010
1000
0010
,
0001
0000
1001
0000
1000
0100
0001
1000
,
0010
0100
1000
0000
1100
0001
1000
0001
,
0100
0000
0000
0000
0101
0000
0001
0100
0000
0010
0000
1000
0010
1000
0010
0000
,
1010
1000
0100
0010
1000
0010
0001
1000
,
0001
0010
0100
0001
1000
0010
0100
1000
,
0010
0000
0000
0100
0000
0000
0010
0000
0000
1000
0000
0000
0001
0000
0100
0000
0010
0000
1000
0000
0000
0001
0000
0000
,
1000
0000
0000
0000
0010
0000
0000
0000
0100
0000
0000
0000
0001
0000
0000
0000
0000
0000
1000
0000
0000
0010
0000
0000
0000
0000
0000
1000
0000
0000
0001
0000
0000
0000
0000
0000
0010
0000
0000
0100
0000
0000
1000
0000
0000
0000
0000
0000
,
1100
0000
0100
0000
1000
0000
1000
0000
0001
0000
0000
0010
0100
0000
0000
0000
,
0001
0000
0100
0000
1000
0000
0000
0000
1100
0000
0000
1000
0001
0000
0100
0000
,
0001
0000
0010
0000
0100
0000
0010
0000
0001
0000
0000
0010
0001
0000
0000
0000
,
1000
0000
0001
0000
0100
0000
0000
0010
0000
0010
0000
0010
1000
0000
0001
0000
,
1000
0000
0100
0000
0001
0000
0100
0000
1000
0000
0000
0001
0100
0000
0000
0000
,
0001
0000
0010
0000
0100
0000
1000
0100
1000
0000
0001
0000
0100
0001
1000
0000
,
0010
0000
0000
0000
1001
0000
1000
0000
0100
0000
0000
0100
0010
0000
1000
0000
,
0010
0000
0001
0000
1000
0000
0001
0010
0000
0010
0100
0000
1000
0001
1000
0000
,
0000
1001
0000
0110
,
0000
1010
0000
0011
,
0000
0101
0000
1100
,
0000
0000
0000
0000
1001
0000
0000
0000
0001
0000
0010
0000
0010
0000
0000
0010
,
0100
0000
1000
0000
0001
0000
0100
0000
0010
0000
1000
0010
1000
0000
0001
0000
,
0010
0001
0010
0000
0011
0000
0000
0000
0001
0000
1000
0000
1000
0000
0000
1000
,
0001
0000
1000
0000
0010
0000
0100
0000
0010
0000
1000
0100
0000
0100
0001
0000
,
0100
0000
0010
0000
0001
0000
0000
0000
1000
0000
0010
0000
0010
0000
0000
0010
,
0100
0000
0001
0000
1000
0000
0100
0000
0100
0000
0010
0100
0010
0000
0001
0000
,
0100
0001
0100
0000
0101
0000
0000
0000
0001
0000
0100
0000
0100
0000
0000
0100
,
0001
0000
1000
0000
0001
0000
0100
0000
0001
0000
1000
0010
0000
0010
0100
0000
,
0001
0000
0010
0000
0011
0000
0000
1000
0001
0000
1000
0000
0100
0000
0001
0000
,
0100
0000
0001
0000
0100
0000
0000
0100
1000
0000
0001
0000
0100
0000
1000
0000
,
0100
0000
1000
0000
0100
0000
0000
0100
0001
0000
0010
0000
0100
0000
0001
0000
,
0100
0000
0001
0000
0100
0000
0000
0100
1000
0000
0001
0100
0000
0100
0001
0000
,
1000
0001
1000
0000
1001
0000
0000
1000
0100
0000
1000
0000
0010
0000
0001
0000
,
0010
0000
0001
0000
0010
0000
0000
0010
1000
0000
0001
0000
0010
0000
1000
0000
,
0010
0000
1000
0000
0010
0000
0000
0010
0001
0000
1000
0000
0100
0000
0001
0000
,
0100
0000
0001
0000
0100
0000
0000
0100
0010
0000
0001
0100
0000
0100
0001
0000
,
1000
0001
1000
0000
0000
0000
0000
0000
0000
0000
0000
0000
0000
0000
0000
0000
;
