#VERSION:0.83;
#TITLE:CHEST;
#SUBTITLE:;
#ARTIST:JUSTB;
#TITLETRANSLIT:;
#SUBTITLETRANSLIT:;
#ARTISTTRANSLIT:;
#GENRE:Hyperpop;
#ORIGIN:;
#CREDIT:;
#BANNER:CHEST-bn.png;
#BACKGROUND:CHEST-bg.png;
#PREVIEWVID:;
#JACKET:CHEST-jacket.png;
#CDIMAGE:;
#DISCIMAGE:;
#LYRICSPATH:;
#CDTITLE:cdtitle.png;
#MUSIC:CHEST.ogg;
#OFFSET:0.003000;
#SAMPLESTART:61.712002;
#SAMPLELENGTH:27.429001;
#SELECTABLE:YES;
#BPMS:0.000=140.000,
109.000=70.000,
125.000=140.000,
219.000=70.000;
#STOPS:20.000=1.286,
129.000=0.857;
#DELAYS:;
#WARPS:;
#TIMESIGNATURES:0.000=4=4;
#TICKCOUNTS:0.000=4;
#COMBOS:0.000=1;
#SPEEDS:0.000=1.000=0.000=0;
#SCROLLS:0.000=1.000;
#FAKES:;
#LABELS:0.000=Song Start;
#BGCHANGES:0.000=CHEST.avi=1.000=0=0=0=StretchNoLoop====,
99999=-nosongbg-=1.000=0=0=0 // don't automatically add -songbackground-
;
#KEYSOUNDS:;
#ATTACKS:
;

//---------------dance-single - ----------------
#NOTEDATA:;
#CHARTNAME:X-Scale 2;
#STEPSTYPE:dance-single;
#DESCRIPTION:;
#CHARTSTYLE:;
#DIFFICULTY:Beginner;
#METER:1;
#RADARVALUES:0.101764,0.120664,0.008095,0.016190,0.000000,88.000000,87.000000,1.000000,2.000000,0.000000,0.000000,0.000000,0.000000,0.000000,0.101764,0.120664,0.008095,0.016190,0.000000,88.000000,87.000000,1.000000,2.000000,0.000000,0.000000,0.000000,0.000000,0.000000;
#CREDIT:iamthek3n;
#NOTES:
// measure 0
0000
0000
0000
0000
,  // measure 1
0000
0000
0000
0000
,  // measure 2
0000
0000
0000
0000
,  // measure 3
0000
0000
0000
0000
,  // measure 4
1000
0000
0000
0000
,  // measure 5
0000
0001
0000
0000
,  // measure 6
0000
0100
0000
0010
,  // measure 7
0000
0100
0000
0000
,  // measure 8
0000
0001
0000
0000
,  // measure 9
0000
1000
0000
0000
,  // measure 10
0000
0100
0000
0010
,  // measure 11
0000
0100
0000
0000
,  // measure 12
0000
1000
0000
0000
,  // measure 13
0000
0100
0000
0000
,  // measure 14
0000
0010
0000
0000
,  // measure 15
0000
0001
0000
0000
,  // measure 16
0000
0100
0000
0000
,  // measure 17
0000
0010
0000
0000
,  // measure 18
0000
1000
0000
0000
,  // measure 19
0000
0001
0000
0100
,  // measure 20
0000
0001
0000
1000
,  // measure 21
0000
0001
0000
0100
,  // measure 22
0000
0001
0000
1000
,  // measure 23
0000
0100
0000
0010
,  // measure 24
0000
0100
0000
1000
,  // measure 25
0000
0100
0000
0010
,  // measure 26
0000
0100
0000
1000
,  // measure 27
0000
0001
0000
0000
,  // measure 28
0000
1000
0000
0000
,  // measure 29
0000
0001
0000
0000
,  // measure 30
0000
1000
0000
0000
,  // measure 31
0000
0001
0000
0000
,  // measure 32
0000
0000
0000
1000
,  // measure 33
0000
0100
0000
1000
,  // measure 34
0000
0001
0000
1000
,  // measure 35
0000
0100
0000
1000
,  // measure 36
0000
0001
0000
0100
,  // measure 37
0000
0010
0000
0100
,  // measure 38
0000
0001
0000
0100
,  // measure 39
0000
0010
0000
1000
,  // measure 40
0000
0100
0000
0010
,  // measure 41
0000
0001
0000
0010
,  // measure 42
0000
0100
0000
1000
,  // measure 43
0000
0010
0000
0100
,  // measure 44
0000
0001
0000
1000
,  // measure 45
0000
0001
0000
0010
,  // measure 46
0000
0100
0000
1000
,  // measure 47
0000
0001
0000
0100
,  // measure 48
0000
0001
0000
1000
,  // measure 49
0000
0001
0000
0100
,  // measure 50
0000
0001
0000
1000
,  // measure 51
0000
0100
0000
0010
,  // measure 52
0000
0100
0000
1000
,  // measure 53
0000
0100
0000
0010
,  // measure 54
0000
0100
0000
1000
,  // measure 55
0000
0000
0000
0100
,  // measure 56
0000
0000
0000
0010
,  // measure 57
0000
0000
0000
0001
,  // measure 58
0000
0000
0000
2002
,  // measure 59
0000
0000
0000
0000
0000
3003
0000
0000
;

//---------------dance-single - ----------------
#NOTEDATA:;
#CHARTNAME:X-Scale 7;
#STEPSTYPE:dance-single;
#DESCRIPTION:;
#CHARTSTYLE:;
#DIFFICULTY:Easy;
#METER:5;
#RADARVALUES:0.264818,0.332193,0.097138,0.089044,0.000000,229.000000,217.000000,12.000000,11.000000,0.000000,0.000000,0.000000,0.000000,0.000000,0.264818,0.332193,0.097138,0.089044,0.000000,229.000000,217.000000,12.000000,11.000000,0.000000,0.000000,0.000000,0.000000,0.000000;
#CREDIT:iamthek3n;
#NOTES:
// measure 0
0000
0000
0000
0000
,  // measure 1
0000
0000
0000
0000
,  // measure 2
0000
0000
0000
0000
,  // measure 3
0000
0000
0000
0000
,  // measure 4
0000
1000
1000
1000
,  // measure 5
0000
0000
0001
0001
,  // measure 6
0001
0100
0000
0001
,  // measure 7
0000
1000
0100
0100
,  // measure 8
0100
0010
0000
0001
,  // measure 9
0000
1000
0010
0010
,  // measure 10
0010
0100
0000
0001
,  // measure 11
0000
0000
1000
0000
0000
0001
0000
0000
,  // measure 12
1000
0000
0001
0000
0000
0100
0001
0000
,  // measure 13
0000
1000
0100
0000
1000
0000
0001
0000
,  // measure 14
1000
0000
0010
0000
0000
0100
0000
0000
,  // measure 15
0001
0000
1000
0001
1000
0000
0100
0000
,  // measure 16
1000
0000
0001
0000
0000
0100
0000
0000
,  // measure 17
0001
0000
0010
0100
0010
0000
0010
0000
,  // measure 18
0010
0000
0100
0000
0000
1000
0100
0010
,  // measure 19
0001
0000
0011
0000
0010
0100
1000
0000
,  // measure 20
0001
0000
0100
0000
0010
0100
0001
0000
,  // measure 21
1000
0000
0100
0000
0010
0100
1000
0000
,  // measure 22
0001
0000
0100
0000
0010
0100
0001
0000
,  // measure 23
1000
0000
0100
0000
0010
0100
1000
0000
,  // measure 24
0001
0000
0100
0000
0010
0100
0001
0000
,  // measure 25
1000
0000
0001
0000
0010
0001
1000
0000
,  // measure 26
0100
0000
0010
0000
0100
1000
0001
0000
,  // measure 27
0200
0000
0002
0300
0000
0000
0003
0000
,  // measure 28
0000
2000
0000
3020
,  // measure 29
0230
0302
0000
0003
,  // measure 30
0000
0200
0000
0320
,  // measure 31
2030
3001
1000
1000
,  // measure 32
1000
0000
0000
1001
,  // measure 33
0001
0100
0001
1000
,  // measure 34
0100
0010
0100
1000
,  // measure 35
1001
0010
0011
1000
,  // measure 36
1001
0100
1100
1000
,  // measure 37
1001
0100
0101
0001
,  // measure 38
1001
0010
0110
0100
,  // measure 39
0001
1000
0001
0000
0100
0000
0010
0000
,  // measure 40
1000
0010
1000
0000
0100
0000
0010
0000
,  // measure 41
0001
0010
0001
0000
1000
0000
0001
0000
,  // measure 42
0100
0010
0100
0000
0001
0000
0010
0000
,  // measure 43
0100
1000
0100
0000
0010
0000
0001
0000
,  // measure 44
1000
0010
1000
0000
0001
0000
1000
0000
,  // measure 45
0100
0010
0100
0000
1000
0000
0001
0000
,  // measure 46
0010
0100
0010
0000
0001
0000
1000
0000
,  // measure 47
0001
0000
0100
0000
0001
0000
1000
0100
,  // measure 48
0010
0100
1000
0001
0100
0020
0000
2030
,  // measure 49
0000
3001
0000
0000
1001
0000
0100
0000
,  // measure 50
1000
0001
0101
0100
,  // measure 51
0001
1000
0100
0010
,  // measure 52
0100
1000
0001
0100
,  // measure 53
0001
1000
0010
0100
,  // measure 54
0010
1000
0001
0010
,  // measure 55
0000
0000
0100
1000
,  // measure 56
0000
0000
0001
1000
0001
1000
0000
0000
,  // measure 57
0000
0100
0010
0001
,  // measure 58
0000
0000
1000
0010
1000
0010
0000
0000
;

//---------------dance-single - ----------------
#NOTEDATA:;
#CHARTNAME:X-Scale 11;
#STEPSTYPE:dance-single;
#DESCRIPTION:;
#CHARTSTYLE:;
#DIFFICULTY:Medium;
#METER:8;
#RADARVALUES:0.408213,0.482657,0.129518,0.153803,0.311653,353.000000,337.000000,16.000000,19.000000,0.000000,0.000000,0.000000,0.000000,0.000000,0.408213,0.482657,0.129518,0.153803,0.311653,353.000000,337.000000,16.000000,19.000000,0.000000,0.000000,0.000000,0.000000,0.000000;
#CREDIT:iamthek3n;
#NOTES:
// measure 0
0000
0000
0000
0000
,  // measure 1
0000
0000
0000
0000
,  // measure 2
0000
0000
0000
0000
,  // measure 3
0000
0000
0000
0000
,  // measure 4
0001
0100
0001
0100
,  // measure 5
0000
1000
0100
1000
,  // measure 6
0100
0000
0000
0000
0010
0000
0000
0100
0000
0000
1000
0000
0001
0000
0000
0100
,  // measure 7
0000
0010
0100
0000
0001
0000
0100
0000
,  // measure 8
0001
0000
0000
0000
1000
0000
0000
0010
0000
0000
0001
0000
1000
0000
0000
0100
,  // measure 9
0000
0001
1000
0000
0001
0000
1000
0000
,  // measure 10
0001
0000
0000
0000
0100
0000
0000
0010
0000
0000
1000
0000
0001
0000
0000
0010
,  // measure 11
0000
0000
0100
0000
1000
0000
0000
1100
0000
0000
0001
0000
0000
1000
0001
0000
,  // measure 12
0000
0000
0000
0000
1000
0000
0000
0010
1000
0000
0001
0000
0100
0000
0000
0010
,  // measure 13
0000
0000
1000
0000
0001
0000
0001
0000
0001
0000
0011
0000
0000
1010
0000
0000
,  // measure 14
1000
0000
0001
0000
0010
0000
0000
1000
0000
0000
0010
0000
0100
0000
0000
1000
,  // measure 15
0000
0000
0001
0000
0100
0000
0100
0000
0100
0000
0101
0000
0000
1100
0000
0000
,  // measure 16
1000
0000
0001
0000
0100
0000
0000
0010
0000
0000
1000
0000
0001
0000
0010
0001
,  // measure 17
0000
0000
0100
0000
0010
0000
0010
0000
0010
0000
0110
0000
0000
1001
0000
0000
,  // measure 18
0001
0100
0001
0000
1000
0100
0001
1000
,  // measure 19
0010
0000
0100
0000
1000
0000
0000
0001
1000
0000
0010
0000
0000
1000
0000
0000
,  // measure 20
1010
0000
0000
0000
1000
0000
0000
0100
0010
0000
0001
0000
0000
1000
0000
0000
,  // measure 21
1001
0000
0000
0000
0100
0000
0000
1000
0100
0000
1000
0000
0000
0001
0000
0000
,  // measure 22
1001
0000
0000
0000
0010
0000
0000
0100
0001
0000
1000
0000
0000
0001
0000
0000
,  // measure 23
0101
0000
0000
0000
2000
0000
0000
3002
0000
0000
2003
0000
0000
0000
3001
0000
,  // measure 24
0010
0000
0100
0000
2000
0000
0000
3010
1000
0000
0002
0000
0003
0010
0000
0000
,  // measure 25
0001
0000
1000
0001
2000
0000
0000
3200
0000
0000
0320
0000
0000
0000
0031
0000
,  // measure 26
0010
0100
1000
0000
0002
0000
0000
0103
0010
0000
0200
0000
0000
0001
0000
0000
,  // measure 27
0301
0100
0001
0000
0000
0000
0000
0000
,  // measure 28
0000
1000
0000
0100
,  // measure 29
1000
0001
0000
0000
,  // measure 30
0000
0010
0000
0100
,  // measure 31
0010
0000
0000
0000
0001
0000
0000
0010
0000
0000
1000
0000
0000
0100
0000
0000
,  // measure 32
0001
0000
0000
0000
0000
0000
0000
0000
1000
0100
1000
0000
1100
0000
0000
0100
,  // measure 33
1000
0000
0001
0000
1000
0000
0100
0000
0100
0000
0010
0000
0001
0000
0000
0010
,  // measure 34
1000
0010
0001
1000
0010
1000
0001
0001
,  // measure 35
0101
0000
0001
0000
0100
0000
0000
0000
0110
0000
0000
0000
0001
0000
0000
1000
,  // measure 36
0001
0000
1000
0000
0100
1000
0000
0000
0001
0000
0010
0000
0100
0000
0100
0000
,  // measure 37
1100
0000
1000
0000
0100
0000
0000
0000
1001
0000
0001
0000
0100
0000
0000
0001
,  // measure 38
1000
0000
0001
0000
0010
0100
0000
0000
0001
0000
0100
0000
1000
0000
0000
0001
,  // measure 39
0100
0000
0001
0000
1000
0000
0100
0000
0001
0000
0100
0000
1000
0000
0000
0001
,  // measure 40
0100
0000
0001
0000
1000
0000
0100
0000
0010
0000
0100
0000
1000
0000
0000
0100
,  // measure 41
0000
0000
0001
0000
0000
0010
0000
0000
1000
0000
0001
0000
1000
0000
0000
0010
,  // measure 42
0000
0000
0001
0000
0000
0100
0000
0000
1000
0000
0001
0000
1000
0000
0000
0100
,  // measure 43
0010
0000
0001
0000
1000
0001
0000
0000
0100
0000
0010
0000
1000
0000
0000
0001
,  // measure 44
0100
0000
0001
0000
1000
0100
0000
0000
1000
0000
0001
0000
0100
0000
0000
1000
,  // measure 45
0000
0000
0010
0000
0000
0001
0000
0000
1000
0000
0001
0000
1000
0000
0000
0100
,  // measure 46
0000
0000
0001
0000
0000
0010
0000
0000
1000
0000
0001
0000
0100
0000
0000
0100
,  // measure 47
0010
0000
0100
0000
0001
0000
0000
0000
1000
0001
1000
0001
1000
0000
0000
0100
,  // measure 48
0010
0000
0100
0000
1000
0000
0000
0000
0001
0000
0100
0000
0001
0000
0000
0010
,  // measure 49
0100
0000
1000
0000
0001
0100
0000
0000
0100
0000
0001
0000
1000
0000
0000
0100
,  // measure 50
0010
0000
0100
0000
1000
0001
0000
0001
0000
1000
0001
1000
0001
0000
0000
0010
,  // measure 51
0100
0000
1000
0000
0001
0000
0000
0000
0100
0010
0100
0010
0100
0000
0000
0001
,  // measure 52
0010
0000
0100
0000
1000
0000
0000
0000
0001
0000
1000
0000
0010
0000
0000
0100
,  // measure 53
0001
0000
1000
0000
0000
0100
0000
0000
0010
0000
0000
0000
0001
0000
0000
0100
,  // measure 54
0001
0000
1000
0000
0000
0001
0000
0000
0100
0010
0100
0010
0200
0000
0000
0000
,  // measure 55
0000
0000
0000
0000
0002
0300
2003
0000
,  // measure 56
0000
0000
3100
0010
0001
1000
0020
0000
,  // measure 57
0000
0000
0002
0003
0200
0030
0302
0000
,  // measure 58
0000
0000
1003
0100
0010
0002
2000
0000
,  // measure 59
0000
0000
0000
0000
0000
3003
0000
0000
;

//---------------dance-single - ----------------
#NOTEDATA:;
#CHARTNAME:X-Scale 13;
#STEPSTYPE:dance-single;
#DESCRIPTION:;
#CHARTSTYLE:;
#DIFFICULTY:Hard;
#METER:9;
#RADARVALUES:0.508820,0.579188,0.323795,0.380459,0.489740,440.000000,400.000000,40.000000,47.000000,0.000000,0.000000,16.000000,0.000000,0.000000,0.508820,0.579188,0.323795,0.380459,0.489740,440.000000,400.000000,40.000000,47.000000,0.000000,0.000000,16.000000,0.000000,0.000000;
#CREDIT:iamthek3n;
#NOTES:
// measure 0
0000
0000
0000
0000
,  // measure 1
0000
0000
0000
0000
,  // measure 2
0000
0000
0000
0000
,  // measure 3
0000
0000
0000
0000
,  // measure 4
1000
1000
0200
0300
0200
0300
0200
0300
,  // measure 5
0000
0000
0001
0001
0200
0300
0200
0300
,  // measure 6
0200
0000
0300
0000
0001
0000
0000
0010
0000
0000
1000
0000
0001
0000
0000
0100
,  // measure 7
0000
0010
0001
0001
0200
0300
0200
0300
,  // measure 8
0200
0000
0300
0000
0001
0000
0000
0010
0000
0000
1000
0000
0010
0000
0000
0100
,  // measure 9
0000
1000
0001
0001
0020
0030
0020
0030
,  // measure 10
0020
0030
0200
0000
0301
0100
0010
0001
,  // measure 11
1000
0000
0100
0000
1100
0000
4000
3040
0030
0000
0101
0000
0000
0004
0403
0300
,  // measure 12
0000
0000
0000
0000
0101
0000
0000
0040
4030
3000
1001
0000
0000
0400
0304
0003
,  // measure 13
0000
0000
0000
0000
0000
0000
0000
0004
0403
0300
0101
0000
0000
1001
0000
0000
,  // measure 14
1010
0000
0000
0000
0011
0000
0000
0110
0000
0000
1001
0000
0000
0040
0034
0003
,  // measure 15
1000
0000
1000
0000
0100
0000
0400
0340
0030
0000
0101
0000
0000
1100
0000
0000
,  // measure 16
1001
0000
0000
0000
0001
0000
0000
0110
0000
0000
1000
0000
0000
1001
0000
0000
,  // measure 17
0001
1000
0001
1000
0000
0000
0000
0400
4300
3000
1001
0000
0000
0101
0000
0000
,  // measure 18
0001
0000
0001
0000
0100
0000
0000
0101
0000
0000
1100
0000
0100
0000
1000
0000
,  // measure 19
0001
0000
1000
0000
1001
0000
0000
0001
0010
0000
0001
0000
1000
0100
0000
0000
,  // measure 20
1100
0000
0000
0000
1001
0000
0000
0010
0001
0000
1000
0000
0100
1000
0000
0000
,  // measure 21
1100
0000
0000
0000
1001
0000
0000
0010
0001
0000
1000
0000
0010
0100
0000
0000
,  // measure 22
0110
0000
0000
0000
1001
0000
0000
0010
1000
0000
0001
0000
0100
0001
0000
0000
,  // measure 23
1000
0001
1000
0000
1001
0000
0000
0100
1000
0000
0001
0000
0100
0010
0000
0000
,  // measure 24
1010
0000
0000
0000
0011
0000
0000
0010
0100
0000
1000
0000
0001
0100
0000
0000
,  // measure 25
0001
1000
0001
1000
0001
0000
0000
0100
0010
0000
1000
0000
0100
1000
0000
0000
,  // measure 26
1100
0000
0000
0000
0101
0000
0000
1000
0001
0000
1000
0000
0100
0010
0000
0000
,  // measure 27
1000
0000
0000
0000
0010
0000
0000
0000
0002
0000
0000
0000
0000
0000
0003
0000
0000
0020
0000
0000
0000
0000
0230
0000
0000
0000
2300
0000
0000
0000
3001
0000
,  // measure 28
2000
0000
3000
0000
2002
0000
0000
0000
3003
0000
1000
0100
0001
1000
0010
0002
,  // measure 29
0000
0003
0100
0100
0220
0000
0000
0000
0330
0000
0000
0000
0002
0000
0000
0000
,  // measure 30
2003
0000
0000
0000
3200
0000
0000
0000
0000
0000
0300
0020
0000
0000
0000
0000
0030
0000
0000
0000
0001
0000
0100
0000
1000
0000
0001
0000
0010
0000
2000
0000
,  // measure 31
3000
0001
0100
0020
1000
0000
1030
0000
0002
0000
0003
0000
0002
0000
0003
0000
,  // measure 32
0002
0000
0003
0000
0000
0000
0000
0000
1000
0001
1000
0001
1000
0000
0000
0100
,  // measure 33
0010
0000
0100
0000
1000
0001
0000
0000
0100
0000
0001
0000
1000
0000
0000
0010
,  // measure 34
0100
0000
0010
0000
1000
0001
0100
0000
1000
0000
0100
0000
0001
0000
0000
0001
,  // measure 35
0100
0000
0001
0000
1000
0100
0000
0000
1100
0000
0000
0000
1001
0000
0000
0001
,  // measure 36
0010
0000
0001
0000
1000
0010
0000
0000
0100
0001
0100
0001
0100
0000
0000
0001
,  // measure 37
0010
0000
0100
0000
1000
0100
0000
0000
1100
0000
0001
0000
1001
0000
0000
0001
,  // measure 38
0100
0000
0001
0000
0010
0100
0000
0000
1000
0000
0001
0000
0100
0000
0001
0010
,  // measure 39
0100
0000
1000
0000
0100
0000
1000
0000
0001
0100
0010
0100
0001
0000
1000
0001
,  // measure 40
0100
0000
0010
0000
0001
0000
0010
0000
0100
0000
0010
2000
0000
0000
0000
3001
,  // measure 41
1000
0000
0100
0000
0001
0000
1000
0000
0010
0000
0001
0200
0000
0000
0000
1300
,  // measure 42
0100
0000
0001
0000
0010
0001
0000
0000
1000
0001
0100
0001
1000
0000
0010
0100
,  // measure 43
0001
0000
1000
0000
0100
0010
0000
0000
0100
1000
0001
1000
0100
0000
0010
0100
,  // measure 44
1000
0000
0001
0000
0100
0000
0010
0100
0001
0000
1000
0200
0000
0000
0000
0310
,  // measure 45
0100
0000
1000
0000
0001
0100
0000
0000
0001
0000
0010
0000
0200
0000
0000
0320
,  // measure 46
0000
0000
0032
0000
0000
1000
0000
0000
1003
0000
0001
1000
0001
0000
0000
0100
,  // measure 47
0001
0000
1000
0000
0100
1000
0000
0000
0001
0100
0010
1000
0001
0000
0000
1000
,  // measure 48
0100
0000
0001
0000
0100
1000
0000
0000
0001
0000
0010
0000
0100
0000
0000
0010
,  // measure 49
0000
0000
0001
0000
0000
1000
0001
1000
0000
0000
0010
0000
0100
0000
0000
0001
,  // measure 50
0010
0000
0001
0000
0000
1000
0010
1000
0000
0001
0010
0100
1000
0000
0000
0001
,  // measure 51
0100
0000
0001
0000
1000
0000
0010
0000
1000
0010
0100
0001
1000
0000
0000
0001
,  // measure 52
0010
0000
0001
0000
0000
1000
0001
1000
0000
0000
0100
0000
0010
0000
0000
0001
,  // measure 53
0000
0000
1000
0000
0000
0010
1000
0010
0000
0000
0100
0000
0001
0000
0000
0010
,  // measure 54
0100
0000
0010
0000
0000
0001
0010
0001
0000
1000
0001
1000
2001
0000
0000
0000
,  // measure 55
0000
0000
3002
0203
,  // measure 56
0000
0000
1000
0010
1000
0301
0002
0000
,  // measure 57
0000
0000
0200
0300
2000
3003
1200
0000
,  // measure 58
0000
0000
0010
1000
0001
1300
2002
0000
,  // measure 59
0000
0000
0000
0000
0000
3003
0000
0000
;

//---------------dance-single - ----------------
#NOTEDATA:;
#CHARTNAME:X-Scale 12 (DANCERUSH Special);
#STEPSTYPE:dance-single;
#DESCRIPTION:;
#CHARTSTYLE:;
#DIFFICULTY:Challenge;
#METER:8;
#RADARVALUES:0.329577,0.434391,0.113328,0.064759,0.161897,285.000000,271.000000,14.000000,8.000000,118.000000,0.000000,3.000000,0.000000,0.000000,0.329577,0.434391,0.113328,0.064759,0.161897,285.000000,271.000000,14.000000,8.000000,118.000000,0.000000,3.000000,0.000000,0.000000;
#CREDIT:JUSTK;
#NOTES:
// measure 0
0000
0000
0000
0000
,  // measure 1
0000
0000
0000
0000
,  // measure 2
0000
0000
0000
0000
,  // measure 3
0000
0000
0000
0000
,  // measure 4
0000
0000
0001
MMMM
0001
MMMM
0001
0000
,  // measure 5
0000
0000
0000
0000
1000
MMMM
1000
MMMM
,  // measure 6
1000
0000
0000
0000
0001
0000
0000
0100
0000
0000
0001
0000
1000
0000
0000
0100
,  // measure 7
0000
1000
0000
0000
1000
MMMM
1000
MMMM
,  // measure 8
1000
0000
0000
0000
0100
0000
0000
0010
0000
0000
0001
0000
1000
0000
0000
0010
,  // measure 9
0000
0100
0000
0000
0001
MMMM
0001
MMMM
,  // measure 10
0001
0000
0100
0000
0001
0100
1000
0001
,  // measure 11
0010
2000
0000
0000
3001
MMMM
0001
MMMM
,  // measure 12
0001
0000
0000
0000
1000
0000
0000
0100
0000
0000
01M0
0000
0000
0100
0001
0000
,  // measure 13
0000
0000
0000
0000
0000
0000
0000
0001
0100
0000
0100
0000
0000
01M0
0000
0000
,  // measure 14
1000
0000
0000
0000
0100
0000
0000
0001
0000
0000
0010
0000
0000
1000
0000
0000
,  // measure 15
0001
0000
1000
0000
0001
0000
0000
0100
0010
0000
0100
0000
0000
01M0
0000
0000
,  // measure 16
1000
0000
0000
0000
0001
0000
0000
0010
0000
0000
1000
0000
0000
0100
0000
0000
,  // measure 17
0004
0000
0000
0000
0003
0000
0000
1000
0000
0000
0010
0000
0000
0001
0000
0000
,  // measure 18
1000
0000
0100
0000
0001
0000
0000
0100
0000
0000
1000
0000
0000
0010
0000
0000
,  // measure 19
0001
1000
0100
00M0
0100
0001
1000
0000
,  // measure 20
1001
0000
0001
0000
1000
0001
0100
0000
,  // measure 21
01M0
0000
0000
0000
1000
0000
0000
0000
0100
0000
0010
0000
0M00
0010
0000
0000
,  // measure 22
0011
0000
0000
0000
1000
0000
0000
0000
0001
0000
0100
0000
M000
0100
0000
0000
,  // measure 23
1100
0000
0000
0000
0001
0000
0000
1000
0000
0000
0010
0000
0000
0000
0000
0000
,  // measure 24
1010
0000
0000
0000
1000
0000
0000
0100
0000
0000
0010
0000
0000
0000
0000
0000
,  // measure 25
0011
0000
0000
0000
0001
0000
0000
1000
0000
0000
0010
0000
0000
0000
0000
0000
,  // measure 26
1010
0000
0000
0000
0001
0000
0000
0010
0000
0000
0100
0000
0000
0000
0000
0000
,  // measure 27
1200
1000
2000
0300
3000
0000
0000
0000
,  // measure 28
0000
0001
0000
1000
,  // measure 29
0100
0010
0000
0000
,  // measure 30
0000
0001
0000
1000
,  // measure 31
0010
0000
0100
0000
0001
MMMM
0001
MMMM
,  // measure 32
0001
0000
0000
0000
0000
0000
1000
MMMM
,  // measure 33
1000
0000
MMMM
0000
1000
0000
0001
0000
1000
0000
0001
0000
0100
0000
0000
01M0
,  // measure 34
0000
0000
1000
0000
0001
0000
0000
0010
0000
0000
0001
0000
1000
0000
MMMM
0000
,  // measure 35
1000
0000
MMMM
0000
1000
0000
0100
0000
1000
0000
0100
0000
0010
0000
0000
001M
,  // measure 36
0000
0000
1000
0000
0001
0000
0100
0010
0000
0000
0100
0000
0001
0000
MMMM
0000
,  // measure 37
0001
MMMM
0001
1000
0001
1000
0200
0000
,  // measure 38
0301
0000
0100
0000
0010
0000
0001
0000
1000
0000
0010
0000
1010
0000
0000
0010
,  // measure 39
1000
0000
0001
0000
0100
0000
0010
0000
0100
0000
0000
0000
1001
0000
0000
1000
,  // measure 40
0100
0000
1000
0000
0001
0000
0100
0000
0001
0000
0000
0000
0101
0000
0000
0001
,  // measure 41
1000
0000
0100
0000
0001
0000
0100
0000
1000
0000
0000
0000
1100
0000
0000
0100
,  // measure 42
0010
0000
0001
0000
1000
0000
0010
0000
0100
0000
0000
0000
1001
0000
0000
0001
,  // measure 43
0100
0000
0010
0000
1000
0000
0100
0000
0010
0000
0000
0000
0011
0000
0000
0001
,  // measure 44
0100
0000
0010
0000
1000
0000
0001
0000
0100
0000
0000
0000
1010
0000
0000
0010
,  // measure 45
1000
0000
0100
0000
0001
0000
0100
0000
1000
0000
0000
0000
0001
0000
0000
0100
,  // measure 46
0000
0002
0000
0003
2000
0000
3001
MMMM
,  // measure 47
0001
MMMM
0001
0100
0001
0000
1000
MMMM
,  // measure 48
1000
MMMM
1000
0100
1000
0020
0001
0000
,  // measure 49
0030
0000
01M0
0000
0000
0100
0000
0000
1000
0000
0001
0000
1000
0000
0000
0000
,  // measure 50
0100
0000
001M
0000
0000
0010
0000
0000
4000
0000
0000
0000
3001
0000
MMMM
0000
,  // measure 51
0001
MMMM
0001
0100
0001
0000
1000
MMMM
,  // measure 52
1000
MMMM
1000
0100
1000
0001
0100
0000
,  // measure 53
0001
0000
0M10
0000
0000
0010
0000
0000
1000
0000
0001
0000
1000
0000
0000
0000
,  // measure 54
0100
0000
001M
0000
0000
0010
0000
0000
4000
0000
0000
0000
3001
0000
0000
0000
,  // measure 55
0000
0000
1000
0100
,  // measure 56
0000
0000
0001
0100
0010
0100
1000
0000
,  // measure 57
0000
0010
0001
0100
,  // measure 58
0000
0000
1000
0100
0001
0100
2000
0000
,  // measure 59
0000
0000
0000
0000
3000
M000
0000
0000
;
