#TITLE:Byte;
#SUBTITLE:;
#ARTIST:Martin Garrix & Brooks;
#TITLETRANSLIT:;
#SUBTITLETRANSLIT:;
#ARTISTTRANSLIT:;
#GENRE:Electro Future House;
#CREDIT:;
#BANNER:byte-bn.png;
#BACKGROUND:byte-bg.png;
#LYRICSPATH:;
#CDTITLE:cdtitle.png;
#MUSIC:byte.ogg;
#OFFSET:0.000000;
#SAMPLESTART:67.483994;
#SAMPLELENGTH:15.000000;
#SELECTABLE:YES;
#BPMS:0.000000=64.000000
,24.000000=128.000000
,52.000000=64.000000
,54.000000=128.000000
,86.000000=64.000000
,94.000000=128.000000
,106.000000=64.000000
,108.000000=128.000000
,137.000000=64.000000
,139.000000=128.000000
,166.000000=64.000000
,168.000000=128.000000
,232.000000=64.000000
;
#STOPS:
;
#BGCHANGES:8.000=byte.mp4=1.000=1=0=1===CrossFade==,
99999=-nosongbg-=1.000=0=0=0 // don't automatically add -songbackground-
;
#KEYSOUNDS:;
#ATTACKS:;

//---------------dance-single - ----------------
#NOTES:
     dance-single:
     :
     Hard:
     9:
     0.503361,0.720620,0.155450,0.037012,0.403429,476.000000,455.000000,21.000000,5.000000,0.000000,0.000000,0.503361,0.720620,0.155450,0.037012,0.403429,476.000000,455.000000,21.000000,5.000000,0.000000,0.000000:
// measure 0
0000
0000
0000
0000
,  // measure 1
0000
0000
0000
0000
,  // measure 2
1001
0000
0000
0000
0001
0000
0000
0000
0100
0000
0000
0000
0010
0000
1000
0010
0000
0000
0000
0000
0100
0000
0001
0000
1000
0000
0001
0000
0100
0000
0001
0100
,  // measure 3
0000
0000
0000
0000
0010
0000
1000
0000
0001
0000
1000
0000
0010
0000
0010
1000
0000
0000
0000
0000
0010
0000
0100
0000
1000
0000
0100
0000
0010
0000
0100
0000
,  // measure 4
0001
0000
0000
0000
0010
0000
0000
0000
1000
0000
0000
0000
0010
0000
0001
0010
0000
0000
0000
0000
0001
0000
0100
0000
0010
0000
1000
0000
0100
0000
0010
0100
,  // measure 5
0000
0000
0000
0000
1000
0000
0010
0000
1000
0000
0001
0000
0100
0000
0001
0010
0000
0000
0000
0000
0010
0000
0001
0000
0010
0000
0001
0000
0100
0000
0001
0000
,  // measure 6
0011
0000
0000
0000
0101
0000
0000
0000
0011
0000
0000
0000
0010
0000
0001
0010
,  // measure 7
0001
0000
0000
0000
1000
0000
0100
0000
0001
0000
0100
0000
1000
0000
0100
1000
,  // measure 8
0000
0000
0000
0000
0001
0000
0100
0000
0010
0000
1000
0000
0001
0000
0100
0001
,  // measure 9
0000
0000
1000
0001
1000
0010
1000
0100
,  // measure 10
1100
0000
0000
1000
0000
0000
0001
0000
0000
1000
0000
0000
0010
0000
0000
0100
0000
0000
0001
0000
0000
1000
0000
0000
0001
0000
0000
0000
0100
0000
0001
0000
,  // measure 11
0100
0000
0000
0000
0001
0000
1000
0000
0001
0000
0010
0000
0100
0000
1000
0001
,  // measure 12
0000
0000
0000
0000
1000
0000
0001
0000
0010
0000
0100
0000
1000
0000
0001
2000
,  // measure 13
0000
3100
1000
0001
,  // measure 14
1000
0000
0000
0000
0001
0000
0100
0001
0000
0000
0000
0000
0001
0000
0010
0000
,  // measure 15
0100
0000
1000
0000
0100
0000
0010
0100
0000
0000
0000
0000
0100
0000
0010
0000
,  // measure 16
0100
0000
1000
0000
0100
0000
0010
0001
0000
0000
0000
0000
0001
0000
0000
0000
,  // measure 17
0001
1000
0010
1000
0001
0000
1000
0000
,  // measure 18
0001
0000
0000
0000
1000
0000
0010
1000
0000
0000
0000
0000
1000
0000
0010
0000
,  // measure 19
0100
0000
0001
0000
0010
0000
0100
0010
0000
0000
0000
0000
0010
0000
1000
0000
,  // measure 20
0100
0000
0010
0000
0100
0000
1000
0002
0000
0000
0000
0000
0000
0000
0000
0000
,  // measure 21
0000
0000
0000
0000
1000
0000
1000
0003
1001
0000
0001
0000
0010
0000
0100
0000
,  // measure 22
0010
0000
0001
0000
0010
0000
0100
0000
0010
0000
0001
0000
0010
0000
0100
0010
0100
0000
1000
0000
0001
0000
1000
0000
0001
0000
0010
0000
0100
0000
0010
0100
,  // measure 23
1000
0010
0100
0010
1000
1000
0001
0001
1001
0000
0000
1000
0000
0000
0010
0000
,  // measure 24
0000
0100
0000
0000
0001
0000
0000
1000
0000
0001
0000
0000
1000
0000
0000
1000
,  // measure 25
0000
0010
0000
0000
0100
0000
0000
0100
0010
0000
1000
0000
0001
0000
1000
0000
,  // measure 26
0010
0000
0000
0000
1000
0000
0000
0000
0001
0000
0000
0000
1000
0000
0000
0000
0010
0000
0100
0000
0010
0000
0100
0000
0010
0000
0100
0010
0100
0000
0010
0000
,  // measure 27
0110
0000
0000
0000
0010
0000
1000
0000
1010
0000
0000
0000
0100
0000
0001
1000
,  // measure 28
0000
0000
1000
0000
0010
0000
0100
0000
0001
0000
1000
0000
0001
0000
0100
0001
,  // measure 29
0000
0000
0001
0000
1000
0000
0100
0000
0010
0000
0001
0000
0010
0000
0100
0010
,  // measure 30
0000
0000
0001
1000
0001
0010
0011
0001
,  // measure 31
1001
0000
0000
0000
1000
0000
0100
0000
1100
0000
0000
0000
1000
0000
0001
1000
,  // measure 32
0000
0000
1000
0000
0001
0000
1000
0000
1000
0000
0100
0000
0010
0000
0001
0010
,  // measure 33
0000
0000
0001
0000
0001
0000
0010
0000
0100
0000
1000
0000
0100
0000
0010
0200
,  // measure 34
0000
0000
0000
0000
0310
0100
1000
0100
0010
0100
0110
0000
0110
0000
0100
0000
,  // measure 35
0010
0001
0010
0100
0010
1000
0010
0001
,  // measure 36
1000
0000
0010
0000
0100
0000
0001
0001
0000
0000
0001
0000
1000
0000
0001
0000
,  // measure 37
1000
0000
0100
0000
0010
0000
0001
1000
0000
0000
1000
0000
0001
0000
0010
0000
,  // measure 38
0001
0100
0010
1000
1010
0010
0100
0001
,  // measure 39
1000
0010
0100
0001
0001
0100
0010
1000
,  // measure 40
0100
0000
0010
0000
0001
0000
1000
0001
0000
0000
0001
0000
1000
0000
0100
0000
,  // measure 41
0010
0000
0000
0000
0100
0000
0000
0000
1000
0000
0000
0000
0001
0000
2000
0000
0010
0000
0001
0000
0010
0000
0001
0000
3010
0000
1000
0001
1000
0000
0100
0000
,  // measure 42
1100
0000
0000
0000
1000
0000
0001
0000
1000
0000
0000
0000
0010
0000
0100
0010
,  // measure 43
0000
0000
0000
0000
0110
0000
0000
1000
0000
0001
0000
0100
0001
0000
0010
0000
,  // measure 44
0011
0000
0000
0000
0001
0000
0000
0100
0001
0000
0010
0000
0100
0000
0100
1000
,  // measure 45
0000
0000
0000
0000
1000
0000
0001
0000
1000
0000
0010
0100
0001
0000
1000
0000
,  // measure 46
1001
0000
0000
0000
1000
0000
0001
0000
0100
0000
0000
0000
0100
0000
0000
0100
,  // measure 47
0001
0000
0000
0000
1000
0000
0001
0000
1000
0010
0000
0000
0010
0000
0100
0000
,  // measure 48
0010
0000
0000
0000
1000
0000
0000
1000
0001
0000
0100
0000
0001
0000
0000
0001
,  // measure 49
0100
0000
0001
0010
0100
1000
0100
0010
,  // measure 50
0001
0000
0000
0000
0001
0000
0100
0000
0010
0000
0000
0000
1000
0000
0000
0010
,  // measure 51
1000
0000
0010
0000
0100
0000
0001
0000
0010
0001
0000
0000
1000
0000
0001
0000
,  // measure 52
1000
0000
0000
0000
0010
0000
0000
0000
0100
0010
0000
0000
0100
0000
0000
0001
,  // measure 53
1000
0000
0000
0000
0001
0000
0010
0000
0100
0000
0010
0001
0010
0000
0001
0000
,  // measure 54
1001
0000
0000
0000
1000
0000
0010
0000
1000
0000
0000
0000
0001
0000
0000
0100
,  // measure 55
0001
0000
0000
0000
1000
0000
0001
0000
1000
0010
0000
0000
0010
0000
0100
0000
,  // measure 56
0010
0000
0000
0000
1000
0000
0010
0000
0100
0010
0000
0000
1000
0000
0000
1000
,  // measure 57
0010
0000
0000
0000
0010
0000
0100
0000
0010
0000
0100
0010
0100
0000
0001
0000
,  // measure 58
0102
1000
0100
0010
0100
1000
0100
0010
,  // measure 59
0103
0000
0000
0000
;

//---------------dance-single - ----------------
#NOTES:
     dance-single:
     :
     Medium:
     7:
     0.402900,0.436739,0.081426,0.044414,0.229473,381.000000,370.000000,11.000000,6.000000,0.000000,0.000000,0.402900,0.436739,0.081426,0.044414,0.229473,381.000000,370.000000,11.000000,6.000000,0.000000,0.000000:
// measure 0
0000
0000
0000
0000
,  // measure 1
0000
0000
0000
0000
,  // measure 2
0011
0000
0000
0000
0001
0000
0000
0000
0001
0000
0000
0000
1000
0000
0000
0010
0000
0000
0000
0000
0001
0000
0000
0000
0010
0000
0000
0000
1000
0000
0000
0100
,  // measure 3
0000
0000
0000
0000
0010
0000
0000
0000
0001
0000
0000
0000
0010
0000
0000
0001
0000
0000
0000
0000
0001
0000
0000
0000
0010
0000
0100
0000
0010
0000
0001
0000
,  // measure 4
0010
0000
0000
0000
0001
0000
0000
0000
1000
0000
0000
0000
0010
0000
0000
1000
0000
0000
0000
0000
0001
0000
0000
0000
0010
0000
0000
0000
0100
0000
0000
0010
,  // measure 5
0000
0000
0000
0000
0100
0000
0000
0000
1000
0000
0000
0000
0001
0000
0000
0010
0000
0000
0000
0000
0100
0000
0000
0000
1000
0000
0100
0000
0010
0000
0100
0000
,  // measure 6
1100
1000
0001
0010
,  // measure 7
0100
0000
0000
0000
1000
0000
0100
0000
1000
0000
0100
0000
1000
0000
0100
1000
,  // measure 8
0000
0000
0000
0000
0001
0000
0010
0000
0001
0000
0010
0000
0001
0000
0010
0001
,  // measure 9
0000
0000
1000
0001
1000
0001
0010
0100
,  // measure 10
0110
1000
0001
1000
,  // measure 11
0100
0000
0000
0000
1000
0000
0001
0000
1000
0000
0010
0000
0100
0000
0001
0100
,  // measure 12
0000
0000
0000
0000
0001
0000
1000
0000
0010
0000
0100
0000
0001
0000
0010
0002
,  // measure 13
0000
0003
0001
0001
,  // measure 14
0001
0000
0000
0000
0001
0000
0000
0100
0000
0000
0000
0000
0100
0000
0010
0000
,  // measure 15
0100
0000
1000
0000
0100
0000
0010
0100
0000
0000
0000
0000
0001
0000
0010
0000
,  // measure 16
1000
0000
0010
0000
0001
0000
0010
0001
0000
0000
0000
0000
0001
0000
0000
0000
,  // measure 17
0010
0010
0100
0100
1000
0000
1000
0000
,  // measure 18
1000
0000
0000
0000
1000
0000
0000
1000
0000
0000
0000
0000
1000
0000
0001
0000
,  // measure 19
0010
0000
0100
0000
0010
0000
0100
0010
0000
0000
0000
0000
0001
0000
1000
0000
,  // measure 20
0100
0000
0010
0000
0100
0000
1000
0200
0000
0000
0000
0000
0000
0000
0000
0000
,  // measure 21
0000
0000
0000
0000
1000
0000
0000
0300
1100
0000
1000
0000
0001
0000
0001
0000
,  // measure 22
0010
0010
0100
0100
0010
0001
1000
0001
,  // measure 23
0010
0000
0100
0000
0010
0000
0001
0000
0011
0000
0000
0001
0000
0000
1000
0000
,  // measure 24
0000
0100
0000
0000
1000
0000
0000
1000
0000
0001
0000
0000
1000
0000
0000
1000
,  // measure 25
0000
0010
0000
0000
0100
0000
0000
0000
0010
0000
0000
0000
1000
0000
0000
0000
,  // measure 26
0100
0000
1000
0000
0010
0000
1000
0000
0010
0100
0010
0100
0010
0100
0010
0000
,  // measure 27
0110
0000
0000
0000
1000
0000
0001
0000
1000
0000
0000
0000
0010
0000
0000
1000
,  // measure 28
0000
0000
0001
0000
0010
0000
0100
0000
0010
0000
0001
0000
0010
0000
0000
0010
,  // measure 29
0000
0000
0010
0000
0100
0000
1000
0000
0100
0000
0001
0000
0100
0000
0000
0100
,  // measure 30
0000
0000
1000
0001
1000
0010
1000
0001
,  // measure 31
1001
0000
0000
0000
0001
0000
0010
0000
0100
0000
0000
0000
0010
0000
0000
0001
,  // measure 32
0000
0000
1000
0000
0001
0000
1000
0000
0010
0000
0100
0000
0010
0000
0000
0010
,  // measure 33
0000
0000
0010
0000
0001
0000
0010
0000
0100
0000
0001
0000
1000
0000
0010
0200
,  // measure 34
0000
0000
0000
0000
0310
0000
1000
0100
0010
0100
2000
0000
3001
0000
0000
0000
,  // measure 35
1000
0000
0001
0000
0010
0000
0000
0010
0000
0000
0000
0000
0001
0000
0010
0000
,  // measure 36
0100
0000
0010
0000
0001
0000
0010
0001
0000
0000
0000
0000
1000
0000
0001
0000
,  // measure 37
1000
0000
0100
0000
1000
0000
0010
1000
0000
0000
0000
0000
0001
0000
1000
0000
,  // measure 38
0100
0010
0001
0010
0100
0000
0100
1000
,  // measure 39
0010
0000
0000
0000
0010
0000
0000
1000
0000
0000
0000
0000
1000
0000
0001
0000
,  // measure 40
0100
0000
1000
0000
0100
0000
0001
0100
0000
0000
0000
0000
0001
0000
0100
0000
,  // measure 41
0010
0000
0100
0000
0001
0000
0010
0002
0000
0000
1000
0000
0003
0000
0001
0100
,  // measure 42
0101
0000
0000
0000
0001
0000
0000
0000
1000
0000
0000
0000
0010
0000
0100
0010
,  // measure 43
0000
0000
0000
0000
0110
0000
0000
1000
0000
0001
0000
0000
0100
0000
0010
0000
,  // measure 44
1000
0000
0000
0000
0001
0000
0000
0100
0000
0001
0000
0000
0001
0000
0000
1000
,  // measure 45
0000
0000
0000
0000
0001
0000
0010
0000
0100
0000
1000
0100
1000
0000
1000
0000
,  // measure 46
1100
1000
0001
0100
,  // measure 47
0001
0000
0000
0000
1000
0000
0000
1000
0000
0010
0000
0000
0010
0000
0100
0000
,  // measure 48
0010
0000
0000
0000
1000
0000
0000
1000
0000
0001
0000
0000
0001
0000
0000
0001
,  // measure 49
0100
0000
0001
0010
0100
1000
0100
0010
,  // measure 50
0001
0000
0000
0000
0001
0000
0100
0000
0010
0000
0000
0000
1000
0000
0000
1000
,  // measure 51
0000
0000
1000
0000
0001
0000
0100
0000
0001
1000
0000
0000
1000
0000
0010
0000
,  // measure 52
1000
0010
0100
0001
,  // measure 53
1000
0000
0000
0000
0001
0000
0010
0000
0100
0000
0010
0001
0010
0000
0001
0000
,  // measure 54
1000
0000
0000
0000
0001
0000
0010
0000
0001
0000
0000
0000
0001
0000
0000
0100
,  // measure 55
0000
0000
0001
0000
1000
0000
0000
0000
1000
0010
0000
0000
0010
0000
0100
0000
,  // measure 56
0010
0000
1000
0001
0100
0001
1000
0001
,  // measure 57
0010
0000
0100
0000
0010
0000
0001
0000
0010
0000
0100
0010
0100
0000
1000
0000
,  // measure 58
2100
0001
0100
0001
,  // measure 59
3100
0000
0000
0000
;

//---------------dance-single - ----------------
#NOTES:
     dance-single:
     :
     Easy:
     4:
     0.215726,0.262044,0.022207,0.037012,0.066621,204.000000,201.000000,3.000000,5.000000,0.000000,0.000000,0.215726,0.262044,0.022207,0.037012,0.066621,204.000000,201.000000,3.000000,5.000000,0.000000,0.000000:
// measure 0
0000
0000
0000
0000
,  // measure 1
0000
0000
0000
0000
,  // measure 2
1100
0000
0000
0000
0000
0000
0000
0000
0001
0000
0000
0000
0000
0000
0000
0100
0000
0000
0000
0000
0000
0000
0000
0000
0010
0000
0000
0000
0000
0000
0000
0100
,  // measure 3
0000
0000
0000
0000
0000
0000
0000
0000
0001
0000
0000
0000
0000
0000
0000
0100
0000
0000
0000
0000
0001
0000
0000
0000
0010
0000
0000
0000
0100
0000
0000
0000
,  // measure 4
1000
0000
0000
0000
0000
0000
0000
0000
0010
0000
0000
0000
0000
0000
0000
1000
0000
0000
0000
0000
0000
0000
0000
0000
0010
0000
0000
0000
0100
0000
0000
0001
,  // measure 5
0000
0000
0000
0000
0000
0000
0000
0000
1000
0000
0000
0000
0000
0000
0000
0010
0000
0000
0000
0000
1000
0000
0000
0000
0100
0000
0000
0000
0010
0000
0000
0000
,  // measure 6
0001
0000
1000
0000
,  // measure 7
0001
0000
1000
0000
,  // measure 8
0100
0000
0010
0000
,  // measure 9
0001
0000
1000
0000
0001
0100
0010
0100
,  // measure 10
0001
0000
0010
0000
,  // measure 11
0100
0000
1000
0000
,  // measure 12
0002
1000
0000
0100
,  // measure 13
0100
0003
1000
0000
,  // measure 14
1000
0000
0000
0000
0000
0000
0000
1000
0000
0000
0000
0000
0001
0000
0000
0000
,  // measure 15
0100
0000
0000
0000
0001
0000
0000
0100
0000
0000
0000
0000
0010
0000
0000
0000
,  // measure 16
1000
0000
0000
0000
0010
0000
0000
1000
0000
0000
0000
0000
0001
0000
0000
0000
,  // measure 17
0001
1000
0001
1000
0001
0000
0000
0000
,  // measure 18
0001
0000
0000
0000
0000
0000
0000
0001
0000
0000
0000
0000
1000
0000
0000
0000
,  // measure 19
0010
0000
0000
0000
1000
0000
0000
0010
0000
0000
0000
0000
0100
0000
0000
0000
,  // measure 20
0001
0000
0000
0000
0100
0000
0000
0002
0000
0000
0000
0000
0000
0000
0000
0000
,  // measure 21
0000
0000
0013
0001
,  // measure 22
0010
0100
0010
0100
,  // measure 23
1000
0000
0010
0000
1010
0000
0000
1000
,  // measure 24
0000
0000
0000
0000
0001
0000
0000
1000
0000
0001
0000
0000
1000
0000
0000
0001
,  // measure 25
0000
0010
0000
0000
0001
0000
0000
0000
0010
0000
0000
0000
0000
0000
0000
0000
,  // measure 26
0100
0000
1000
0001
,  // measure 27
1001
0000
0001
0000
,  // measure 28
0100
0000
0010
0000
,  // measure 29
1000
0000
0100
0000
,  // measure 30
0010
0001
1000
0010
,  // measure 31
1000
0000
0100
0000
,  // measure 32
0001
0000
1000
0000
,  // measure 33
0010
0000
0100
0000
,  // measure 34
0001
0000
0001
1000
0010
2000
3001
0000
,  // measure 35
0000
1000
0000
0001
,  // measure 36
0000
0100
0000
0010
,  // measure 37
0000
0100
0000
0001
,  // measure 38
1000
0001
0100
0000
,  // measure 39
0010
0000
1000
0000
,  // measure 40
0100
0000
0010
0000
,  // measure 41
0001
1000
0002
0000
,  // measure 42
0013
0000
0000
0000
0001
0000
0000
0000
0010
0000
0000
0000
0001
0000
0000
0001
,  // measure 43
0000
0001
1000
0100
,  // measure 44
1000
0001
0100
0001
,  // measure 45
0010
0000
0100
0010
0100
0010
0100
0010
,  // measure 46
0100
0000
0000
0000
1000
0000
0000
0000
0001
0000
0000
0000
0100
0000
0000
0100
,  // measure 47
0000
0001
1000
0010
,  // measure 48
0100
0001
0010
0100
,  // measure 49
0010
0001
0100
0010
,  // measure 50
1000
0001
1000
0001
,  // measure 51
0100
0000
0010
0000
1000
1000
0001
0000
,  // measure 52
1000
0001
0010
0100
,  // measure 53
1000
0000
0001
1000
0001
0000
0100
0000
,  // measure 54
0001
1000
0010
0100
,  // measure 55
0001
0000
1000
0000
0010
0010
0100
0000
,  // measure 56
0010
0001
0100
0010
,  // measure 57
0001
0000
0010
0001
0010
0000
0100
0000
,  // measure 58
0200
0000
0010
0000
,  // measure 59
1300
0000
0000
0000
;

//---------------dance-single - ----------------
#NOTES:
     dance-single:
     :
     Beginner:
     1:
     0.115265,0.174696,0.037012,0.259083,0.022207,109.000000,104.000000,5.000000,35.000000,0.000000,0.000000,0.115265,0.174696,0.037012,0.259083,0.022207,109.000000,104.000000,5.000000,35.000000,0.000000,0.000000:
// measure 0
0000
0000
0000
0000
,  // measure 1
0000
0000
0000
0000
,  // measure 2
0120
0000
0000
0000
0000
0000
0000
0000
0000
0000
0000
0000
0000
0000
0000
0230
0000
0000
0000
0000
0000
0000
0000
0000
0000
0000
0000
0000
0000
0000
0000
0302
,  // measure 3
0000
0000
0000
0000
0000
0000
0000
0000
0000
0000
0000
0000
0000
0000
0000
0203
0000
0000
0000
0000
0000
0000
0000
0000
0000
0000
0000
0000
0000
0000
0000
0300
,  // measure 4
2000
0000
0000
0000
0000
0000
0000
0000
0000
0000
0000
0000
0000
0000
0000
3020
0000
0000
0000
0000
0000
0000
0000
0000
0000
0000
0000
0000
0000
0000
0000
0032
,  // measure 5
0000
0000
0000
0000
0000
0000
0000
0000
0000
0000
0000
0000
0000
0000
0000
0023
0000
0000
0000
0000
0000
0000
0000
0000
0000
0000
0000
0000
0000
0000
0000
0000
,  // measure 6
0031
0000
0000
0000
,  // measure 7
2000
0000
3200
0000
,  // measure 8
2300
0000
3002
0000
,  // measure 9
0023
0000
0030
0000
,  // measure 10
0001
0000
0000
0000
,  // measure 11
2000
0000
3020
0000
,  // measure 12
0230
0000
0000
0000
,  // measure 13
0000
0300
0100
0000
,  // measure 14
0000
0000
0000
0001
,  // measure 15
0000
0100
0000
0010
,  // measure 16
0000
1000
0000
0001
,  // measure 17
0100
0001
0100
0000
,  // measure 18
0000
0000
0000
1000
,  // measure 19
0000
0010
0000
0100
,  // measure 20
0000
0001
0000
0000
,  // measure 21
0000
0000
0101
0000
,  // measure 22
0010
0100
0010
0000
,  // measure 23
1000
0010
1000
0000
,  // measure 24
0000
1000
0000
0010
,  // measure 25
0000
0100
0002
0000
,  // measure 26
0000
0000
0013
0000
,  // measure 27
0011
0000
0000
0000
,  // measure 28
0002
0000
0000
0003
2000
0000
0000
3000
,  // measure 29
0010
0000
0200
0300
,  // measure 30
0020
0030
0000
0000
,  // measure 31
0110
0000
0000
0000
,  // measure 32
0002
0000
0000
0003
0020
0000
0000
0030
,  // measure 33
0100
0000
0000
0000
0200
0000
0000
0300
,  // measure 34
2000
0000
3000
0000
0000
0200
1300
0000
,  // measure 35
0000
0000
0020
0030
,  // measure 36
2000
3000
0100
0000
,  // measure 37
0020
0030
0200
0300
,  // measure 38
0010
0001
0010
0000
,  // measure 39
0000
0000
0002
0003
,  // measure 40
0020
0030
0001
0000
,  // measure 41
2000
3000
0020
0000
,  // measure 42
0130
0000
0001
0000
,  // measure 43
1000
0000
0100
0000
,  // measure 44
1000
0000
0001
0000
,  // measure 45
0010
0000
0100
0000
,  // measure 46
0010
0000
0001
0000
,  // measure 47
1000
0000
0010
0000
,  // measure 48
0100
0000
0001
0000
,  // measure 49
0010
0000
0100
0000
,  // measure 50
1100
0000
0001
0000
,  // measure 51
1000
0000
0001
0000
,  // measure 52
0100
0000
0010
0000
,  // measure 53
0100
0000
0001
0000
,  // measure 54
1000
0000
0001
0100
,  // measure 55
0000
0001
0000
0010
,  // measure 56
0000
0100
0000
1000
,  // measure 57
0000
0001
0000
1000
,  // measure 58
0020
0000
0000
0000
,  // measure 59
0030
0000
0000
0000
;
