#VERSION:0.83;
#TITLE:Breathless;
#SUBTITLE:;
#ARTIST:Caroline Polachek;
#TITLETRANSLIT:;
#SUBTITLETRANSLIT:;
#ARTISTTRANSLIT:;
#GENRE:Pop;
#ORIGIN:;
#CREDIT:;
#BANNER:Breathless-bn.png;
#BACKGROUND:Breathless-bg.png;
#PREVIEWVID:;
#JACKET:Breathless-jacket.png;
#CDIMAGE:;
#DISCIMAGE:;
#LYRICSPATH:;
#CDTITLE:cdtitle.png;
#MUSIC:Breathless.ogg;
#OFFSET:-0.003000;
#SAMPLESTART:36.925999;
#SAMPLELENGTH:24.000000;
#SELECTABLE:YES;
#BPMS:0.000=130.000;
#STOPS:;
#DELAYS:;
#WARPS:;
#TIMESIGNATURES:0.000=4=4;
#TICKCOUNTS:0.000=4;
#COMBOS:0.000=1;
#SPEEDS:0.000=1.000=0.000=0;
#SCROLLS:0.000=1.000;
#FAKES:;
#LABELS:0.000=Song Start;
#BGCHANGES:;
#KEYSOUNDS:;
#ATTACKS:
;

//---------------dance-single - ----------------
#NOTEDATA:;
#CHARTNAME:X-Scale 12;
#STEPSTYPE:dance-single;
#DESCRIPTION:;
#CHARTSTYLE:;
#DIFFICULTY:Hard;
#METER:8;
#RADARVALUES:0.469561,0.502916,0.173828,0.474076,0.138272,416.000000,394.000000,22.000000,60.000000,0.000000,0.000000,6.000000,0.000000,0.000000,0.469561,0.502916,0.173828,0.474076,0.138272,416.000000,394.000000,22.000000,60.000000,0.000000,0.000000,6.000000,0.000000,0.000000;
#CREDIT:;
#NOTES:
0000
0000
0000
0000
,
0000
0000
0000
0000
,
0000
0000
0000
0000
,
0000
0000
0000
0000
,
1001
0000
0001
0200
0000
0302
0000
0023
,
0100
0000
0031
2000
0000
3200
0000
0000
,
0310
0000
0100
2000
0000
3002
0000
0023
,
0000
2030
0000
3200
0000
0302
0000
2003
,
0100
3000
1000
0002
0000
2003
0000
3020
,
0001
0000
1030
0200
0000
0320
0000
0000
,
0031
0000
0100
0020
0000
2030
0000
3002
,
0000
0023
0000
2030
0000
3200
0000
0302
,
1000
1003
0000
0001
0100
0001
1000
0100
,
1000
0001
0000
1000
0010
0100
0001
1000
,
0010
1000
0000
0001
0100
0010
1000
0001
,
1000
0100
0000
1000
0100
0001
0100
0010
,
0100
1000
0000
0010
1000
0001
0100
0010
,
0100
0001
0000
1000
0001
0010
0001
1000
,
0100
0010
0000
0001
0010
1000
0001
0100
,
1000
0001
0000
1000
0010
2000
0000
3000
,
1100
0000
1000
0100
0000
0100
0001
1000
,
0000
0001
0010
0100
0000
1000
0000
0001
,
2000
0000
3001
0200
0000
0302
0000
0003
,
0011
0000
0001
0100
0000
0100
1000
0001
,
0000
0100
0001
1000
0000
0100
0000
0000
,
1000
0000
0000
0000
0001
0010
0000
0000
0100
1000
0000
0000
0400
0000
0300
0000
,
0110
0000
0010
0001
1000
0001
0010
0000
,
0011
0000
0000
0001
1000
0000
0100
0000
1000
0000
0001
0000
0100
0000
0000
0000
,
0101
0000
0001
2000
0000
3002
0010
0013
,
0011
0000
0010
0001
1000
0010
1000
0000
,
1001
0000
0000
0001
0100
0000
0001
0000
1000
0000
0100
0000
0010
0000
0000
0000
,
0011
0000
0001
2000
0000
3001
1000
0001
,
1000
0000
0000
0100
0010
0000
0010
0000
0000
0001
0010
0000
0040
0000
0130
0010
,
0100
0010
0000
0100
1000
0001
0100
0001
,
1000
0000
0000
0001
0100
0000
0001
0000
0000
1000
0100
0000
1000
0000
0001
0000
,
1000
0000
0010
0000
0000
0000
0100
0000
0000
0010
0100
0000
0010
0000
0010
0000
,
0101
0001
0000
1000
0010
1000
0001
0010
,
0110
0000
0000
0100
1000
0000
1000
0000
0001
0000
0010
0000
0001
0000
1000
0000
,
1001
0000
0001
0000
0000
0000
1000
0000
0010
0000
0001
0000
0010
0000
1000
0010
,
1000
0000
0000
0100
0010
0000
0010
0000
0000
0001
0010
0000
0040
0000
0000
0000
,
0200
0000
0000
0000
0030
0000
0000
0300
,
1002
0000
0013
0020
0030
2000
0000
3100
,
0200
0300
0002
0000
0013
0020
0030
2000
,
0000
3100
0200
0300
0002
0000
0013
0020
,
0030
2000
0000
3100
0200
0300
0002
0000
,
0103
0200
0300
2000
0000
3010
0020
0030
,
0002
0000
0013
0020
0030
2000
0000
3010
,
0020
0030
0001
0100
0000
0001
1000
0010
,
0200
0000
0301
2000
3000
0002
1000
1003
,
1001
0000
0000
0001
0010
0000
0001
0000
1000
0000
0100
0000
0001
0000
0100
0000
,
1000
0000
0000
0010
1000
0000
0001
0000
0000
0000
0100
0000
0001
0000
1000
0000
,
1001
0000
0000
0001
0100
0000
0001
0000
1000
0000
0010
0000
0100
0000
0100
0000
,
1100
0000
0000
0100
0010
0000
0100
0000
1000
0000
0010
0000
0001
0000
0010
0000
,
1000
0000
0000
0100
1000
0000
0001
0000
0000
0000
0100
0000
0100
0000
0001
0000
,
0101
0000
0000
0000
0000
0000
0000
0000
0000
0001
0000
0000
1000
0000
0000
0000
0000
0000
0100
0000
0000
0000
0000
0000
0000
0000
0000
0000
0000
0000
0400
0000
0000
0000
0000
0000
0301
0000
0000
0000
0100
0000
0000
0000
0001
0000
0000
0000
,
1000
0000
0000
0001
0010
0000
0100
0000
1000
0000
0001
0000
0100
0000
0001
0010
,
0001
0000
0000
1000
0010
0000
1000
0000
0001
0000
0100
0000
0001
0000
1000
0000
,
1001
0000
0000
0000
0000
0000
0100
0000
0000
1000
0000
0000
0001
0000
0000
1000
0000
0000
0001
0000
0100
0000
0001
0000
,
1000
0000
0010
0100
1000
0100
0010
0100
,
0101
0000
0001
0100
0001
0000
1000
0000
0010
0000
0001
0000
1000
0000
0100
0000
,
0001
0000
0000
0000
0000
0000
1000
0000
0000
0010
0000
0000
1000
0000
0000
0001
0000
0000
0010
0000
0001
0000
1000
0000
,
0002
0000
0000
0000
1003
0000
1000
0000
0000
0001
0010
0000
0040
0000
0000
0030
,
0110
0000
0000
0100
1000
0000
0001
0000
0100
0010
0000
0000
0400
0000
0000
0000
,
0302
0000
0013
0100
0000
0010
0001
0001
,
1001
0000
0000
1000
0100
0000
1000
0000
0001
0000
0100
0000
0010
0000
0100
0000
,
0001
0000
0000
0010
0100
0000
1000
0000
0002
0000
0000
0000
0103
0000
0100
0000
,
0102
0000
1003
0200
0000
0000
0000
0000
,
0300
0000
0000
0000
;

//---------------dance-single - ----------------
#NOTEDATA:;
#CHARTNAME:X-Scale 8;
#STEPSTYPE:dance-single;
#DESCRIPTION:;
#CHARTSTYLE:;
#DIFFICULTY:Medium;
#METER:6;
#RADARVALUES:0.347656,0.397039,0.071111,0.703213,0.059259,308.000000,299.000000,9.000000,89.000000,0.000000,0.000000,0.000000,0.000000,0.000000,0.347656,0.397039,0.071111,0.703213,0.059259,308.000000,299.000000,9.000000,89.000000,0.000000,0.000000,0.000000,0.000000,0.000000;
#CREDIT:;
#NOTES:
0000
0000
0000
0000
,
0000
0000
0000
0000
,
0000
0000
0000
0000
,
0000
0000
0000
0000
,
1000
0000
0001
0020
0000
0032
0000
2003
,
0000
0000
3100
0020
0000
0032
0000
0000
,
0103
0000
0010
0200
0000
2300
0000
3200
,
0000
0302
0000
0023
0000
0230
0000
2300
,
0000
3000
0001
0200
0000
0302
0000
2003
,
0000
0000
3100
0020
0000
0032
0000
0000
,
0103
0000
0001
2000
0000
3020
0000
0032
,
0000
0023
0000
2030
0000
3200
0000
0320
,
0001
0030
0000
0010
0100
2000
0000
3002
,
0100
0003
0000
0001
1000
0200
0000
2300
,
0000
3002
0000
0023
0000
0230
0000
2300
,
0100
0000
0000
3001
0000
1000
0100
2000
,
0000
3020
0000
0032
0000
0203
0000
2300
,
0100
0000
0000
3001
0000
0010
0100
0020
,
0000
0032
0000
1003
0000
0010
0100
0002
,
0000
2003
0000
3100
0000
0000
0110
0000
,
0020
0000
0032
0000
0003
2000
0000
3200
,
0000
0000
0300
0000
0010
0200
0000
0000
,
1300
0000
0001
0200
0000
0302
0000
0000
,
0023
0000
2030
0000
3000
0020
0000
0032
,
0000
0000
0003
0000
1000
0020
0000
0000
,
0130
0000
0001
0010
0000
0001
0000
1000
,
1001
0000
0000
0001
0000
0000
1000
0000
0000
0000
0010
0000
1000
0000
0001
0000
,
0010
0000
0000
0001
0000
0000
1000
0000
0100
0000
0020
0000
0000
0000
0030
0000
,
0011
0000
0001
2000
3000
0200
1000
0010
,
1300
0000
0000
0001
0000
0000
0100
0000
0001
0000
0010
0000
0100
0000
0010
0000
,
0001
0000
0000
1000
0000
0000
0010
0000
1000
0000
0001
0000
0100
0000
0000
0000
,
0101
0000
0001
0020
0000
0100
0031
0001
,
0010
0000
0000
0100
0000
0000
1000
0000
0000
0001
0000
0000
1000
0000
0000
0000
,
1001
0000
0001
0100
0010
0200
0000
0302
,
0100
0000
0003
1000
0000
0100
0000
0010
,
0000
0001
0000
0100
0000
0001
0000
2000
,
0100
0000
0000
3001
0000
0010
0100
1000
,
0000
0001
0000
0100
0000
0010
0000
0200
,
0001
0000
0000
0310
0000
1000
0100
2000
,
0000
3002
0000
0000
0003
0010
0100
0020
,
0000
0032
0000
0000
0003
2000
0000
3000
,
1001
0000
0002
0000
0003
0010
0000
0200
,
0000
0300
1000
0000
0002
0000
0003
0100
,
0000
0020
0000
0030
1000
0000
0200
0000
,
0300
0010
0000
0002
0000
0003
1000
0000
,
0020
1030
0010
0001
,
0010
1000
0100
0001
,
0100
0000
1000
0001
0000
0100
0010
1000
,
0001
0000
0000
1001
,
0110
0000
0000
0100
0000
0000
0001
0000
0000
0000
1000
0000
0001
0000
1000
0000
,
0100
0000
0000
1000
0000
0000
0001
0000
0000
0000
0010
0000
0100
0000
0010
0000
,
0001
0000
1000
0020
0000
2030
0000
0000
,
3001
1000
0010
1000
0000
0100
0010
0001
,
0000
1000
0001
0100
0000
0010
0010
1000
,
0001
0000
0010
0200
0300
0020
0000
0000
,
0031
0000
1000
0001
1000
0100
0010
0002
,
0100
0000
0000
1000
0003
0000
0001
0000
0100
0000
0020
0000
0001
0000
0000
0000
,
1030
0000
0001
0100
0000
0002
1000
1000
,
1003
0000
0100
0010
0001
1000
0010
0200
,
1000
0000
0000
0010
0000
0000
0301
0000
1000
0000
0200
0000
0001
0000
0000
0000
,
1300
0000
0100
0010
0000
0002
1000
1003
,
1001
0000
0000
0001
0000
0000
0010
0000
0000
0001
1000
0000
0200
0000
0000
0000
,
0310
0000
0000
0100
0000
0000
1000
0000
0000
0001
0100
0000
0002
0000
0000
0000
,
2003
0000
3010
1000
0001
0002
0000
0000
,
0013
0000
0100
0010
0001
1000
0010
1000
,
0001
0000
0000
0010
0100
0000
1000
0000
0001
0000
0000
0000
1000
0000
0001
0000
,
2000
0000
3100
0020
0000
0000
0000
0000
,
0030
0000
0000
0000
;

//---------------dance-single - ----------------
#NOTEDATA:;
#CHARTNAME:X-Scale 6;
#STEPSTYPE:dance-single;
#DESCRIPTION:;
#CHARTSTYLE:;
#DIFFICULTY:Easy;
#METER:4;
#RADARVALUES:0.266386,0.423508,0.126420,0.316051,0.000000,236.000000,220.000000,16.000000,40.000000,0.000000,0.000000,0.000000,0.000000,0.000000,0.266386,0.423508,0.126420,0.316051,0.000000,236.000000,220.000000,16.000000,40.000000,0.000000,0.000000,0.000000,0.000000,0.000000;
#CREDIT:;
#NOTES:
0000
0000
0000
0000
,
0000
0000
0000
0000
,
0000
0000
0000
0000
,
0000
0000
0000
0000
,
0001
0000
0000
2000
0000
3020
0000
2030
,
0000
0000
3100
0020
0000
0032
0000
0000
,
0103
0000
0000
0010
0000
0100
0000
0001
,
0000
1000
0000
0100
0000
0010
0000
0001
,
1000
0000
0001
0200
0000
0320
0000
0230
,
0000
0000
0301
0020
0000
0230
0000
0000
,
1300
0000
0100
1000
0000
0001
0000
0100
,
0000
0010
0000
1000
0000
0100
0000
0010
,
0011
0000
0000
0001
1000
0001
0000
0100
,
0000
0000
0000
0010
0000
1000
0000
0001
,
0000
0010
0000
0100
0000
0010
0000
0002
,
1000
0000
0003
0001
0000
0000
0100
0000
,
0010
0000
0000
1000
0000
0100
0000
2000
,
0001
0000
0000
3010
0000
1000
0001
0200
,
0000
0320
0000
1030
0000
0001
1000
0200
,
0000
0320
0000
0031
0000
0000
1000
0000
,
1001
0000
0000
0000
,
1000
0000
0000
0000
,
0010
0000
0000
1000
0000
0001
0000
0000
,
0010
0000
0000
0000
,
0001
0000
0000
0000
,
1000
0000
0000
0010
0000
1000
0000
0000
,
1001
0000
0000
0001
0000
0100
0000
0001
,
0000
0000
0000
1000
0000
0010
0000
0000
,
1000
0000
0000
0100
0000
0010
0100
0010
,
0100
0000
0000
1000
0000
0001
0100
0001
,
1000
0000
0000
0010
0000
1000
0001
0000
,
0010
0000
0000
0001
0000
1000
0100
1000
,
0100
0000
0000
0010
0000
0001
0000
0000
,
1001
0000
0000
1000
0100
1000
0000
0002
,
0010
0000
0000
1003
0000
0010
0000
0100
,
0000
0001
0000
0010
0000
0100
0000
2000
,
0100
0000
0000
3001
0000
0100
0010
0100
,
0000
0001
0000
0010
0000
0001
0000
0200
,
0010
0000
0000
0301
0000
1000
0000
0100
,
0000
0020
0000
0000
0030
0001
0000
0100
,
0000
0020
0000
0000
0030
0000
0000
0000
,
1001
0000
0000
0000
0000
1000
0000
0000
,
0000
0000
0100
0000
0000
0000
0000
0010
,
0000
0000
0001
0000
,
0000
0100
0000
0000
0000
0000
0010
0000
,
0000
0000
0000
1000
0000
0000
0000
0000
,
0001
0000
0000
0000
0000
0010
0000
0000
,
0000
0001
0000
0000
,
2002
0000
0000
3003
,
1001
0000
0000
1100
0000
0100
0010
0001
,
0000
0000
0000
1001
0000
0010
1000
0001
,
0020
0000
0130
2000
0000
3002
0000
0000
,
0103
0000
0000
0011
0000
0001
0010
0100
,
0000
1000
0100
1100
0000
1000
0001
0100
,
0101
0000
0000
1002
0000
0203
0000
0300
,
0101
0000
0001
1000
0000
0100
0000
1000
,
0001
0000
0000
1000
0010
1000
0000
0000
,
0100
0000
0010
0002
0000
2003
0000
3000
,
1100
0000
1000
0000
0000
0002
0000
0203
,
0000
0000
0300
0010
0100
0001
0000
0000
,
0010
0000
0100
2000
0000
3002
0000
2003
,
0000
0000
3100
0010
0000
0002
0000
2003
,
0000
0000
3000
0000
0010
1000
0000
0000
,
1001
0000
0100
0001
0000
2000
0000
0000
,
3010
0000
1000
0001
0000
0010
0001
1000
,
0100
0000
0010
0001
1000
0020
0000
0000
,
1030
0000
1000
0002
0000
0000
0000
0000
,
0003
0000
0000
0000
;
