#VERSION:0.83;
#TITLE:Breaking Your Heart;
#SUBTITLE:;
#ARTIST:Bucky;
#TITLETRANSLIT:;
#SUBTITLETRANSLIT:;
#ARTISTTRANSLIT:;
#GENRE:UK Garage;
#ORIGIN:;
#CREDIT:;
#BANNER:BYH-bn.png;
#BACKGROUND:BYH-bg.png;
#PREVIEWVID:;
#JACKET:BYH-jacket.png;
#CDIMAGE:;
#DISCIMAGE:;
#LYRICSPATH:;
#CDTITLE:cdtitle.png;
#MUSIC:Breaking Your Heart.ogg;
#OFFSET:-0.008000;
#SAMPLESTART:56.066002;
#SAMPLELENGTH:14.015000;
#SELECTABLE:YES;
#BPMS:0.000=137.000;
#STOPS:;
#DELAYS:;
#WARPS:;
#TIMESIGNATURES:0.000=4=4;
#TICKCOUNTS:0.000=4;
#COMBOS:0.000=1;
#SPEEDS:0.000=1.000=0.000=0;
#SCROLLS:0.000=1.000;
#FAKES:;
#LABELS:0.000=Song Start;
#BGCHANGES:;
#KEYSOUNDS:;
#ATTACKS:
;

//---------------dance-single - ----------------
#NOTEDATA:;
#CHARTNAME:X-Scale 11;
#STEPSTYPE:dance-single;
#DESCRIPTION:;
#CHARTSTYLE:;
#DIFFICULTY:Hard;
#METER:8;
#RADARVALUES:0.518205,0.567772,0.225306,0.082612,0.244082,483.000000,453.000000,30.000000,11.000000,0.000000,0.000000,3.000000,0.000000,0.000000,0.518205,0.567772,0.225306,0.082612,0.244082,483.000000,453.000000,30.000000,11.000000,0.000000,0.000000,3.000000,0.000000,0.000000;
#CREDIT:;
#NOTES:
// measure 0
0000
0000
0000
0000
,  // measure 1
0000
0000
0000
0000
,  // measure 2
0000
0000
0000
0000
,  // measure 3
0000
0000
0000
0000
,  // measure 4
0000
0000
0000
0000
,  // measure 5
0000
0000
0000
0000
,  // measure 6
0000
0000
0000
0000
,  // measure 7
0000
0000
0000
0000
,  // measure 8
1100
0000
0001
0000
0010
0100
1000
0000
,  // measure 9
0001
0000
1000
0010
0001
0010
0200
0000
,  // measure 10
1000
0000
0301
0000
0100
0001
1000
0001
,  // measure 11
0010
0000
0000
0000
0100
0000
0000
1000
0100
0000
1000
0000
0001
0000
1000
0000
,  // measure 12
0010
0000
0100
0000
0001
1000
0100
0000
,  // measure 13
0010
0000
0000
0000
0001
0000
0000
1000
0020
0000
1000
0000
0100
0000
0000
0000
,  // measure 14
0130
0000
1000
0000
0001
0010
1000
0000
,  // measure 15
0011
0000
1100
0000
0001
0001
1000
1000
,  // measure 16
1001
0000
0000
1000
0100
0000
1000
0000
0001
0000
0000
0000
0100
0000
0010
0000
,  // measure 17
0001
0010
1000
0010
1000
0010
0100
0000
,  // measure 18
0001
0000
0000
1000
0010
0000
1000
0000
0001
0000
0000
0000
0010
0000
0100
0000
,  // measure 19
1000
0001
0100
0010
0001
0010
1000
0000
,  // measure 20
1001
0000
0000
0010
0001
0000
1000
0000
0001
0000
0000
0000
0100
0000
0010
0000
,  // measure 21
0001
0010
1000
0001
1000
0001
0100
0010
,  // measure 22
0110
0000
0000
0100
0001
0000
0010
0000
0001
0000
0000
0000
1000
0000
0100
0000
,  // measure 23
0001
0100
0010
0001
1000
0010
0100
0000
,  // measure 24
0101
0001
0100
1000
0100
0001
0100
0010
,  // measure 25
1000
0000
0010
0000
0100
0000
0001
1000
0000
0001
1000
0000
0001
0000
0000
0000
,  // measure 26
0011
0000
1000
0000
0100
0000
0001
0000
0100
0000
0010
0000
0001
0000
1000
0001
,  // measure 27
1000
0000
0001
0100
0000
0000
0001
0000
1000
0100
0000
0000
1000
0000
0001
0000
,  // measure 28
1001
1000
0100
0001
0100
0010
0100
1000
,  // measure 29
1100
0000
0001
0100
1000
0100
0010
0100
,  // measure 30
0101
0000
0001
0010
0011
0000
1000
0010
,  // measure 31
1010
0000
0000
0000
1001
0000
0000
0000
0011
0000
0010
0000
0400
0000
0000
0300
,  // measure 32
1100
0000
0000
1000
0001
0000
1000
0000
0100
0000
0010
0000
0001
0000
1000
0000
,  // measure 33
0001
0000
0100
0000
0010
0000
0000
0100
0000
0100
0010
0000
1000
0000
0001
0000
,  // measure 34
1000
0000
0100
0000
0010
0000
0001
0000
1000
0000
0001
0000
0100
0000
0010
0100
,  // measure 35
0010
0000
0100
0010
0000
0000
1000
0001
0000
1000
0001
0000
0010
0000
0000
0000
,  // measure 36
0001
0000
0000
1000
0100
0000
1000
0000
0001
0000
0010
0000
0001
0000
1000
0000
,  // measure 37
0100
0000
1000
0000
0001
0000
0000
1000
0000
1000
0001
0000
0010
0000
0100
0000
,  // measure 38
1000
0000
0000
0000
1000
0000
0010
0000
0100
0000
0001
0000
0010
0000
0001
0010
,  // measure 39
0001
0000
0000
1000
0010
0000
1000
0000
0001
0000
0010
0000
0001
0000
0000
0000
,  // measure 40
0011
0010
0100
1000
0001
1000
0010
0100
,  // measure 41
0001
0000
0000
1000
0010
0000
1000
0001
0000
1000
0001
0000
1000
0000
0100
0000
,  // measure 42
0010
0001
0010
1000
0010
0100
0010
0001
,  // measure 43
1000
0000
0010
0000
0100
0000
0001
1000
0000
0001
0010
0000
0001
0000
0000
0000
,  // measure 44
1000
0100
0001
0100
0010
0100
1000
0001
,  // measure 45
0100
0000
1000
0000
0100
0000
0010
0100
0000
0010
0100
0000
0001
0000
0000
0000
,  // measure 46
1000
0010
0001
0010
0100
0010
1000
0001
,  // measure 47
1001
0000
0000
0000
1100
0000
0000
0000
0001
0000
0001
0000
0004
0000
0000
0003
,  // measure 48
0101
0000
0000
0100
0000
0010
0000
1000
0000
0001
0000
0000
0100
0000
0010
0000
1000
0000
0001
0000
0100
0000
0000
0010
,  // measure 49
0000
2000
0000
0000
0000
0000
0000
0000
0000
0000
0000
0000
,  // measure 50
3000
0001
0000
0010
0000
0100
0000
1000
0000
0000
0001
0000
0010
0000
0100
0000
1000
0000
0000
1000
0000
0000
0002
0000
,  // measure 51
0000
0000
0000
0000
,  // measure 52
0013
0000
0000
0001
0000
0100
0000
0010
0000
1000
0000
0000
0001
0000
0100
0000
0010
0000
1000
0000
0000
0100
0000
0000
,  // measure 53
0020
0000
0000
0000
,  // measure 54
0030
0001
0000
0010
0000
0100
0000
1000
0000
0000
0001
0000
0010
0000
0100
0000
1000
0000
0000
0001
0000
0000
0002
0000
,  // measure 55
0000
0000
0000
0000
0000
0000
0020
0000
0000
0000
0000
0033
,  // measure 56
0011
0010
0001
1000
0001
0100
0010
1000
,  // measure 57
0200
0000
0000
0000
0310
0000
0010
0001
0000
0001
1000
0000
0010
0000
0100
0000
,  // measure 58
0001
0010
0100
1000
0001
0100
0001
0010
,  // measure 59
0100
0000
1000
0000
0001
0000
0100
0010
0000
0010
0001
0000
1000
0000
0001
0000
,  // measure 60
0010
1000
0010
0100
1000
0001
0100
0010
,  // measure 61
2000
0000
0000
0000
3001
0000
1000
0100
0000
0100
0001
0000
1000
0000
0100
0000
,  // measure 62
0010
0100
1000
0010
0100
0001
1000
0010
,  // measure 63
1010
0000
0011
0000
1000
1000
0001
0001
,  // measure 64
1001
0000
0001
0100
0002
0000
1003
0001
,  // measure 65
0010
1000
0010
0100
0010
0100
1000
0000
,  // measure 66
1001
0000
0001
1000
0200
0000
0310
0100
,  // measure 67
1000
0001
0100
0010
1000
0100
0010
0000
,  // measure 68
0110
0100
1000
0100
0001
0100
0010
0100
,  // measure 69
1000
0000
0000
0000
0001
0000
0100
0010
0000
0010
1000
0000
0001
0000
0010
0000
,  // measure 70
0101
0100
0001
1000
0010
0100
1000
0100
,  // measure 71
0101
0001
1001
1000
1100
0100
0400
0000
,  // measure 72
0310
0000
0000
0000
;

//---------------dance-single - ----------------
#NOTEDATA:;
#CHARTNAME:X-Scale 9;
#STEPSTYPE:dance-single;
#DESCRIPTION:;
#CHARTSTYLE:;
#DIFFICULTY:Medium;
#METER:6;
#RADARVALUES:0.422718,0.486662,0.135184,0.172735,0.168980,394.000000,376.000000,18.000000,23.000000,0.000000,0.000000,0.000000,0.000000,0.000000,0.422718,0.486662,0.135184,0.172735,0.168980,394.000000,376.000000,18.000000,23.000000,0.000000,0.000000,0.000000,0.000000,0.000000;
#CREDIT:;
#NOTES:
0000
0000
0000
0000
,
0000
0000
0000
0000
,
0000
0000
0000
0000
,
0000
0000
0000
0000
,
0000
0000
0000
0000
,
0000
0000
0000
0000
,
0000
0000
0000
0000
,
0000
0000
0000
0000
,
1000
0000
0001
0000
0010
0100
1000
0000
,
0001
0000
1000
0010
2000
0000
3020
0000
,
0130
0000
0010
0000
0001
0010
0100
0000
,
0001
0000
1000
0000
0010
0100
0000
0010
,
0100
0000
0001
0000
1000
0100
0010
0000
,
0001
0000
0100
0010
2000
0000
3002
0000
,
0013
0000
0100
0000
1000
0001
0100
0000
,
0010
0000
0010
0000
0010
0100
0001
1000
,
1001
0000
0000
1000
0000
0000
0001
0000
0000
1000
0000
0000
0100
0000
0010
0000
,
0100
0000
0000
1000
0000
0000
0001
0000
0000
0100
0000
0000
0010
0000
0000
0000
,
1000
0000
0000
0100
0000
0000
0001
0000
0000
0100
0000
0000
1000
0000
0100
0000
,
1000
0000
0000
0010
0000
0000
1000
0000
0000
0001
0000
0000
0100
0000
0000
0000
,
1001
0000
0000
0100
0000
0000
1000
0000
0000
0001
0000
0000
0100
0000
0010
0000
,
0100
0000
0000
0001
0000
0000
1000
0000
0000
0100
0000
0000
0010
0000
0001
0000
,
0011
0000
0000
0100
0000
0000
0001
0000
0000
1000
0000
0000
0010
0000
0100
0000
,
0010
0000
0000
1000
0000
0000
0100
0000
0000
0010
0000
0000
0001
0000
0000
0000
,
1001
0000
1000
0100
0001
0100
0010
0100
,
1000
0000
0000
0001
0010
0000
0001
0000
0000
1000
0000
0000
0100
0000
0010
0000
,
0001
0000
1000
0010
0001
0010
0100
0010
,
1000
0000
0000
0010
1000
0000
0001
0000
0010
0000
0100
0000
1000
0000
0000
0000
,
1100
0000
0001
0100
1000
0001
0010
1000
,
1010
0000
1000
0100
0001
1000
0010
0001
,
0011
0000
1000
0010
0001
0010
0100
0010
,
1010
0000
1001
0000
0011
0010
0002
0000
,
1003
0000
0010
1000
0002
0000
1003
0100
,
0010
0001
1000
0010
1000
0010
0100
0000
,
0001
0000
1000
0010
0200
0000
1300
0100
,
0001
0010
0100
1000
0010
0100
0002
0000
,
1003
0000
0100
1000
0020
0000
0130
0010
,
0001
0010
1000
0100
1000
0100
0010
0000
,
0001
0000
1000
0010
0200
0000
1300
0100
,
0001
0100
0010
1000
0001
0010
0200
0000
,
1300
0100
0010
0100
1000
0001
0010
1000
,
0010
0000
0100
0000
1000
0000
0000
0010
0000
0010
1000
0000
0001
0000
0000
0000
,
0010
0100
0010
0001
1000
0001
0100
0010
,
1000
0000
0001
0000
1000
0000
0010
0100
0000
0000
0100
0000
0001
0000
1000
0000
,
0001
0010
0100
1000
0010
0100
0001
1000
,
0100
0000
0010
0000
0001
0000
0000
0100
0000
0100
0010
0000
1000
0000
0001
0000
,
0010
0100
0010
0001
1000
0010
0100
0001
,
0101
0000
1001
0000
1100
1000
0200
0000
,
0310
0000
0000
0100
0000
0000
0000
0000
0000
0000
0000
0000
1000
0000
0000
0000
0000
0000
0000
0000
0001
0000
0000
0100
,
0000
0020
0000
0000
0000
0000
0000
0000
0000
0000
0000
0000
,
0030
1000
0000
0000
0000
0000
0000
0000
0000
0000
0001
0000
0000
0000
0000
0000
0000
1000
0000
0000
0100
0000
0000
2000
,
0000
0000
0000
0000
,
3000
0000
0000
0100
0000
0000
0000
0000
0000
0000
0000
0000
1000
0000
0000
0000
0000
0001
0000
0000
0100
0000
0000
0020
,
0000
0000
0000
0000
,
0030
1000
0000
0000
0000
0000
0000
0000
0000
0000
0001
0000
0000
0000
0000
1000
0000
0000
0000
0100
0000
0000
2000
0000
,
0000
0000
0000
0000
,
3010
1000
0001
0000
1000
0100
0010
0000
,
0002
0000
0103
0100
0200
0000
0320
0000
,
1030
0010
1000
0000
0001
0100
0010
0000
,
1000
0000
0000
0000
0100
0000
1000
0001
0000
0000
0001
0000
0100
0000
0000
0000
,
0010
0100
0001
0000
1000
0100
0010
0000
,
0002
0000
0000
0000
1003
0000
0100
1000
0000
1000
0000
0000
0001
0000
0100
0000
,
0010
0000
1000
0000
0100
0000
0000
0000
0010
0000
0001
0000
1000
0000
0010
1000
,
0010
0000
0010
0000
0010
0100
0001
1000
,
1001
0000
1000
0100
0020
0000
0031
0010
,
1000
0010
0100
1000
0100
1000
0001
0000
,
0100
0000
0010
0100
0002
0000
1003
0100
,
0010
0001
0100
0010
1000
0001
0100
0000
,
0110
0010
0100
1000
0100
0001
0100
0010
,
1000
0000
0000
0000
0001
0000
0000
0100
0000
0100
0000
0000
0010
0000
0100
0000
,
0001
0010
0100
1000
0010
0100
0001
1000
,
1001
0000
0110
0000
1001
1000
2000
0000
,
3000
0000
0000
0000
;

//---------------dance-single - ----------------
#NOTEDATA:;
#CHARTNAME:X-Scale 4;
#STEPSTYPE:dance-single;
#DESCRIPTION:;
#CHARTSTYLE:;
#DIFFICULTY:Easy;
#METER:4;
#RADARVALUES:0.325085,0.405552,0.067592,0.075102,0.000000,303.000000,294.000000,9.000000,10.000000,0.000000,0.000000,0.000000,0.000000,0.000000,0.325085,0.405552,0.067592,0.075102,0.000000,303.000000,294.000000,9.000000,10.000000,0.000000,0.000000,0.000000,0.000000,0.000000;
#CREDIT:;
#NOTES:
0000
0000
0000
0000
,
0000
0000
0000
0000
,
0000
0000
0000
0000
,
0000
0000
0000
0000
,
0000
0000
0000
0000
,
0000
0000
0000
0000
,
0000
0000
0000
0000
,
0000
0000
0000
0000
,
1000
0000
0001
0000
0000
1000
0001
0000
,
0010
0000
0100
0000
0000
0010
0100
0000
,
1000
0000
0010
0000
0000
1000
0010
0000
,
0100
0000
0001
0000
0000
0100
0001
0100
,
0010
0000
0100
0000
0000
0010
0100
0000
,
0001
0000
0010
0000
0000
0001
0010
0000
,
0100
0000
1000
0000
0000
0100
1000
0000
,
0001
0010
0100
1000
,
1100
0001
2000
3100
,
1000
0000
0001
0100
0001
0100
0001
0000
,
1000
0100
0020
0031
,
1000
0000
0010
0100
0010
0000
1000
0000
,
0100
0010
0002
1003
,
0010
0000
1000
0100
1000
0100
1000
0000
,
0001
0100
0020
1030
,
0001
0000
0010
0100
0010
0000
0001
0000
,
1000
0000
0001
0010
0200
0000
1300
0000
,
0001
0000
1000
0010
0100
0010
1000
0000
,
0001
0000
1000
0010
0200
0000
0310
0000
,
0100
0000
0001
0010
0001
1000
0010
0000
,
1010
0000
0001
0100
0001
0000
1000
0000
,
1100
0000
0100
0010
0001
0000
0100
0000
,
0101
0000
0001
0010
0100
0000
1000
0001
,
1000
0000
0100
0000
1000
0001
0010
0000
,
0011
0000
0001
0000
1000
0100
1000
0000
,
0001
0000
0100
0000
0010
0100
0010
0000
,
1000
0000
0100
0000
1000
0010
1000
0000
,
0001
0000
0100
0000
0010
0100
0010
0000
,
1000
0000
0100
0000
0010
0100
0010
0000
,
0001
0000
1000
0000
0010
1000
0010
0000
,
0100
0000
0001
0000
0100
0010
0100
0000
,
0001
0000
0010
0000
0100
1000
0100
0000
,
1000
0000
0001
0100
0001
0000
1000
0100
,
1000
0000
0001
0100
0010
0100
0001
0000
,
1000
0000
0010
1000
0010
0000
0100
0001
,
0100
0000
0001
1000
0100
1000
0001
0000
,
0100
0000
0010
0100
0010
0000
1000
0100
,
1000
0000
0001
0010
0100
0010
0001
0000
,
1000
0000
0010
1000
0010
0000
0100
0001
,
0100
0000
0010
0000
1000
1000
1000
0000
,
1001
0000
0000
0000
,
0000
0000
0000
0000
,
0100
0000
0000
0000
,
0000
0000
0000
0000
,
0010
0000
0000
0000
,
0000
0000
0000
0000
,
0001
0000
0000
0000
,
0000
0000
0000
0000
,
1001
0000
1000
0000
0100
1000
0100
0000
,
0010
0000
0001
0000
1000
0001
1000
0000
,
0100
0000
0010
0000
0001
0010
0001
0000
,
0100
0000
0010
0000
1000
0010
1000
0000
,
0001
0000
0010
0000
0100
0010
0100
0000
,
1000
0000
0010
0000
1000
0001
1000
0000
,
0010
0000
0100
0000
0001
0100
0001
0000
,
1000
0000
0001
0000
0100
0010
0100
0010
,
0110
0000
0100
0001
2000
0000
3100
1000
,
0001
1000
0100
0000
0010
0000
0100
0000
,
0010
0000
0001
0100
0002
0000
1003
0001
,
0010
0001
0100
0000
0010
1000
0001
0000
,
0010
0000
0100
1000
0002
0000
0013
0100
,
1000
0100
0010
0000
0001
1000
0001
0000
,
1000
0000
0010
0100
0002
0000
1003
0100
,
0010
0100
1000
0000
0001
0100
0001
0000
,
0101
0000
0000
0000
;

//---------------dance-single - ----------------
#NOTEDATA:;
#CHARTNAME:X-Scale 1;
#STEPSTYPE:dance-single;
#DESCRIPTION:;
#CHARTSTYLE:;
#DIFFICULTY:Beginner;
#METER:1;
#RADARVALUES:0.087977,0.135184,0.007510,0.000000,0.000000,82.000000,81.000000,1.000000,0.000000,0.000000,0.000000,0.000000,0.000000,0.000000,0.087977,0.135184,0.007510,0.000000,0.000000,82.000000,81.000000,1.000000,0.000000,0.000000,0.000000,0.000000,0.000000,0.000000;
#CREDIT:;
#NOTES:
0000
0000
0000
0000
,
0000
0000
0000
0000
,
0000
0000
0000
0000
,
0000
0000
0000
0000
,
0000
0000
0000
0000
,
0000
0000
0000
0000
,
0000
0000
0000
0000
,
0000
0000
0000
0000
,
1000
0000
0000
0000
,
0100
0000
0000
0000
,
1000
0000
0000
0000
,
0100
0000
0000
0000
,
0010
0000
0000
0000
,
0001
0000
0000
0000
,
0010
0000
0000
0000
,
0001
0000
0000
0000
,
1000
0000
0000
0000
,
0000
0000
0000
0000
,
0010
0000
0000
0000
,
0000
0000
0000
0000
,
0100
0000
0000
0000
,
0000
0000
0000
0000
,
0001
0000
0000
0000
,
0000
0000
0000
0000
,
1000
0000
0000
0000
,
0000
0000
0000
0000
,
0001
0000
0000
0000
,
0000
0000
0000
0000
,
1000
0000
0000
0000
,
0001
0000
0000
0000
,
1000
0000
0100
0000
,
1000
0000
0010
0000
,
0100
0000
0010
0000
,
0100
0000
0001
0000
,
1000
0000
0001
0000
,
0010
0000
0100
0000
,
0010
0000
0001
0000
,
1000
0000
0010
0000
,
1000
0000
0001
0000
,
0010
0000
0100
0000
,
1000
0000
0001
0000
,
1000
0000
0001
0000
,
0010
0000
0100
0000
,
0010
0000
0100
0000
,
1000
0000
0010
0000
,
1000
0000
0010
0000
,
1000
0000
0001
0000
,
1000
0000
0001
0000
,
0100
0000
0000
0000
,
0000
0000
0000
0000
,
0010
0000
0000
0000
,
0000
0000
0000
0000
,
1000
0000
0000
0000
,
0000
0000
0000
0000
,
0001
0000
0000
0000
,
0000
0000
0000
0000
,
1001
0000
0000
0000
,
1000
0000
0000
0000
,
0001
0000
0000
0000
,
1000
0000
0000
0000
,
0001
0000
0000
0000
,
0010
0000
0000
0000
,
0100
0000
0000
0000
,
0010
0000
0000
0000
,
0100
0000
1000
0000
,
0001
0000
1000
0000
,
0010
0000
0100
0000
,
0010
0000
1000
0000
,
0100
0000
0010
0000
,
0100
0000
1000
0000
,
0001
0000
1000
0000
,
0001
0000
0010
0000
,
0001
0000
0000
0000
;
