#TITLE:Bounce Mechanism;
#SUBTITLE:;
#ARTIST:Curbi;
#TITLETRANSLIT:;
#SUBTITLETRANSLIT:;
#ARTISTTRANSLIT:;
#GENRE:Bass House;
#CREDIT:;
#BANNER:Bounce Mechanism-bn.png;
#BACKGROUND:Bounce Mechanism-bg.png;
#LYRICSPATH:;
#CDTITLE:cdtitle.png;
#MUSIC:Bounce Mechanism.ogg;
#OFFSET:-0.002000;
#SAMPLESTART:60.001999;
#SAMPLELENGTH:15.000000;
#SELECTABLE:YES;
#BPMS:0.000000=128.000000
;
#STOPS:
;
#BGCHANGES:0.000=Bounce Mechanism.avi=1.000=0=0=0=StretchNoLoop==CrossFade_Fastest==,
99999=-nosongbg-=1.000=0=0=0 // don't automatically add -songbackground-
;
#KEYSOUNDS:;
#ATTACKS:;

//---------------dance-single - ----------------
#NOTES:
     dance-single:
     X-Scale 14:
     Hard:
     9:
     0.687062,0.665430,0.159959,0.287926,0.581185,451.000000,436.000000,15.000000,27.000000,0.000000,0.000000,0.687062,0.665430,0.159959,0.287926,0.581185,451.000000,436.000000,15.000000,27.000000,0.000000,0.000000:
// measure 0
0000
0000
0000
0000
,  // measure 1
0000
0000
0000
0000
,  // measure 2
0000
0000
0000
0000
,  // measure 3
0000
0000
0000
0000
,  // measure 4
1100
0000
1000
0000
0100
0000
1000
0000
0001
0100
0001
0000
0001
0100
0001
0000
,  // measure 5
0010
0000
0100
0000
0010
0000
0100
0000
1000
0001
1000
0000
1000
0001
1000
0000
,  // measure 6
0010
0000
0100
0000
0010
0000
0100
0000
0001
0010
0001
0000
0001
0010
0001
0000
,  // measure 7
1000
0000
0010
0000
1000
0000
0010
0000
0100
0001
0200
0000
0000
0000
0302
0000
,  // measure 8
1003
0000
0001
0000
1000
0000
0001
0000
0010
0100
0010
0000
0010
0100
0010
0000
,  // measure 9
0001
0000
0100
0000
0001
0000
0100
0000
0010
0100
0010
0000
0010
0100
0010
0000
,  // measure 10
1000
0000
0100
0000
1000
0000
0100
0000
0010
0001
0010
0000
0010
0001
0010
0000
,  // measure 11
0001
0000
1000
0000
0001
0000
1000
0000
0100
0010
0200
0000
0000
0000
2300
0000
,  // measure 12
3100
0000
1000
0000
0001
0000
0010
0001
1000
0001
0100
0010
1000
0010
0100
0001
,  // measure 13
1000
0000
0001
0000
0100
0000
0010
1000
0100
1000
0001
0100
0010
0000
1000
0000
,  // measure 14
0001
0000
1000
0000
0100
0000
0010
0100
0010
0001
1000
0010
0100
0001
0010
0100
,  // measure 15
1000
0000
1000
0000
0100
0000
0010
0001
1000
0001
0100
0010
1000
0000
0001
0000
,  // measure 16
1000
0000
0100
0000
0010
0000
0001
1000
0010
0100
0010
1000
0001
0010
0100
1000
,  // measure 17
0001
0000
0100
0000
0010
0000
0100
0010
1000
0001
0010
0100
0010
0000
0001
0000
,  // measure 18
1000
0000
0010
0000
0001
0000
0010
0100
0010
1000
0010
0100
0001
0010
0100
1000
,  // measure 19
0001
0000
0010
0000
1000
0000
0010
0000
0001
0100
0020
0000
0000
0000
2030
0000
,  // measure 20
3001
0000
0001
1000
0100
1000
0001
0000
0010
0100
1000
0001
0010
0000
0010
0000
,  // measure 21
0010
0000
0001
0100
0001
1000
0001
0000
1000
0100
0010
0001
1000
0000
1000
0000
,  // measure 22
1000
0000
0100
0010
0001
1000
0100
0000
1000
0100
1000
0001
0100
0000
0100
0000
,  // measure 23
0100
0000
0001
0100
0010
1000
0001
0000
0001
0100
0010
0100
0001
0000
0001
0000
,  // measure 24
0101
0100
0010
0100
0010
1000
0001
1000
,  // measure 25
1001
0010
1000
0010
1000
0001
0010
0001
,  // measure 26
0011
0100
0001
0100
0001
1000
0010
1000
,  // measure 27
1010
0010
0100
0010
0100
0001
0010
0001
,  // measure 28
0011
0000
0010
0001
0010
0000
0001
0010
0001
0000
1000
0010
1000
0000
0010
1000
,  // measure 29
0010
0000
0100
0010
0100
0000
0010
0100
0010
0000
1000
0001
1000
0000
0001
1000
,  // measure 30
0001
0001
0010
0010
0100
0100
1000
1000
,  // measure 31
0002
0203
0320
0032
0023
2030
3002
0003
,  // measure 32
1001
0000
1000
0000
0001
0010
0100
0000
0010
0000
0000
0010
1000
0000
0001
0000
,  // measure 33
0100
0000
0000
0100
1000
0000
0001
0000
0010
0000
0000
0010
1000
0000
0001
0000
,  // measure 34
1001
0000
1000
0000
0001
0100
0010
0000
0100
0000
0000
0100
1000
0000
0001
0000
,  // measure 35
0010
0000
0000
0010
1000
0000
0001
0000
0100
0000
0000
0100
1000
0000
0001
0000
,  // measure 36
0010
0001
1000
0001
0010
0100
1000
0000
0010
0000
0000
0010
0001
0000
1000
0000
,  // measure 37
0100
0000
0000
0100
0001
0000
0010
0000
1000
0000
0010
0000
0001
0000
1000
0000
,  // measure 38
1001
0000
0010
0000
0001
1000
0010
0000
0100
0000
0000
0100
1000
0000
0001
0000
,  // measure 39
1002
0203
2300
3200
0302
0023
0230
0300
,  // measure 40
1010
0000
1000
0000
0001
1000
0100
0000
0010
0000
0000
0001
1000
0001
0000
0100
,  // measure 41
0010
0100
0000
0001
0010
0000
0001
0000
1000
0000
0001
0100
0001
0000
1000
0000
,  // measure 42
1100
0000
0100
0000
0010
0001
1000
0000
0010
0000
0000
0100
0010
0100
0000
0001
,  // measure 43
0010
0001
0000
1000
0100
0000
1000
0000
0001
0000
0100
0001
0100
0000
0010
0000
,  // measure 44
1000
0010
0100
0001
0010
0100
1000
0000
0001
0000
0000
0100
0001
0100
0000
0010
,  // measure 45
0100
0010
0000
1000
0100
0000
1000
0000
0001
0000
0010
0100
0010
0000
0001
0000
,  // measure 46
1010
0000
1000
0000
0001
0100
0010
0000
1000
0000
0000
0001
0100
0001
0000
0000
,  // measure 47
2001
3002
0203
2300
3200
0320
0230
0300
,  // measure 48
1010
0000
0000
0000
;

//---------------dance-single - ----------------
#NOTES:
     dance-single:
     X-Scale 10:
     Medium:
     7:
     0.450932,0.460682,0.170623,0.223943,0.149295,296.000000,280.000000,16.000000,21.000000,0.000000,0.000000,0.450932,0.460682,0.170623,0.223943,0.149295,296.000000,280.000000,16.000000,21.000000,0.000000,0.000000:
// measure 0
0000
0000
0000
0000
,  // measure 1
0000
0000
0000
0000
,  // measure 2
0000
0000
0000
0000
,  // measure 3
0000
0000
0000
0000
,  // measure 4
2010
0000
0001
0000
3100
0020
0001
0000
,  // measure 5
0032
0000
1000
0000
0013
0200
1000
0000
,  // measure 6
2300
0000
0001
0000
3010
0200
1000
0000
,  // measure 7
0302
0000
0010
0000
1003
0020
0000
0100
,  // measure 8
0230
0000
1000
0000
0301
0020
0100
0000
,  // measure 9
0230
0000
0001
0000
1300
0020
0001
0000
,  // measure 10
0230
0000
0010
0000
0301
2000
0100
0000
,  // measure 11
3002
0000
0010
0000
1003
0020
0000
0100
,  // measure 12
0130
0000
0010
0000
1000
0000
0000
0000
0001
0100
0001
0000
1000
0100
1000
0000
,  // measure 13
1000
0100
0010
0001
0000
0001
2001
0000
,  // measure 14
3001
0000
1000
0000
0010
0000
0000
0000
0100
0010
0100
0000
0001
0100
0001
0000
,  // measure 15
0001
0100
0010
1000
0000
1000
1002
0000
,  // measure 16
0103
0000
0001
0000
0010
0000
0000
0000
0100
1000
0100
0000
1000
0001
1000
0000
,  // measure 17
1000
0100
0010
0001
0000
0001
2001
0000
,  // measure 18
3100
0000
0010
0000
0001
0000
0000
0000
1000
0001
1000
0000
0001
0100
0001
0000
,  // measure 19
0001
0100
0001
1000
0000
2000
0000
3001
,  // measure 20
1001
0000
1000
0001
1000
0000
0010
0010
,  // measure 21
0010
0000
0100
0010
0100
0000
0001
0001
,  // measure 22
0001
0000
1000
0010
1000
0000
0100
0100
,  // measure 23
0100
0000
0010
0001
1000
0000
0001
0001
,  // measure 24
1001
1000
0100
1000
,  // measure 25
1001
0001
0100
0001
,  // measure 26
0101
0100
0010
0100
,  // measure 27
0110
0000
0010
0000
1000
0000
0002
0010
,  // measure 28
0013
0001
1000
0001
0010
0100
1000
0001
,  // measure 29
1000
0010
0100
0001
1000
0010
0001
0010
,  // measure 30
1000
1000
0100
0100
0010
0010
0001
0001
,  // measure 31
1000
0100
0001
1000
0010
0001
1000
0000
,  // measure 32
0101
0100
0010
0000
1000
0000
0100
0010
,  // measure 33
0001
0000
1000
0010
0100
0000
0001
0010
,  // measure 34
0100
0000
1000
0010
1000
0000
0001
0100
,  // measure 35
0010
0000
0100
0010
1000
0000
0001
0100
,  // measure 36
0010
0000
0110
0100
0001
0000
1000
0100
,  // measure 37
1000
0000
0001
0100
1000
0100
0001
0000
,  // measure 38
1000
0000
0010
0100
0001
0000
1000
0100
,  // measure 39
1100
0100
0001
1000
0010
0001
1000
0000
,  // measure 40
0101
0000
0000
0000
0100
0000
0010
0000
1000
0000
0000
0001
0000
0100
0000
0001
,  // measure 41
0000
1000
0000
0100
1000
0000
0001
0000
1000
0000
0000
1000
0100
0000
0010
0000
,  // measure 42
0001
0000
0000
0000
1000
0000
0010
0000
0100
0000
0000
0001
0000
1000
0000
0100
,  // measure 43
0000
1000
0000
0001
0010
0000
0100
0000
1000
0000
0000
1000
0001
0000
0100
0000
,  // measure 44
0010
0000
0000
0000
1010
0000
1000
0000
0001
0000
0000
0010
0000
0001
0000
1000
,  // measure 45
0000
0100
0000
0010
0001
0000
1000
0000
0001
0000
0000
0010
0100
0000
0010
0000
,  // measure 46
0001
0000
0000
0000
1000
0000
0010
0000
0100
0000
0000
0001
0000
1000
0000
0000
,  // measure 47
1100
0100
0001
1000
0010
0001
1000
0000
,  // measure 48
0011
0000
0000
0000
;

//---------------dance-single - ----------------
#NOTES:
     dance-single:
     X-Scale 6:
     Easy:
     4:
     0.316871,0.460682,0.117303,0.127967,0.000000,208.000000,197.000000,11.000000,12.000000,0.000000,0.000000,0.316871,0.460682,0.117303,0.127967,0.000000,208.000000,197.000000,11.000000,12.000000,0.000000,0.000000:
// measure 0
0000
0000
0000
0000
,  // measure 1
0000
0000
0000
0000
,  // measure 2
0000
0000
0000
0000
,  // measure 3
0000
0000
0000
0000
,  // measure 4
1001
1000
0001
0001
,  // measure 5
0100
0100
0010
0010
,  // measure 6
1000
1000
0100
0100
,  // measure 7
0010
0000
0010
0000
0001
2000
3000
0020
,  // measure 8
1030
1000
0100
0100
,  // measure 9
0010
0010
0001
0001
,  // measure 10
0100
0100
0010
0010
,  // measure 11
1000
0000
1000
0000
0001
0020
0030
0002
,  // measure 12
1003
0100
1000
1000
,  // measure 13
0001
0100
0001
0001
,  // measure 14
0010
0100
1000
1000
,  // measure 15
0001
0000
0100
0000
0010
0100
0000
0100
,  // measure 16
0001
1000
0100
0100
,  // measure 17
0010
0001
0100
0100
,  // measure 18
0010
1000
0001
0001
,  // measure 19
0010
0000
0100
0000
0010
0001
0000
0001
,  // measure 20
2001
0000
3200
0000
,  // measure 21
0320
0000
0032
0000
,  // measure 22
0203
0000
0320
0000
,  // measure 23
2030
0000
0000
0000
0000
0000
3001
0001
,  // measure 24
1001
1000
0100
1000
,  // measure 25
0100
0010
0001
0010
,  // measure 26
0001
1000
0010
1000
,  // measure 27
0010
0100
0001
0100
,  // measure 28
0001
0001
0010
0010
,  // measure 29
0100
0100
1000
1000
,  // measure 30
0001
0100
0010
1000
0001
0100
0010
1000
,  // measure 31
0001
0000
1000
0000
,  // measure 32
1001
0100
1000
0001
,  // measure 33
1000
0100
0010
0100
,  // measure 34
1010
0001
0010
0001
,  // measure 35
0100
0010
1000
0001
,  // measure 36
0000
1001
1000
0100
,  // measure 37
0010
0000
0100
0000
1000
0001
1000
0000
,  // measure 38
0110
0010
1000
0001
,  // measure 39
0011
0000
1000
0000
,  // measure 40
1010
0000
0001
0010
0001
0010
0100
1000
,  // measure 41
0100
1000
0010
0100
0010
0100
0001
0010
,  // measure 42
0001
0010
0100
1000
0100
1000
0001
0100
,  // measure 43
0001
0100
0010
1000
0010
1000
0001
0010
,  // measure 44
0001
0000
0011
0010
0001
1000
0001
0010
,  // measure 45
0001
1000
0001
0010
0100
0010
0001
1000
,  // measure 46
0010
0100
0010
1000
0010
0100
0010
1000
,  // measure 47
2010
0000
0000
0000
,  // measure 48
3001
0000
0000
0000
;

//---------------dance-single - ----------------
#NOTES:
     dance-single:
     X-Scale 2:
     Beginner:
     1:
     0.111210,0.150362,0.085311,0.000000,0.000000,73.000000,65.000000,8.000000,0.000000,0.000000,0.000000,0.111210,0.150362,0.085311,0.000000,0.000000,73.000000,65.000000,8.000000,0.000000,0.000000,0.000000:
// measure 0
0000
0000
0000
0000
,  // measure 1
0000
0000
0000
0000
,  // measure 2
0000
0000
0000
0000
,  // measure 3
0000
0000
0000
0000
,  // measure 4
1000
0000
0000
0000
,  // measure 5
0100
0000
0000
0000
,  // measure 6
0010
0000
0000
0000
,  // measure 7
0001
0000
0000
0000
,  // measure 8
1000
0000
0000
0000
,  // measure 9
0100
0000
0000
0000
,  // measure 10
0010
0000
0000
0000
,  // measure 11
0001
0000
0000
0000
,  // measure 12
1000
0000
0001
0000
,  // measure 13
1000
0000
0001
0000
,  // measure 14
0010
0000
0100
0000
,  // measure 15
0010
0000
0100
0000
,  // measure 16
1000
0000
0010
0000
,  // measure 17
1000
0000
0010
0000
,  // measure 18
1000
0000
0100
0000
,  // measure 19
1000
0000
0100
0000
,  // measure 20
1001
0000
0000
0000
,  // measure 21
0000
0000
0000
0000
,  // measure 22
0000
0000
0000
0000
,  // measure 23
0000
0000
0000
0000
,  // measure 24
0110
0000
0000
0000
,  // measure 25
1001
0000
0000
0000
,  // measure 26
0110
0000
0000
0000
,  // measure 27
1001
0000
0000
0000
,  // measure 28
0110
0000
0010
0000
,  // measure 29
0100
0000
0010
0000
,  // measure 30
0100
0000
0010
0000
,  // measure 31
0000
0000
0000
0000
,  // measure 32
1001
0000
1000
0000
,  // measure 33
0001
0000
1000
0000
,  // measure 34
0100
0000
0010
0000
,  // measure 35
0100
0000
0010
0000
,  // measure 36
0001
0000
1000
0000
,  // measure 37
0001
0000
1000
0000
,  // measure 38
0010
0000
0100
0000
,  // measure 39
0010
0000
0000
0000
,  // measure 40
0110
0000
0100
0000
,  // measure 41
0001
0000
0100
0000
,  // measure 42
0001
0000
1000
0000
,  // measure 43
0100
0000
1000
0000
,  // measure 44
0100
0000
0010
0000
,  // measure 45
0001
0000
0010
0000
,  // measure 46
0001
0000
1000
0000
,  // measure 47
0001
0000
0000
0000
;
