#TITLE:Blueprint;
#SUBTITLE:;
#ARTIST:Ferry Corsten;
#TITLETRANSLIT:;
#SUBTITLETRANSLIT:;
#ARTISTTRANSLIT:;
#GENRE:Progressive Trance;
#CREDIT:;
#BANNER:blueprint-bn.png;
#BACKGROUND:blueprint-bg.png;
#LYRICSPATH:;
#CDTITLE:cdtitle.png;
#MUSIC:blueprint.ogg;
#OFFSET:0.000000;
#SAMPLESTART:46.153999;
#SAMPLELENGTH:12.000000;
#SELECTABLE:YES;
#BPMS:0.000000=65.000000
,50.000000=130.000000
;
#STOPS:
;
#BGCHANGES:;
#KEYSOUNDS:;
#ATTACKS:;

//---------------dance-single - ----------------
#NOTES:
     dance-single:
     :
     Challenge:
     8:
     0.464147,0.710392,0.044386,0.230805,0.479365,366.000000,361.000000,5.000000,26.000000,0.000000,0.000000,0.464147,0.710392,0.044386,0.230805,0.479365,366.000000,361.000000,5.000000,26.000000,0.000000,0.000000:
// measure 0
0000
0000
2000
0001
,  // measure 1
3002
0100
0203
0010
,  // measure 2
0320
0100
0230
0001
,  // measure 3
0302
1000
2003
3002
,  // measure 4
2003
0001
0000
0100
0000
0010
0000
0100
3100
1000
0000
1000
0000
0001
0000
1000
,  // measure 5
0001
1000
0000
0100
0000
0010
0000
0100
0010
0001
0000
1000
0000
0001
0000
0010
,  // measure 6
0001
0100
0000
0001
0000
1000
0000
0010
1000
0001
0000
0010
0000
0100
0000
1000
,  // measure 7
0100
1000
0000
0010
0000
0100
0000
0001
0100
0010
0000
1000
0000
0100
0000
1000
,  // measure 8
0001
1000
0000
0010
0000
0100
0000
0010
0110
0010
0000
0100
0000
0001
0000
1000
,  // measure 9
0100
1000
0000
0010
0000
0001
0000
0010
1000
0001
0000
0100
0000
0010
0000
0100
,  // measure 10
0001
0010
0000
1000
0000
0010
0000
0001
0100
0001
0010
0001
0100
0001
0010
0001
,  // measure 11
1000
1000
0010
1000
0001
1000
0010
1000
0001
0010
0100
1000
0001
0010
0100
1000
,  // measure 12
0001
0000
0100
0000
0010
0000
1000
0000
0004
0000
1000
0000
0000
0000
0100
0003
0101
0000
0000
0000
0001
0000
0000
0000
1000
0000
0000
0000
0001
0000
0000
0000
,  // measure 13
0100
0001
0010
0100
0010
0001
0010
1000
,  // measure 14
0100
0001
0010
0100
1000
0001
1000
0100
,  // measure 15
1000
0010
0100
1000
0010
0100
0001
0000
,  // measure 16
0001
0010
0100
0000
0110
0010
0001
0010
,  // measure 17
0100
0010
0001
1000
0010
0100
0001
0100
,  // measure 18
0010
1000
0100
1000
0001
0010
0100
0010
,  // measure 19
0001
1000
0001
0010
0100
0001
1000
0000
,  // measure 20
0100
0000
0001
0000
0100
0000
0000
0000
0001
0100
0001
0000
0010
0000
0100
0000
,  // measure 21
1000
0010
1000
0000
0100
0000
0100
0000
0010
0100
0010
0000
0001
0000
1000
0000
,  // measure 22
0100
0010
0100
0000
1000
0000
0001
0000
0100
0010
1000
0000
0001
0000
0100
0000
,  // measure 23
0010
0100
0001
0000
1000
0000
0001
0000
1000
0000
0100
0000
0010
0000
0100
0000
,  // measure 24
0010
0000
0001
0000
0100
0000
0010
0000
0100
0010
0100
0000
0001
0000
1000
0000
,  // measure 25
0010
0100
0001
0000
0001
0000
1000
0000
0100
1000
0010
0000
0010
0000
0100
0000
,  // measure 26
0001
0010
0001
0000
0001
0000
1000
0000
1000
0100
1000
0000
0001
0000
0100
0000
,  // measure 27
0010
1000
0010
0000
1000
0000
0001
0000
0001
0100
0010
0000
0100
0000
0001
0000
,  // measure 28
0010
0001
0010
0001
0010
0001
0010
0001
0010
0000
0000
0001
1000
0000
1000
0000
,  // measure 29
0100
1000
0000
1000
0001
0000
0100
0000
0010
0100
0000
0010
0100
0000
0001
0000
,  // measure 30
0100
0010
0000
1000
0100
0000
1000
0000
0010
1000
0000
0001
1000
0000
1000
0000
,  // measure 31
0100
0010
0000
0100
1000
0000
0001
0000
0100
0001
0000
0100
0010
0000
1000
0000
,  // measure 32
0100
1000
0000
1000
0010
0000
0100
0000
0001
0100
0000
0001
0010
0000
0100
0000
,  // measure 33
0010
0100
0000
0010
0001
0000
1000
0000
1000
0001
0000
0001
0100
0000
0001
0000
,  // measure 34
0010
0001
0000
1000
0100
0000
1000
0000
0002
0000
0000
0000
1000
0000
1003
0000
,  // measure 35
2000
0000
0010
3010
0020
0000
0100
0130
,  // measure 36
0200
0000
0001
0301
2001
0000
0001
0000
,  // measure 37
0010
0000
0001
3100
0002
0000
1000
0000
,  // measure 38
0010
0000
0100
0003
0200
0000
0001
0000
,  // measure 39
0010
0001
0010
0300
0020
0000
0100
0000
,  // measure 40
0001
0000
1000
0030
2000
0000
0010
0000
,  // measure 41
0001
0010
0100
3000
0200
0000
1000
0000
,  // measure 42
0001
0000
1000
0300
2000
0000
0001
3000
,  // measure 43
0002
0000
0100
0003
0200
0000
1000
0000
,  // measure 44
0000
0000
0001
0301
0102
0000
0000
0000
,  // measure 45
0000
0000
2000
0000
,  // measure 46
0000
0000
0000
0003
0020
0000
0000
0000
,  // measure 47
0000
0000
0000
3000
0200
0000
0000
0000
,  // measure 48
0000
0000
0330
0000
;

//---------------dance-single - ----------------
#NOTES:
     dance-single:
     :
     Hard:
     7:
     0.375376,0.602757,0.026631,0.284068,0.372840,296.000000,293.000000,3.000000,32.000000,0.000000,0.000000,0.375376,0.602757,0.026631,0.284068,0.372840,296.000000,293.000000,3.000000,32.000000,0.000000,0.000000:
// measure 0
0000
0000
2000
3020
,  // measure 1
0230
0302
0023
0230
,  // measure 2
0320
0032
2003
0000
,  // measure 3
3200
0000
2300
3002
,  // measure 4
0023
0001
0000
1000
0000
0001
0000
0100
0130
0010
0000
0100
0000
1000
0000
0001
,  // measure 5
0010
0001
0000
0100
0000
0010
0000
0100
0010
1000
0000
0001
0000
1000
0000
0001
,  // measure 6
0100
0001
0000
0001
0000
1000
0000
1000
0010
0100
0000
0001
0000
0100
0000
0010
,  // measure 7
0100
1000
0000
0100
0000
0001
0000
0010
0002
0000
0000
0000
0203
0000
0000
0000
,  // measure 8
0320
0100
0000
1000
0000
0100
0000
1000
1030
0010
0000
0100
0000
0001
0000
1000
,  // measure 9
0100
1000
0000
0001
0000
0010
0000
0001
0100
0010
0000
1000
0000
0010
0000
0100
,  // measure 10
0010
0100
0000
0001
0000
1000
0000
0001
0100
0001
0000
0001
0100
0001
0000
0001
,  // measure 11
1000
0010
0000
1000
0010
1000
0000
1000
0010
1000
0000
0001
1000
0010
1000
0010
,  // measure 12
1000
0010
1000
0010
1000
0100
0000
1000
1100
0000
0010
0000
0000
0000
1000
0000
,  // measure 13
0000
0010
0000
1000
0001
0100
0000
0001
,  // measure 14
0000
0010
0000
0100
0010
0001
0000
0100
,  // measure 15
0000
0010
0000
1000
0001
0100
0010
0000
,  // measure 16
0010
0100
0001
0100
0110
0010
0000
1000
,  // measure 17
0000
0001
0000
1000
1000
0001
0000
0100
,  // measure 18
0000
1000
0000
0100
0001
0010
0000
0001
,  // measure 19
0000
1000
0000
0010
0100
0001
1000
0000
,  // measure 20
1000
0001
0100
0010
0101
0000
0001
0100
,  // measure 21
0001
1000
0000
0000
1000
0000
0100
0000
1000
0001
0000
0000
0001
0000
0010
0000
,  // measure 22
0100
0010
0000
0000
0010
0000
0100
0000
1000
0001
0000
0000
0001
0000
0100
0000
,  // measure 23
0010
0100
0000
0000
0001
0000
1000
0000
0100
1000
0000
0000
0001
0000
0100
0000
,  // measure 24
0010
0100
0000
0000
0100
0000
0010
0000
0100
0001
0000
0000
0001
0000
1000
0000
,  // measure 25
0010
1000
0000
0000
1000
0000
0010
0000
0100
0010
0000
0000
0010
0000
0100
0000
,  // measure 26
0001
0010
0000
0000
0010
0000
0001
0000
0100
0001
0000
0000
1000
0000
0100
0000
,  // measure 27
1000
0100
0000
0000
1000
0000
0001
0000
0100
0001
0000
0000
0010
0000
0100
0000
,  // measure 28
4000
0010
0000
0010
3010
0000
0001
1000
,  // measure 29
0001
0000
0000
0001
0100
0000
0010
0000
0100
0000
0000
0000
0001
0000
1000
0000
,  // measure 30
0100
0000
0000
1000
0010
0000
0100
0000
0001
0000
0000
0000
1000
0000
0010
0000
,  // measure 31
0100
0000
0000
0100
0010
0000
1000
0000
0001
0000
0000
0000
0001
0000
0100
0000
,  // measure 32
0010
0000
0000
1000
0010
0000
0100
0000
0010
0000
0000
0000
1000
0000
0001
0000
,  // measure 33
0010
0000
0000
0010
0001
0000
1000
0000
0100
0000
0000
0000
1000
0000
0001
0000
,  // measure 34
0100
0000
0000
0001
1000
0000
0010
0000
2000
0000
0000
0000
0001
0000
0000
0000
,  // measure 35
3002
0010
0023
0100
,  // measure 36
1000
0000
0001
1000
0032
0000
0010
0000
,  // measure 37
1000
0000
0010
0003
2000
0000
0001
0000
,  // measure 38
0100
0001
3200
0001
,  // measure 39
0010
0000
1000
0300
2000
0000
0100
0000
,  // measure 40
0001
0010
3020
1000
,  // measure 41
0001
0100
0230
0010
,  // measure 42
1000
0000
0001
0300
0002
0000
1000
0003
,  // measure 43
0002
0000
0100
0003
0002
0000
0010
0000
,  // measure 44
0000
0000
0010
0100
0023
0000
0000
0000
,  // measure 45
0000
0000
0032
0000
,  // measure 46
0000
0000
2003
0000
,  // measure 47
0000
0000
3020
0000
,  // measure 48
0000
0000
0030
0000
;

//---------------dance-single - ----------------
#NOTES:
     dance-single:
     :
     Easy:
     2:
     0.188956,0.237019,0.000000,0.284068,0.000000,149.000000,149.000000,0.000000,32.000000,0.000000,0.000000,0.188956,0.237019,0.000000,0.284068,0.000000,149.000000,149.000000,0.000000,32.000000,0.000000,0.000000:
// measure 0
0000
0000
0002
0000
,  // measure 1
0100
0000
0203
0000
,  // measure 2
0010
0000
0320
0000
,  // measure 3
1000
0000
2030
0000
,  // measure 4
0001
0000
3020
0000
,  // measure 5
1000
0000
2030
0000
,  // measure 6
0100
0000
3200
0000
,  // measure 7
0010
0000
0320
0100
,  // measure 8
0001
0000
0032
0000
,  // measure 9
2003
0000
3020
0000
,  // measure 10
2030
0000
3001
1000
,  // measure 11
0010
1000
0100
0010
,  // measure 12
0001
0000
0200
0000
0300
0100
0000
0010
,  // measure 13
0000
0100
0000
0001
0000
1000
0000
0001
,  // measure 14
0000
1000
0000
0100
0000
0010
0000
0100
,  // measure 15
0000
1000
0000
0001
0000
0100
0000
0001
,  // measure 16
0000
0100
0000
0001
0010
0100
0000
0010
,  // measure 17
0000
0100
0000
1000
0000
0010
0000
1000
,  // measure 18
0000
0001
0000
0100
0000
0010
0000
1000
,  // measure 19
0000
0100
0000
0010
0000
0001
0000
1000
,  // measure 20
0000
0001
0000
0010
0001
0000
1000
0000
,  // measure 21
0001
0000
1000
0100
1000
0000
0001
0000
,  // measure 22
0100
0000
0010
0100
0001
0000
1000
0000
,  // measure 23
0010
0000
0100
0001
1000
0000
0010
0100
,  // measure 24
1000
0000
1000
0100
0010
0000
0100
0000
,  // measure 25
0010
0000
0001
1000
0100
0000
1000
0000
,  // measure 26
0001
0000
0010
0100
0010
0000
0001
0000
,  // measure 27
1000
0000
0001
0010
0100
0000
0010
0001
,  // measure 28
0020
0000
0032
0010
,  // measure 29
0000
0100
0203
0001
,  // measure 30
0000
0010
0320
0100
,  // measure 31
0000
0001
0032
0100
,  // measure 32
0000
0010
0023
0100
,  // measure 33
0000
1000
2030
0010
,  // measure 34
0000
0100
3200
0000
,  // measure 35
2300
0000
3002
1000
,  // measure 36
0000
0010
0023
0001
,  // measure 37
0000
0100
0230
0010
,  // measure 38
0000
1000
2300
0100
,  // measure 39
0000
0001
3002
1000
,  // measure 40
0000
0010
0023
0100
,  // measure 41
0000
0001
0032
0010
,  // measure 42
0000
1000
2003
0000
,  // measure 43
3002
0000
2003
0001
,  // measure 44
0000
0010
3010
0000
;

//---------------dance-single - ----------------
#NOTES:
     dance-single:
     :
     Medium:
     5:
     0.305627,0.452068,0.017754,0.292945,0.190858,241.000000,239.000000,2.000000,33.000000,0.000000,0.000000,0.305627,0.452068,0.017754,0.292945,0.190858,241.000000,239.000000,2.000000,33.000000,0.000000,0.000000:
// measure 0
0000
0000
0020
0000
,  // measure 1
0032
0000
0023
0000
,  // measure 2
0230
0000
2300
0000
,  // measure 3
3200
0000
2300
0000
,  // measure 4
3020
0000
0000
0000
0000
0000
0000
0000
0230
0000
0000
0010
0000
0000
0000
0001
,  // measure 5
0302
0000
0000
0100
0000
0000
0000
0010
0023
0000
0000
0001
0000
0000
0000
0100
,  // measure 6
0230
0000
0000
0010
0000
0010
0000
0010
0320
0000
0000
1000
0000
0000
0000
0001
,  // measure 7
0032
0000
0000
0100
0000
0000
0000
1000
2003
0000
0000
0000
3200
0000
0000
0000
,  // measure 8
2300
0000
0000
0100
0000
0001
0000
0010
3020
0000
0000
0100
0000
0000
0000
1000
,  // measure 9
2030
0010
0000
0001
0000
0010
0000
0001
3002
0000
0000
1000
0000
0010
0000
0100
,  // measure 10
0023
0001
0000
0001
0000
1000
0000
0001
0130
0010
0000
0100
0000
1000
0000
0100
,  // measure 11
0010
0100
0000
0001
0000
0010
0000
0100
1000
0100
0000
1000
0000
0010
0000
0100
,  // measure 12
0010
1000
0000
0001
2000
0000
0000
0000
3001
0000
0001
0000
0000
0000
0100
0000
,  // measure 13
0000
0001
0000
0100
0001
0100
0000
0010
,  // measure 14
0000
1000
0000
0010
1000
0001
0000
0100
,  // measure 15
0000
0010
0000
1000
0001
0100
0000
0001
,  // measure 16
0000
0100
0000
0001
1000
0100
0000
0010
,  // measure 17
0000
0100
0000
1000
0001
0010
0000
0001
,  // measure 18
0000
1000
0000
0100
0001
0010
0000
1000
,  // measure 19
0000
0001
0000
0010
0000
0001
0000
1000
,  // measure 20
0000
0100
0000
1000
1100
0000
0001
0000
,  // measure 21
1000
0000
0010
0100
1000
0000
0100
0000
,  // measure 22
0001
0000
0010
0100
0001
0000
0010
0000
,  // measure 23
1000
0000
0001
0100
0010
0000
1000
0100
,  // measure 24
0010
0100
1000
0100
0010
0000
0001
0000
,  // measure 25
1000
0000
0001
0010
0100
0000
0010
0000
,  // measure 26
0001
0000
1000
0100
1000
0000
0001
0000
,  // measure 27
0010
0000
0100
0000
0010
0001
0010
0100
,  // measure 28
0010
0001
0000
0001
0012
0000
0010
0010
,  // measure 29
0013
0000
0001
1000
0200
0000
0010
0010
,  // measure 30
0310
0000
0010
0100
2000
0000
0001
0001
,  // measure 31
3001
0000
1000
0001
0020
0000
0100
0100
,  // measure 32
0130
0000
0100
0010
0002
0000
1000
0100
,  // measure 33
1003
0000
0001
1000
0200
0000
1000
0010
,  // measure 34
1300
0000
0100
0010
0100
0000
0001
0100
,  // measure 35
0001
0000
0010
0100
1000
0000
0100
1000
,  // measure 36
0010
0000
0100
0100
0100
0000
0010
0000
,  // measure 37
1000
0001
1000
0000
0001
0000
0100
0000
,  // measure 38
0010
0100
0001
0000
0010
0000
0100
0000
,  // measure 39
0010
0001
1000
0000
0001
0000
1000
0000
,  // measure 40
0010
0100
0010
0000
1000
0000
0001
0000
,  // measure 41
1000
0010
0100
0000
0001
0000
1000
0000
,  // measure 42
0010
0100
0001
0000
2000
0000
0100
3000
,  // measure 43
0200
0000
0010
0300
0020
0000
0100
0000
,  // measure 44
0000
0000
0001
0031
0002
0000
0000
0000
,  // measure 45
0000
0000
0000
0000
,  // measure 46
0000
0000
0023
0000
,  // measure 47
0000
0000
0000
0000
,  // measure 48
0000
0000
0030
0000
;

//---------------dance-single - ----------------
#NOTES:
     dance-single:
     :
     Beginner:
     1:
     0.076090,0.138261,0.000000,0.195297,0.000000,60.000000,60.000000,0.000000,22.000000,0.000000,0.000000,0.076090,0.138261,0.000000,0.195297,0.000000,60.000000,60.000000,0.000000,22.000000,0.000000,0.000000:
// measure 0
0000
0000
0002
0000
,  // measure 1
0000
0000
0000
0000
,  // measure 2
0000
0000
0023
0000
,  // measure 3
0000
0000
0000
0000
,  // measure 4
0000
0000
0230
0000
,  // measure 5
0000
0000
0000
0000
,  // measure 6
0000
0000
2300
0000
,  // measure 7
0000
0000
0000
0000
,  // measure 8
0000
0000
3001
0000
,  // measure 9
1000
0000
0001
0000
,  // measure 10
1000
0000
0001
0000
,  // measure 11
0010
0000
0100
0000
,  // measure 12
0002
0000
1003
0000
,  // measure 13
0000
0000
0010
0000
,  // measure 14
0000
0000
0100
0000
,  // measure 15
0000
0000
0001
1000
,  // measure 16
0001
1000
0001
0000
,  // measure 17
0000
0000
0100
0000
,  // measure 18
0000
0000
1000
0000
,  // measure 19
0000
0000
0010
0100
,  // measure 20
0010
0100
0010
0000
,  // measure 21
1000
0000
0001
0000
,  // measure 22
0100
0000
0010
0000
,  // measure 23
1000
0000
0001
0000
,  // measure 24
0010
0000
0100
0000
,  // measure 25
0010
0000
0001
0000
,  // measure 26
1000
0000
0001
0000
,  // measure 27
0100
0000
0010
0000
,  // measure 28
2000
0000
3200
0000
,  // measure 29
0000
0000
0320
0000
,  // measure 30
0000
0000
0230
0000
,  // measure 31
0000
0000
2300
0000
,  // measure 32
0000
0000
3002
0000
,  // measure 33
0000
0000
0203
0000
,  // measure 34
0000
0000
0320
0000
,  // measure 35
0001
0000
0200
0000
,  // measure 36
0000
0000
0000
0300
0230
0000
0000
0000
,  // measure 37
0000
0000
0302
0000
,  // measure 38
0000
0000
2003
0000
,  // measure 39
0000
0000
3200
0000
,  // measure 40
0000
0000
0320
0000
,  // measure 41
0000
0000
0032
0000
,  // measure 42
0000
0000
2003
0000
,  // measure 43
0001
0000
0200
0000
,  // measure 44
0000
0000
3300
0000
;
